#TITLE:U.S.A.;
#SUBTITLE:;
#ARTIST:DA PUMP;
#TITLETRANSLIT:;
#SUBTITLETRANSLIT:;
#ARTISTTRANSLIT:;
#GENRE:;
#CREDIT:;
#MENUCOLOR:;
#METERTYPE:DDR;
#BANNER:U.S.A..png;
#BACKGROUND:U.S.A.-bg.png;
#LYRICSPATH:;
#CDTITLE:./CDTITLES/NONE.PNG;
#MUSIC:U.S.A..ogg;
#OFFSET:0.000;
#SAMPLESTART:67.022;
#SAMPLELENGTH:15.000;
#SELECTABLE:YES;
#LISTSORT:;
#DISPLAYBPM:140.000;
#BPMS:0.000=139.600;
#STOPS:;
#BGCHANGES:0.000=U.S.A..avi=1.000=0=0=0,
99999=-nosongbg-=1.000=0=0=0 // don't automatically add -songbackground-
;
#ATTACKS:;

//---------------dance-single - ----------------
#NOTES:
     dance-single:
     :
     Beginner:
     1:
     0.094,0.137,0.000,0.000,0.000:
0000
0000
0000
0000
,
0000
0000
0000
0000
,
0000
0000
0000
0000
,
0000
0000
0000
0000
,
0000
0000
0000
0000
,
0000
0000
0000
0000
,
0000
0000
0000
0000
,
0001
0000
0000
0000
,
0001
0000
0000
0000
,
1000
0000
0000
0000
,
1000
0000
0000
0000
,
0010
0000
0000
0000
,
0010
0000
0000
0000
,
0100
0000
0000
0000
,
0100
0000
0000
0000
,
0010
0010
0010
0000
,
0000
0000
0000
0000
,
1000
0000
0000
0000
,
0001
0000
1000
0000
,
0100
0100
0100
0000
,
0000
0000
0000
0000
,
1000
0000
0001
0000
,
1000
0000
0000
0000
,
0001
0001
0001
0000
,
0000
0000
0000
0000
,
0100
0000
0010
0000
,
0100
0000
0000
0000
,
1000
1000
1000
0000
,
0000
0000
0000
0000
,
0010
0000
0100
0000
,
0010
0000
0000
0000
,
1000
0000
0000
0000
,
0100
0000
0000
0000
,
0010
0000
0000
0000
,
0001
0000
0000
0000
,
0010
0000
0000
0000
,
0100
0000
0000
0000
,
1000
0000
0000
0000
,
0001
0000
0000
0000
,
1000
1000
1000
0000
,
0000
0000
0000
0000
,
0001
0000
0001
0000
,
1000
0000
0000
0000
,
0001
0001
0001
0000
,
0000
0000
0000
0000
,
0100
0000
0100
0000
,
0010
0000
0000
0000
,
0010
0010
0010
0000
,
0000
0000
0000
0000
,
0100
0000
0100
0000
,
0010
0000
0000
0000
,
1000
1000
1000
0000
,
0000
0000
0000
0000
,
0001
0000
0000
0000
,
0010
0000
0000
0000
,
0001
0000
0000
0000
,
0001
0000
0000
0000
,
1000
0000
0000
0000
,
1000
1000
1000
1000
,
1000
0000
0000
0000
;

//---------------dance-single - ----------------
#NOTES:
     dance-single:
     :
     Easy:
     4:
     0.201,0.250,0.009,0.121,0.000:
0000
0000
0000
0000
,
0000
0000
0000
0000
,
0000
0000
0000
0000
,
0000
0000
0000
0000
,
0000
0000
0000
0000
,
0000
0000
0000
0000
,
0000
0000
0000
0000
,
0001
0000
0001
0000
,
1000
0000
1000
0000
,
0010
0000
0010
0000
,
0100
0100
0100
0100
,
0010
0000
0010
0000
,
1000
0000
1000
0000
,
0001
0000
0001
0000
,
1000
1000
1000
1000
,
0001
0001
0002
0003
,
1000
0000
1000
0000
,
0100
0000
0100
0000
,
0010
0010
0001
0001
,
1000
1000
1000
0000
,
0010
0000
0100
0000
,
0001
0000
1000
0000
,
0001
0001
0010
0010
,
0100
0100
0100
0000
,
0010
0000
0001
0000
,
1000
0000
0010
0000
,
0100
0100
0010
0010
,
0100
0100
0100
0000
,
0001
0000
1000
0000
,
0001
0000
0010
0000
,
0100
0100
1000
1000
,
0020
0000
0000
0030
,
0200
0000
0000
0300
,
0002
0000
0000
0003
,
2000
0000
0000
3000
,
0002
0000
0013
0000
,
2000
0000
3100
0000
,
0020
0000
0130
0000
,
0001
0001
0002
0003
,
1000
1000
1000
0000
,
0010
0000
0100
0000
,
0001
0000
1000
0000
,
0001
0010
0100
1000
,
0001
0001
0001
0000
,
0010
0000
0001
0000
,
1000
0000
0010
0000
,
0100
0010
0200
0300
,
0010
0010
0010
0000
,
1000
0000
0001
0000
,
1000
0100
1000
0000
,
0001
0010
0100
1000
,
0100
0100
0100
0000
,
0010
0000
0001
0000
,
0100
0001
0100
0000
,
0010
1000
0002
0003
,
1000
1000
1000
1000
,
0001
0001
0001
0001
,
0010
0010
0100
0100
,
1000
0001
0100
0010
,
0220
0000
0000
0000
,
0330
0000
0000
0000
;

//---------------dance-single - ----------------
#NOTES:
     dance-single:
     :
     Medium:
     7:
     0.323,0.362,0.158,0.195,0.019:
0000
0000
0000
0000
,
0000
0000
0000
0000
,
0000
0000
0000
0000
,
0000
0000
0000
0000
,
0000
0000
0000
0000
,
0000
0000
0000
0000
,
0000
0000
0000
0000
,
0001
0001
0010
0010
,
0100
0100
1000
1000
,
0001
0010
0000
0010
0001
0000
1000
0000
,
0020
0230
0302
1003
,
0010
0010
1000
1000
,
0001
0001
0100
0100
,
0010
1000
0000
1000
0010
0000
1000
0000
,
0200
2300
3002
0023
,
0031
0100
0002
0003
,
1000
0000
0010
0000
,
1000
0100
1000
0000
0001
1000
0001
0000
,
0100
0001
0100
0000
0010
0100
0010
0000
,
1000
0100
2000
3000
,
0001
0000
0010
0000
,
0001
1000
0001
0000
0100
0010
0100
0000
,
0010
1000
0010
1000
0010
0000
1000
0000
,
0001
0100
0002
0003
,
1000
0000
0100
0000
,
1000
0010
1000
0000
0001
0010
0001
0000
,
0100
0010
0100
0000
0001
1000
0001
0000
,
1000
0100
2000
3000
,
0001
0000
0100
0000
,
0010
1000
0010
0000
0100
0001
0100
0000
,
0001
0010
0001
0010
0001
0000
1000
0000
,
0001
0100
0102
0000
,
1000
0000
0013
0000
,
1000
0100
2100
0000
,
0001
0000
3010
0000
,
0100
0010
0210
0000
,
0001
1000
0310
0000
,
1000
0100
0120
0000
,
0001
1000
0031
0000
,
1100
1100
1100
0000
,
0001
0000
1000
0000
,
0001
0000
0010
0100
1000
0000
0001
0000
,
1000
0100
1000
0000
0001
0100
0001
0000
,
0101
0101
0101
0000
,
1000
0000
0010
0000
,
1000
0000
0001
1000
0200
0000
0300
0000
,
1000
0000
0001
0010
0002
0000
0003
0000
,
1010
1010
1010
0000
,
0001
0000
0010
0000
,
0001
0000
1000
0001
0100
0000
0001
0000
,
1000
0100
1000
0000
0001
0010
0001
0000
,
0011
0011
0011
0000
,
1000
0000
0010
0000
,
0100
0000
0010
0100
0002
0000
1003
0000
,
0100
0000
0010
0100
2000
0000
3001
0000
,
1000
0000
0010
0000
1000
0000
0000
0001
0000
0000
0001
0000
0100
0000
0000
0000
,
0001
0000
0010
0000
0001
0000
0000
1000
0000
0000
1000
0000
0100
0000
0000
0000
,
1000
0000
0000
0010
0000
0000
0100
0000
0000
0001
0000
0000
1000
0000
0000
0000
,
0001
1000
0010
0100
,
0220
0000
0000
0000
,
0330
0000
0000
0000
;

//---------------dance-single - ----------------
#NOTES:
     dance-single:
     :
     Hard:
     9:
     0.475,0.445,0.510,0.232,0.060:
0000
0000
0000
0000
,
0000
0000
0000
0000
,
0000
0000
0000
0000
,
0000
0000
0000
0000
,
0000
0000
0000
0000
,
0000
0000
0000
0000
,
0000
0000
0000
0000
,
0001
0000
1000
0000
0100
0000
0000
1000
0000
0000
1000
0000
0001
0000
1000
0000
,
0001
0000
1000
0000
0100
0000
0000
1000
0000
0000
0001
0000
1000
0000
0100
0000
,
1000
0000
0000
1000
0000
0000
0100
0000
0000
0100
0000
0000
0010
0000
0001
0000
,
0100
0110
0001
1001
,
1000
0000
0001
0000
0100
0000
0000
0001
0000
0000
0001
0000
1000
0000
0001
0000
,
1000
0000
0001
0000
0100
0000
0000
0001
0000
0000
0001
0000
1000
0000
0001
0000
,
1000
0000
0000
1000
0000
0000
0100
0000
0000
0100
0000
0000
0010
0000
0001
0000
,
0100
0110
0001
1001
,
0010
0000
1100
0000
0102
0000
0000
2003
,
0000
3010
0100
0001
0100
0000
0001
0000
,
1000
0100
0010
0000
0001
0010
0100
0000
,
1000
0001
0100
0000
0001
1000
0100
0000
,
0010
0000
0101
0000
2100
0000
0000
3001
,
0010
0000
0001
1000
0100
0000
1000
0000
,
0001
0100
0010
0000
1000
0010
0100
0000
,
0001
0010
0100
1000
0001
0000
1000
0000
,
0001
0000
0101
0000
2100
0000
0000
3001
,
0100
0000
0110
0000
0001
1000
0100
0000
,
0010
0001
0100
0000
0001
0000
1001
0000
,
0010
1000
0100
0000
1000
0000
1001
0000
,
0010
0000
0110
0000
2001
0000
0000
3001
,
0010
0000
0001
1000
0100
0000
1001
0000
,
0100
0010
1000
0000
0010
0000
0110
0000
,
0001
0010
0100
1000
0001
0000
1001
0000
,
1100
0101
2100
3001
,
0100
0000
0000
0001
0000
0000
1000
0000
0020
0000
0000
0000
0130
0000
0000
0000
,
0011
1010
0012
1003
,
0002
0000
0103
0002
1000
0000
0103
0000
,
1010
0011
2010
3001
,
1000
0100
0000
0010
0002
0000
1003
0000
,
0101
1100
0102
1003
,
0001
0010
0100
1000
0001
0000
0110
0000
,
1010
1100
1010
1100
,
1000
0010
0100
0002
1000
0000
0103
0002
,
0000
1003
0100
0010
0100
0000
1000
0000
,
0001
1000
0100
0000
1000
0001
0010
0000
,
0011
0101
0011
0101
,
0001
0010
0100
2000
0001
0000
3100
0020
,
0000
0130
1000
0010
0100
0000
0110
0000
,
0001
0010
0100
1000
0001
0000
0110
0000
,
1100
1010
1100
1010
,
1000
0001
0100
0020
1000
0000
0130
2000
,
0000
3001
0010
0100
0010
0000
0001
0000
,
1000
0100
0001
0000
0001
0100
1000
0000
,
0101
0011
0101
0011
,
0001
1000
0010
0200
0001
0000
0310
0002
,
0000
1003
0100
0010
0100
0000
1100
0000
,
1000
0010
0100
0001
1000
0000
1001
0000
,
0001
0000
0010
0000
0100
0000
0010
0002
0000
0000
1000
0000
1003
0000
0000
0000
,
1000
0000
0010
0000
0100
0000
0010
2000
0000
0000
0001
0000
3001
0000
0000
0000
,
1000
0000
0000
0100
0000
0000
0001
0000
0000
0100
0000
0000
1000
0000
0001
0000
,
0100
0101
0011
0101
,
2002
0000
0000
0000
,
3003
0000
0000
0000
;

//---------------dance-single - ----------------
#NOTES:
     dance-single:
     :
     Challenge:
     13:
     0.605,0.612,0.566,0.213,0.199: // measure 1
0000
0000
0000
0000
,  // measure 2
0000
0000
0000
0000
,  // measure 3
0000
0000
0000
0000
,  // measure 4
0000
0000
0000
0000
,  // measure 5
0000
0000
0000
0000
,  // measure 6
0000
0000
0000
0000
,  // measure 7
0000
0000
0000
0000
,  // measure 8
0010
0000
1000
0000
0100
0000
1000
0020
0000
0000
1030
0000
0100
0000
1000
0000
,  // measure 9
0010
0000
1000
0000
0100
0000
1000
0020
0000
0000
1030
0000
0100
0000
1000
0000
,  // measure 10
0001
0010
0000
0010
0100
0000
0100
1000
0000
1000
0100
0000
0010
0000
0001
0000
,  // measure 11
0100
0110
0010
1001
,  // measure 12
0010
0000
0001
0000
0100
0000
0001
0020
0000
0000
0031
0000
0100
0000
0001
0000
,  // measure 13
0010
0000
0001
0000
0100
0000
0001
0020
0000
0000
0031
0000
0100
0000
0001
0000
,  // measure 14
1000
0100
0000
0100
0010
0000
0010
0001
0000
0001
1000
0000
0001
0000
1000
0000
,  // measure 15
0010
0110
0100
1001
,  // measure 16
1010
MMMM
0011
MMMM
2020
0000
3030
0002
,  // measure 17
0000
1003
0100
0001
0100
1000
0001
1000
,  // measure 18
0010
1000
1100
0000
0010
0001
0101
0000
,  // measure 19
0010
0100
0001
1000
0001
0010
0100
1000
,  // measure 20
0011
MMMM
1010
MMMM
0022
0000
0033
2000
,  // measure 21
0000
3100
1000
0100
1000
0010
0100
0001
,  // measure 22
1000
0100
1100
0000
0001
0010
0011
0000
,  // measure 23
0001
0000
0100
0000
0001
0000
1000
0000
0001
0010
0001
0010
0001
0000
1000
0000
,  // measure 24
0101
MMMM
1100
MMMM
0202
0000
0303
1000
,  // measure 25
0010
0010
1000
1000
0100
0100
0001
0100
,  // measure 26
1000
0001
0101
0000
0001
1000
1010
0000
,  // measure 27
1000
0000
0010
0000
0100
0000
0001
0000
1000
0100
1000
0100
1000
0000
0001
0000
,  // measure 28
1100
MMMM
0101
MMMM
2200
0000
3300
0001
,  // measure 29
0001
1000
0010
0100
0001
0010
0100
1000
,  // measure 30
0001
0010
0011
0000
1000
0001
1001
0000
,  // measure 31
0010
0000
0100
0000
0001
0000
0100
0000
0001
1000
0100
1000
0001
0000
1000
0000
,  // measure 32
0110
MMMM
0101
MMMM
0110
MMMM
1100
0001
,  // measure 33
1000
0000
0000
1000
0010
0000
1000
0000
0100
0000
0010
0000
0001
0000
2000
0000
,  // measure 34
0000
3010
0110
MMMM
0101
0010
1000
0000
,  // measure 35
0001
0000
0010
0000
0100
0000
1000
0000
0001
0000
0010
0000
0100
0010
0100
0010
,  // measure 36
0001
0100
1010
MMMM
1000
0100
0011
MMMM
,  // measure 37
0010
0100
1000
0010
0100
0001
1001
0000
,  // measure 38
1000
0001
0101
MMMM
0001
1000
1100
MMMM
,  // measure 39
1000
0000
0010
0000
0100
0000
0001
0000
1000
0001
1000
0001
1000
0000
0001
0000
,  // measure 40
1100
MMMM
0101
MMMM
1100
MMMM
0101
MMMM
,  // measure 41
1010
0010
0100
0001
1000
0100
1000
0002
,  // measure 42
0000
0013
0100
1000
0001
0010
0100
1000
,  // measure 43
0001
0010
0001
0000
1000
0010
1000
0000
0001
0100
0001
0000
1000
0100
1000
0000
,  // measure 44
0101
MMMM
1100
MMMM
0101
MMMM
1100
0000
,  // measure 45
0110
0010
0100
0020
0000
1030
0100
2000
,  // measure 46
0000
3001
0010
0100
0020
0000
0031
0000
,  // measure 47
1000
0100
1000
0000
0001
0000
0100
0000
0001
0000
1000
0000
0001
1000
0001
0000
,  // measure 48
0011
MMMM
1010
MMMM
0011
MMMM
1010
MMMM
,  // measure 49
1100
0100
0010
0100
1000
0010
0100
0020
,  // measure 50
0000
1030
0100
1000
0001
0100
0001
1000
,  // measure 51
0001
0010
0100
0000
1000
0010
0100
0000
0001
0010
0001
0000
1000
0010
1000
0000
,  // measure 52
1100
MMMM
0101
MMMM
1010
MMMM
0011
MMMM
,  // measure 53
1001
0001
0010
0200
0000
0310
0001
1000
,  // measure 54
0001
0000
1001
0000
0001
0100
1000
0100
,  // measure 55
0001
1000
0001
1000
0010
0000
0100
0000
0001
0000
0010
0000
0001
1000
0001
1000
,  // measure 56
0001
0000
0100
0000
0010
0000
0000
0010
0100
0000
0001
0000
0010
0000
0100
0000
,  // measure 57
1000
0000
0010
0000
0100
0000
0000
0100
0010
0000
1000
0000
0100
0000
0010
0000
,  // measure 58
0001
0010
0000
0010
0001
0000
1000
0010
0000
0010
1000
0000
0001
0000
0100
0000
,  // measure 59
0110
MMMM
0101
MMMM
1100
MMMM
0011
MMMM
,  // measure 60
2002
0000
0000
0000
,  // measure 61
3003
0000
0000
0000
;
