#TITLE:That's the Way (Scorccio Edit);
#SUBTITLE:;
#ARTIST:X-Treme;
#TITLETRANSLIT:;
#SUBTITLETRANSLIT:;
#ARTISTTRANSLIT:;
#GENRE:;
#CREDIT:;
#MENUCOLOR:;
#METERTYPE:DDR;
#BANNER:That's the Way (Scorccio Edit).png;
#BACKGROUND:That's the Way (Scorccio Edit)-bg.png;
#LYRICSPATH:;
#CDTITLE:./CDTITLES/NONE.PNG;
#MUSIC:That's the Way (Scorccio Edit).ogg;
#OFFSET:0.000;
#SAMPLESTART:22.500;
#SAMPLELENGTH:15.000;
#SELECTABLE:YES;
#LISTSORT:;
#BPMS:0.000=128.000;
#STOPS:;
#BGCHANGES:;
#ATTACKS:;

//---------------dance-single - ----------------
#NOTES:
     dance-single:
     :
     Beginner:
     1:
     0.091,0.143,0.009,0.000,0.000:
0000
0000
0000
0000
,
0000
0000
0000
0000
,
0000
0000
0000
0000
,
0000
0000
0000
0000
,
0000
0000
0000
0000
,
0000
0000
0000
0000
,
1000
0000
0000
0000
,
0001
0000
0000
0000
,
0100
0000
0100
0000
,
0010
0000
0010
0000
,
1000
0000
0001
0000
,
1000
0000
0000
0000
,
0001
0000
0001
0000
,
0001
0000
0000
0000
,
1000
0000
1000
0000
,
1000
0000
0000
0000
,
0010
0000
0010
0000
,
0010
0000
0000
0000
,
0100
0000
0100
0000
,
0100
0000
0000
0000
,
0001
0000
0000
0000
,
1000
0000
0000
0000
,
0100
0000
0000
0000
,
0010
0000
0000
0000
,
0100
0000
0000
0000
,
1000
0000
0000
0000
,
0001
0000
0000
0000
,
0100
0000
0000
0000
,
0010
0000
0100
0000
,
0010
0000
0000
0000
,
0001
0000
1000
0000
,
0001
0000
0000
0000
,
1000
0000
0100
0000
,
1000
0000
0000
0000
,
0001
0000
0100
0000
,
0001
0000
0000
0000
,
1000
0000
1000
0000
,
1000
0000
0000
0000
,
0001
0000
0001
0000
,
0001
0000
0000
0000
,
0100
0000
0100
0000
,
0100
0000
0000
0000
,
0010
0000
0010
0000
,
0010
0000
0000
0000
,
1000
0000
0001
0000
,
0100
0000
0000
0000
,
0001
0000
1000
0000
,
0100
0000
0000
0000
,
0010
0000
0010
0000
,
0010
0000
0010
0000
,
0010
0010
0010
0000
,
0010
0000
0000
0000
,
1001
0000
0000
0000
;

//---------------dance-single - ----------------
#NOTES:
     dance-single:
     :
     Easy:
     4:
     0.185,0.223,0.009,0.101,0.000:
0000
0000
0000
0000
,
0000
0000
0000
0000
,
0000
0000
0000
0000
,
0000
0000
0000
0000
,
0000
0000
0000
0000
,
0000
0000
0000
0000
,
0001
0001
0001
0000
,
1000
1000
1000
0000
,
0010
0000
0010
0000
,
0100
0000
0100
0000
,
0001
0001
0001
0001
,
1000
1000
1000
1000
,
0100
0000
0000
0010
,
0010
0000
0000
0001
,
0001
0000
0000
1000
,
1000
0000
0000
0010
,
0010
0000
0000
0100
,
0100
0000
0000
0001
,
0001
0000
0000
0010
,
0010
0000
0000
0000
,
1000
0100
1000
0000
,
0001
0100
0001
0000
,
1000
0010
1000
0000
,
0001
0010
0001
0000
,
1000
0001
1000
0000
,
0001
1000
0001
0000
,
0100
0010
0100
0000
,
0010
0100
0010
0000
,
1000
0001
0200
0300
,
0001
1000
0200
0300
,
1000
0010
0200
0300
,
0001
0010
0200
0300
,
0010
0001
2000
3000
,
0010
1000
0002
0003
,
1000
0000
0002
0003
,
0001
0000
2000
3000
,
0010
0010
0010
0010
,
0100
0000
0100
0000
,
0001
0001
0001
0001
,
1000
0000
1000
0000
,
1000
1000
1000
1000
,
0100
0000
0100
0000
,
0010
0010
0010
0010
,
0001
0000
0001
0000
,
1000
1000
0100
0000
,
0010
0010
0001
0000
,
1000
1000
0010
0000
,
0100
0100
0001
0000
,
1000
1000
0001
0001
,
1000
1000
0001
0001
,
0100
0010
0100
0010
,
0200
0000
0000
0300
,
0220
0000
0000
0000
,
0000
0000
0000
0000
,
0330
0000
0000
0000
;

//---------------dance-single - ----------------
#NOTES:
     dance-single:
     :
     Medium:
     7:
     0.361,0.422,0.074,0.285,0.092:
0000
0000
0000
0000
,
0000
0000
0000
0000
,
0000
0000
0000
0000
,
0000
0000
0000
0000
,
0000
0000
0000
0000
,
0000
0000
0000
0000
,
0001
2000
0001
3001
,
0100
0020
0100
0130
,
0001
0020
0100
0130
,
1000
0020
0100
0130
,
1001
0010
1001
0100
,
0001
1000
0001
1000
0200
0000
0300
0000
,
1000
0000
0100
0000
1000
0001
0100
0000
,
0001
0000
0100
0000
0001
1000
0010
0000
,
1000
0000
0001
0000
0010
0001
1000
0000
,
0001
0000
0100
0000
0010
0100
0001
0000
,
1000
0000
0100
0000
0010
0100
1000
0000
,
0001
0000
0100
0000
0010
0100
0001
0000
,
1000
0000
0010
0000
1000
0001
1000
0001
,
0200
0000
0020
0330
,
1000
0000
1100
0000
0001
0010
0001
0000
,
0100
0000
0010
0000
0100
0001
0100
0000
,
0001
0000
0011
0000
1000
0100
1000
0000
,
0010
0000
0100
0000
0010
1000
0010
0000
,
1000
0000
1001
0000
1000
0001
0100
0000
,
0001
0000
0010
0000
0001
1000
0010
0000
,
0100
0000
0010
0000
0100
0001
0010
0000
,
0100
0000
0010
0000
0100
1000
0010
0000
,
0100
0000
1010
0000
1000
0100
0010
0000
,
0001
0000
0100
0000
0001
1000
0010
0000
,
0100
0000
0001
0000
0010
0001
0100
0000
,
0010
0000
1000
0000
0001
1000
0010
0000
,
0100
0000
0011
0000
1000
0100
0020
0000
,
0031
0000
0100
0000
0010
1000
0002
0000
,
1003
0000
0100
0000
0010
0100
2000
0000
,
3010
0100
0002
2003
,
3001
0000
0000
0010
0000
0000
0001
0000
0000
0100
0000
0000
0010
0000
1000
0000
,
0001
0000
0000
0100
0000
0000
0002
0000
0100
0000
0000
0000
0103
0000
0000
0000
,
1000
0000
0000
0100
0000
0000
0010
0000
0000
0100
0000
0000
1000
0000
0010
0000
,
0100
0000
0000
0010
0000
0000
2000
0000
0010
0000
0000
0000
3010
0000
0000
0000
,
1000
0000
0000
0001
0000
0000
0100
0000
0000
0010
0000
0000
1000
0000
0001
0000
,
0010
0000
0000
0001
0000
0000
0200
0000
0010
0000
0000
0000
0310
0000
0000
0000
,
0100
0000
0000
0001
0000
0000
1000
0000
0000
0001
0000
0000
0010
0000
0001
0000
,
0100
0000
0000
0010
0000
0000
2000
0000
0100
0000
0000
0000
3001
0000
0000
0000
,
2000
0000
0000
3010
0000
0000
1000
0000
0002
0000
0000
0013
0000
0000
0001
0000
,
2000
0000
0000
3100
0000
0000
1000
0000
0002
0000
0000
0103
0000
0000
0001
0000
,
0200
0000
0000
0310
0000
0000
0100
0000
0002
0000
0000
0013
0000
0000
1000
0000
,
0020
0000
0000
0031
0000
0000
1000
0000
0200
0000
0000
0301
0000
0000
0100
0000
,
1000
0010
2000
0000
3001
0010
0002
0000
,
1003
0100
2000
0000
3001
0100
0002
0000
,
1003
1000
0010
0010
0100
0100
0001
0001
,
1000
0001
1000
0001
0200
0000
0300
0000
,
0220
0000
0000
0000
,
0000
0000
0000
0000
,
0330
0000
0000
0000
;

//---------------dance-single - ----------------
#NOTES:
     dance-single:
     :
     Hard:
     12:
     0.558,0.695,0.230,0.230,0.391: // measure 1
0000
0000
0000
0000
,  // measure 2
0000
0000
0000
0000
,  // measure 3
0000
0000
0000
0000
,  // measure 4
0000
0000
0000
0000
,  // measure 5
0000
0000
0000
0000
,  // measure 6
0000
0000
0000
0000
,  // measure 7
0010
0100
0002
0000
0010
0000
1003
0001
,  // measure 8
0100
0010
2000
0000
3100
0010
0001
1000
,  // measure 9
0010
0011
0100
1100
,  // measure 10
0001
1001
1000
1001
,  // measure 11
0010
0010
1000
1000
0001
0001
0100
0100
,  // measure 12
0001
1000
0001
1000
0001
1000
0001
1000
0002
0000
0000
0000
0003
0000
0000
0000
,  // measure 13
1100
0000
0000
0100
1000
0000
0100
0000
1000
0020
0000
0000
1030
0000
0001
0000
,  // measure 14
0100
0000
0000
0001
0100
0000
0001
0000
0020
0000
0001
0000
0031
0000
0000
0000
,  // measure 15
1001
0000
0000
0001
1000
0000
0001
0000
0010
0002
0000
0000
1003
0000
0100
0000
,  // measure 16
0010
0000
0000
0100
1000
0000
0010
0000
0100
0000
0000
0000
0110
0000
0000
0000
,  // measure 17
1010
0000
0000
0010
1000
0000
0100
0000
1000
0002
0000
0000
0103
0000
0010
0000
,  // measure 18
0100
0000
0000
0001
0010
0000
0100
0000
2000
0000
0010
0000
3010
0000
0000
0000
,  // measure 19
1000
0100
1000
0000
0001
0000
0100
0000
0001
0010
0001
0000
1000
0000
0001
0000
,  // measure 20
0010
0001
0010
0000
0001
1000
0001
0000
0100
0000
0000
0000
0110
0000
0000
0000
,  // measure 21
0010
0000
1000
0000
0001
0000
0000
0100
0001
0000
1000
0000
1000
0000
0001
0000
,  // measure 22
0010
0000
0100
0000
1000
0000
0000
0100
0010
0000
0001
0000
0001
0000
0100
0000
,  // measure 23
0010
0000
1000
0000
0010
0000
0000
0100
0010
0000
1000
0000
1000
0000
0010
0000
,  // measure 24
0100
0000
0001
0000
0010
0000
0000
0100
0010
0000
0001
0000
0001
0000
1000
0000
,  // measure 25
0001
0000
0010
0000
0100
0000
0000
0010
0001
0000
0100
0000
0100
0000
0010
0000
,  // measure 26
1000
0000
0010
0000
0100
0000
0000
0010
1000
0000
0100
0000
0100
0000
0010
0000
,  // measure 27
0001
0000
0100
0000
0001
0000
0000
1000
0010
0000
1000
0000
1000
0000
0001
0000
,  // measure 28
1000
0000
0001
0000
0100
0000
0000
0010
1000
0000
0001
0000
0001
0000
1000
0100
,  // measure 29
1000
0000
0001
0000
0100
0000
0000
0001
0100
0000
0001
0000
0010
0002
0000
1003
,  // measure 30
0001
0000
0100
0000
0010
0000
0000
1000
0010
0000
0100
0000
0010
2000
0000
3001
,  // measure 31
1000
0000
0100
0000
0010
0000
0000
0100
1000
0000
0001
0000
0100
0002
0000
0013
,  // measure 32
0001
0000
0100
0000
0010
0000
0000
1000
0010
0000
0100
0000
0010
2000
0000
3001
,  // measure 33
0010
0000
0001
0000
0100
0000
0001
0010
0001
0000
1000
0000
0001
0020
0000
0130
,  // measure 34
0010
0000
0001
0000
0100
0000
0010
1000
0010
0000
1000
0000
0001
2000
0000
3100
,  // measure 35
1000
0000
0100
0000
0010
0100
0000
0100
1000
0000
0010
0000
0100
0020
0000
1030
,  // measure 36
0010
0000
0100
0000
0001
0000
0010
0000
0001
0010
0000
0000
0001
1000
0000
0000
,  // measure 37
1001
0000
0000
0010
0100
0000
0010
0000
1000
0020
0000
1030
0001
0000
1000
0000
,  // measure 38
0100
0000
0000
0100
0010
0000
0100
0000
2000
0000
0010
0000
3010
0000
0000
0000
,  // measure 39
0110
0000
0000
0010
0100
0000
0001
0000
0010
0002
0000
1003
0001
0000
0100
0000
,  // measure 40
0010
0000
0000
0010
0100
0000
0001
0000
0010
0000
0000
0000
0110
0000
0000
0000
,  // measure 41
1100
0000
0000
0100
1000
0000
0100
0000
0010
0002
0000
1003
0010
0000
0100
0000
,  // measure 42
0010
0000
0000
0010
1000
0000
0001
0000
0200
0000
0001
0000
0301
0000
0000
0000
,  // measure 43
1010
0000
0000
0010
1000
0000
0001
0000
0100
0020
0000
1030
0010
0000
1000
0000
,  // measure 44
0100
1000
0100
0000
1000
0000
0001
0100
0001
0000
0000
0000
1001
0000
0000
0000
,  // measure 45
1010
0000
0000
0010
0100
0000
0001
0000
0011
0000
0000
0010
0100
0000
1000
0000
,  // measure 46
1100
0000
0000
0100
1000
0000
0001
0000
0101
0000
0000
0100
0001
0000
0010
0000
,  // measure 47
0011
0000
0000
0001
1000
0000
0010
0000
1010
0000
0000
1000
0010
0000
1000
0000
,  // measure 48
1001
0000
0000
1000
0100
0000
0010
0000
0110
0000
0000
0010
0001
0000
1000
0000
,  // measure 49
0001
0100
0001
0100
1000
0100
1000
0100
,  // measure 50
0001
0010
0001
0010
1000
0010
1000
0010
,  // measure 51
0001
0100
0001
0100
0001
0100
0001
0100
0010
1000
0010
1000
0010
1000
0010
1000
,  // measure 52
0001
0010
0001
0000
1000
0001
1000
0000
0220
0000
0000
0000
0330
0000
0000
0000
,  // measure 53
2002
0000
0000
0000
,  // measure 54
0000
0000
0000
0000
,  // measure 55
3003
0000
0000
0000
;

//---------------dance-single - ----------------
#NOTES:
     dance-single:
     :
     Challenge:
     14:
     0.591,0.745,0.349,0.239,0.497: // measure 1
0000
0000
0000
0000
,  // measure 2
0000
0000
0000
0000
,  // measure 3
0000
0000
0000
0000
,  // measure 4
0000
0000
0000
0000
,  // measure 5
0000
0000
0000
0000
,  // measure 6
0000
0000
0000
0000
,  // measure 7
0001
0000
0100
0000
0010
2000
0000
3001
1000
0000
0001
0000
0100
0000
MMMM
0000
,  // measure 8
1000
0000
0100
0000
0010
0002
0000
1003
0100
0000
1000
0000
0001
0000
MMMM
0000
,  // measure 9
0010
MMMM
0100
MMMM
,  // measure 10
0001
MMMM
1000
MMMM
,  // measure 11
0001
0000
0100
0001
0000
0001
1000
0000
1000
0100
0000
0100
0010
0000
0010
0001
0000
0001
1000
0000
1000
0010
0000
0010
,  // measure 12
0100
0000
0001
0100
0000
1000
0100
0000
0001
0100
0000
1000
0100
0000
0000
0010
0000
0000
1000
0000
0000
0001
0000
0000
,  // measure 13
1001
0000
0000
0001
0100
0000
0001
0000
0010
0001
0000
0001
1000
0000
0001
0000
,  // measure 14
0100
0000
0000
0010
0100
0000
0010
0000
2000
0000
3001
0000
MMMM
0000
0000
0000
,  // measure 15
1000
0000
0000
1000
0100
0000
0010
0000
0100
1000
0000
1000
0010
0000
0100
0000
,  // measure 16
0010
0000
0000
0010
1000
0000
0001
0000
1000
0000
MMMM
0000
1001
0000
0000
0000
,  // measure 17
0010
0000
0000
0010
0100
0000
0001
0000
0010
0001
0000
0001
1000
0000
0001
0000
,  // measure 18
0100
0000
0000
0100
0010
0000
0100
0000
0002
0000
0013
0000
MMMM
0000
0000
0000
,  // measure 19
1000
0000
0100
1000
0000
1000
0100
0000
0100
0010
0000
0010
0001
0000
0001
1000
0000
1000
0010
0000
0010
0100
0000
0100
,  // measure 20
0001
0000
0100
0001
0000
0100
1000
0000
0100
0001
0000
0100
0010
0000
0000
MMMM
0000
0000
1001
0000
0000
0000
0000
0000
,  // measure 21
1000
0000
0100
1000
0100
0000
1000
0000
0010
0000
0100
0000
0110
0000
0100
0000
,  // measure 22
0001
0000
0010
0001
0010
0000
0001
0000
1000
0000
0001
0000
1001
0000
0001
0000
,  // measure 23
0100
0000
0010
1000
0010
0000
0100
0000
0010
0000
1000
0000
1010
0000
1000
0000
,  // measure 24
0100
0000
0010
0001
0010
0000
0001
0000
0100
0000
0001
0000
0011
0000
0001
0000
,  // measure 25
1000
0000
0010
0100
0001
0000
0100
0000
0010
0000
1000
0000
1001
0000
1000
0000
,  // measure 26
0001
0000
0010
0100
1000
0000
0100
0000
0010
0000
0001
0000
0011
0000
0001
0000
,  // measure 27
0100
0000
0010
0100
0001
0000
1000
0000
0001
0000
0100
0000
0101
0000
0001
0000
,  // measure 28
1000
0000
0100
1000
0001
0000
0010
0000
0001
0000
1000
0000
1001
0000
1000
0000
,  // measure 29
0010
0000
0100
0000
MMMM
0000
0001
1000
0100
0000
1000
0000
0001
2000
0000
3010
,  // measure 30
0100
0000
0001
0000
MMMM
0000
1000
0010
0100
0000
0001
0000
1000
0020
0000
1030
,  // measure 31
0100
0000
0010
0000
MMMM
0000
0001
0100
0010
0000
0100
0000
0001
2000
0000
3010
,  // measure 32
1000
0000
0001
0000
MMMM
0000
0001
0010
0100
0000
0010
0000
0001
0200
0000
0301
,  // measure 33
1000
0000
0010
0000
0110
0000
0010
1000
0001
0000
1000
0000
0100
2000
0000
3001
,  // measure 34
1000
0000
0001
0000
0011
0000
0001
0100
0010
0000
0100
0000
0001
0020
0000
0130
,  // measure 35
0010
0000
0001
0000
0011
0000
1000
0100
0010
0000
0100
0000
1000
0020
0000
1030
,  // measure 36
0001
0000
0100
0000
1000
0000
0100
0000
0001
1000
0000
0000
1000
0001
0000
0000
,  // measure 37
1100
0000
0000
1000
0100
0000
1000
0000
0010
2000
0000
3001
0100
0000
0001
0000
,  // measure 38
0010
0000
0000
0010
0001
0000
1000
0000
0010
0000
0100
0000
MMMM
0000
0000
0000
,  // measure 39
0110
0000
0000
0010
0100
0000
0001
0000
0010
0002
0000
1003
0010
0000
1000
0000
,  // measure 40
0001
0000
0000
0001
0100
0000
0001
0000
1000
0000
MMMM
0000
1001
0000
0000
0000
,  // measure 41
0011
0000
0000
0001
1000
0000
0001
0000
0100
0020
0000
1030
0010
0000
1000
0000
,  // measure 42
0100
0000
0000
0100
0010
0000
0100
0000
1000
0000
0001
0000
MMMM
0000
0000
0000
,  // measure 43
1010
0000
0000
0010
1000
0000
0001
0000
0100
0002
0000
0013
0001
0000
1000
0000
,  // measure 44
0100
0010
0100
0000
1000
0001
0100
0001
1000
0000
MMMM
0000
1100
0000
0000
0000
,  // measure 45
0012
0000
0000
1003
0100
0000
MMMM
0000
2010
0000
0000
3001
0100
0000
MMMM
0000
,  // measure 46
0210
0000
0000
0301
1000
0000
MMMM
0000
0120
0000
0000
1030
0010
0000
MMMM
0000
,  // measure 47
2100
0000
0000
3100
1000
0000
MMMM
0000
0201
0000
0000
0301
0100
0000
MMMM
0000
,  // measure 48
0021
0000
0000
0031
0010
0000
MMMM
0000
1020
0000
0000
1030
0010
0000
MMMM
0000
,  // measure 49
1100
MMMM
0011
MMMM
1010
MMMM
0101
MMMM
,  // measure 50
0110
MMMM
1001
MMMM
1100
MMMM
0101
MMMM
,  // measure 51
1000
0000
0010
1000
0000
1000
0001
0000
0001
0100
0000
0100
0001
0000
0001
1000
0000
1000
0100
0000
0100
1000
0000
1000
,  // measure 52
0001
0000
0000
0000
0010
0000
1000
0000
0000
0000
0000
0000
0010
0000
0000
0000
0001
0000
0100
0000
0000
0000
0000
0000
0210
0000
0000
0000
0000
0000
0000
0000
0000
0301
0000
0000
1000
0000
0000
0000
0000
0000
MMMM
0000
0000
0000
0000
0000
,  // measure 53
2020
0000
0000
0000
,  // measure 54
0000
0000
0000
0000
,  // measure 55
3030
0000
0000
0000
;
