#TITLE:TWO-TORIAL;
#SUBTITLE:;
#ARTIST:BEMANI Sound Team "PHQUASE vs DJ TOTTO";
#TITLETRANSLIT:;
#SUBTITLETRANSLIT:;
#ARTISTTRANSLIT:PHQUASE vs DJ TOTTO;
#GENRE:;
#CREDIT:;
#MENUCOLOR:;
#METERTYPE:DDR;
#BANNER:TWO-TORIAL.png;
#BACKGROUND:TWO-TORIAL-bg.png;
#LYRICSPATH:;
#CDTITLE:./CDTITLES/SOUND VOLTEX.PNG;
#MUSIC:TWO-TORIAL.ogg;
#OFFSET:0.000;
#SAMPLESTART:89.437;
#SAMPLELENGTH:15.000;
#SELECTABLE:YES;
#LISTSORT:;
#BPMS:0.000=213.000,260.000=106.500,268.000=213.000;
#STOPS:176.000=1.9718309859154929577464788732394
,185.000=1.9718309859154929577464788732394
,194.000=4.2253521126760563380281690140845
,211.000=4.2253521126760563380281690140845
,344.000=4.2253521126760563380281690140845
;
#BGCHANGES:160.000=TWO-TORIAL-bg02.png=1.000=1=0=0,
170.000=TWO-TORIAL-bg03.png=1.000=1=0=0,
175.000=TWO-TORIAL-bg04.png=1.000=0=0=0,
176.063=TWO-TORIAL-bg05.png=1.000=0=0=0,
177.000=TWO-TORIAL-bg06.png=1.000=0=0=0,
184.000=TWO-TORIAL-bg04.png=1.000=0=0=0,
185.063=TWO-TORIAL-bg05.png=1.000=0=0=0,
186.000=TWO-TORIAL-bg06.png=1.000=0=0=0,
193.000=TWO-TORIAL-bg04.png=1.000=0=0=0,
194.063=TWO-TORIAL-bg05.png=1.000=0=0=0,
195.000=TWO-TORIAL-bg06.png=1.000=0=0=0,
210.000=TWO-TORIAL-bg04.png=1.000=0=0=0,
211.063=TWO-TORIAL-bg05.png=1.000=0=0=0,
212.000=TWO-TORIAL-bg06.png=1.000=0=0=0,
228.000=TWO-TORIAL-bg07.png=1.000=1=0=0,
342.000=TWO-TORIAL-bg08.png=1.000=0=0=0,
344.063=TWO-TORIAL-bg09.png=1.000=0=0=0,
345.000=TWO-TORIAL-bg07.png=1.000=0=0=0,
366.000=TWO-TORIAL-bg10.png=1.000=1=0=0,
372.000=TWO-TORIAL-bg.png=1.000=1=0=0,
99999.000=-nosongbg0-=1.000=0=0=0,
99999=-nosongbg-=1.000=0=0=0 // don't automatically add -songbackground-
;
#ATTACKS:;

//---------------dance-single - ----------------
#NOTES:
     dance-single:
     :
     Beginner:
     7:
     0.258,0.333,0.102,0.173,0.000: // measure 1
0000
0000
0000
0000
,  // measure 2
0000
0000
0000
0000
,  // measure 3
0000
0000
0000
0000
,  // measure 4
0000
0000
0000
0000
,  // measure 5
0000
0000
0000
0000
,  // measure 6
0000
0000
0000
0000
,  // measure 7
0000
0000
0000
0000
,  // measure 8
0000
0000
0000
0000
,  // measure 9
0010
0000
1000
1000
,  // measure 10
1000
0000
0001
0000
,  // measure 11
1000
0000
0100
0100
,  // measure 12
0100
0000
0010
0000
,  // measure 13
0001
0000
0100
0100
,  // measure 14
0100
0000
0010
0000
,  // measure 15
1000
0000
0001
0001
,  // measure 16
0001
0000
1000
0000
,  // measure 17
0010
0000
0100
0100
,  // measure 18
0100
0000
0001
0000
,  // measure 19
1000
0000
0100
0100
,  // measure 20
0100
0000
1000
0000
,  // measure 21
0001
0000
1000
1000
,  // measure 22
1000
0000
0010
0010
,  // measure 23
0020
0030
0200
0300
,  // measure 24
0001
0001
1000
0001
,  // measure 25
2000
0000
0010
0000
,  // measure 26
0100
0000
3010
0000
,  // measure 27
0002
0000
0010
0000
,  // measure 28
0100
0000
0013
0000
,  // measure 29
2000
0000
0100
0000
,  // measure 30
0001
0000
3010
0000
,  // measure 31
0002
0000
0100
0000
,  // measure 32
1000
0000
0013
0000
,  // measure 33
1000
0000
1001
0000
,  // measure 34
0001
0000
1001
0000
,  // measure 35
0010
0000
0110
0000
,  // measure 36
0100
0000
0101
0000
,  // measure 37
1000
0000
1100
0000
,  // measure 38
0010
0000
0011
0000
,  // measure 39
1000
0000
1001
0000
,  // measure 40
0010
0000
0110
0000
,  // measure 41
2002
0000
0000
0000
,  // measure 42
0000
0000
0000
0000
,  // measure 43
0000
0000
0000
0000
,  // measure 44
0000
0000
0000
3003
,  // measure 45
0000
0220
0000
0000
,  // measure 46
0000
0000
0000
0000
,  // measure 47
0330
0000
2002
0000
,  // measure 48
0000
0000
0000
0000
,  // measure 49
0000
3003
0000
2200
,  // measure 50
0000
0000
0000
0000
,  // measure 51
0000
0000
0000
0000
,  // measure 52
0000
0000
0000
0000
,  // measure 53
0000
0000
3300
0000
,  // measure 54
0022
0000
0000
0000
,  // measure 55
0000
0000
0000
0000
,  // measure 56
0000
0000
0000
0000
,  // measure 57
0000
0000
0033
0000
,  // measure 58
0001
0000
1000
0000
,  // measure 59
0001
0001
0001
0000
,  // measure 60
1000
0000
0001
0000
,  // measure 61
1000
1000
1000
0000
,  // measure 62
0010
0010
0010
0000
,  // measure 63
0100
0100
0100
0000
,  // measure 64
0001
1000
0001
0000
,  // measure 65
1000
0100
0010
0001
,  // measure 66
2000
0000
0000
0000
,  // measure 67
3002
0000
0203
0300
,  // measure 68
0010
0010
0010
1000
,  // measure 69
0010
0010
0010
0100
,  // measure 70
0001
0001
0001
1000
,  // measure 71
0001
0000
1000
0000
,  // measure 72
0100
0100
0100
0010
,  // measure 73
0100
0100
0100
1000
,  // measure 74
0001
0001
1000
1000
,  // measure 75
0010
0100
0002
0003
,  // measure 76
1000
1000
0100
0100
,  // measure 77
0010
0010
0001
0001
,  // measure 78
1000
0001
0010
0100
,  // measure 79
1000
0100
0020
0030
,  // measure 80
0001
0001
1000
0001
,  // measure 81
0100
0100
0010
0100
,  // measure 82
0010
1000
0010
1000
,  // measure 83
0001
0100
0001
0100
,  // measure 84
0001
0010
0100
1000
,  // measure 85
0001
0100
0010
1000
,  // measure 86
0000
0000
0001
0000
,  // measure 87
0000
1000
1000
1000
,  // measure 88
0000
0010
0010
0010
,  // measure 89
0000
0100
0100
0100
,  // measure 90
0001
1000
1000
1000
,  // measure 91
0000
0000
0001
0001
0000
1000
1000
0000
,  // measure 92
0010
0010
0000
0100
0200
0000
0000
0000
,  // measure 93
0000
0000
0000
0000
,  // measure 94
0000
0000
0000
0000
,  // measure 95
0000
0300
0000
0000
;

//---------------dance-single - ----------------
#NOTES:
     dance-single:
     :
     Easy:
     12:
     0.496,0.592,0.181,0.126,0.016: // measure 1
0000
0000
0000
0000
,  // measure 2
0000
0000
0000
0000
,  // measure 3
0000
0000
0000
0000
,  // measure 4
0000
0000
0000
0000
,  // measure 5
0000
0000
0000
0000
,  // measure 6
0000
0000
0000
0000
,  // measure 7
0000
0000
0000
0000
,  // measure 8
0000
0000
0000
0000
,  // measure 9
0110
0000
1000
0100
0000
1000
0010
1000
,  // measure 10
0000
0001
0100
0000
0001
0000
1000
0000
,  // measure 11
0001
0000
0010
0001
0000
1000
0100
1000
,  // measure 12
0000
0001
0100
0000
0010
0000
0100
0000
,  // measure 13
0001
0000
1000
0010
0000
1000
0001
1000
,  // measure 14
0000
0001
0010
0000
0001
0000
1000
0000
,  // measure 15
0100
1000
0001
0000
0100
0001
1000
0000
,  // measure 16
0001
1000
0100
1000
,  // measure 17
0001
0000
0110
0000
0010
0100
0001
0000
,  // measure 18
1000
0000
0100
0000
1000
0010
1000
0010
,  // measure 19
0000
1000
0001
0000
0100
0000
0001
0000
,  // measure 20
0010
0000
0001
0000
0100
0010
0100
0010
,  // measure 21
1000
0000
1001
0000
0001
0010
0100
0000
,  // measure 22
1000
0000
1001
0000
0100
0010
1000
0000
,  // measure 23
0010
0000
0100
0001
0000
0000
0010
0000
0100
1000
0000
0000
,  // measure 24
0001
0000
0010
0100
0000
0010
0002
0000
0000
1003
0000
0000
,  // measure 25
0020
0000
1000
0000
,  // measure 26
0100
0100
1030
0000
,  // measure 27
0002
0000
0010
0000
,  // measure 28
1000
1000
0103
0000
,  // measure 29
2000
0000
0010
0000
,  // measure 30
0001
0001
3100
0000
,  // measure 31
0020
0000
0001
0000
,  // measure 32
1000
1000
0031
0000
,  // measure 33
1001
0000
0001
0100
0000
0001
0010
0000
,  // measure 34
0001
1000
0000
0010
1000
0000
0010
0100
,  // measure 35
0000
0010
1000
0000
0100
0010
0000
0100
,  // measure 36
1000
0000
0001
1000
0000
0010
0100
0010
,  // measure 37
1000
0000
0100
0010
0000
0100
0001
0000
,  // measure 38
0100
1000
0000
0100
0010
0000
0001
0100
,  // measure 39
0000
0001
1000
0000
0010
0100
0000
0010
,  // measure 40
1000
0000
0001
0010
0000
0001
0100
0010
,  // measure 41
2000
0000
0000
0000
,  // measure 42
0000
0000
0000
0000
,  // measure 43
0000
0000
0000
3000
,  // measure 44
0001
0100
0010
1001
,  // measure 45
0000
0000
0010
0000
0100
0001
0000
1000
,  // measure 46
0001
0000
1000
0000
0100
1000
0000
0001
,  // measure 47
1000
0000
0000
0000
0001
0000
1000
0100
,  // measure 48
0000
0010
0001
0000
1000
0000
0010
0100
,  // measure 49
0001
1000
0000
0010
,  // measure 50
0100
0010
0000
1000
0100
0000
1000
0000
,  // measure 51
0001
0010
0000
0100
0010
0000
0001
0000
,  // measure 52
0100
0010
0000
1000
0010
0000
1000
0000
,  // measure 53
0001
1000
0100
0000
1000
0000
0000
0000
,  // measure 54
0110
0000
0010
0100
0000
0100
0001
0000
,  // measure 55
1000
0010
0000
0010
0100
0000
0001
1000
,  // measure 56
0000
1000
0001
0000
0010
0001
0000
0001
,  // measure 57
1000
0000
0001
0100
0000
0001
1000
0000
,  // measure 58
0001
0010
0001
0010
0001
0000
1000
0000
,  // measure 59
0010
1000
0010
1000
0010
0000
0100
0000
,  // measure 60
0001
1000
0100
1000
0001
0000
1000
0000
,  // measure 61
0010
0100
0001
0100
0010
0000
1000
0000
,  // measure 62
0100
0010
0100
1000
0001
0000
0100
0000
,  // measure 63
0001
0010
0100
1000
0001
0000
1000
0000
,  // measure 64
0010
1000
0001
0100
0010
0000
1000
0000
,  // measure 65
0100
1000
0010
0100
0001
0000
1000
0000
,  // measure 66
0120
1000
0100
0031
,  // measure 67
2000
0100
0010
3001
,  // measure 68
1000
0100
1000
0000
0100
0000
1100
0000
,  // measure 69
1000
0010
1000
0000
0010
0000
1010
0000
,  // measure 70
0010
0100
0001
1000
,  // measure 71
0001
0010
0100
1000
0002
0000
1003
0000
,  // measure 72
0001
0010
0001
0000
0100
0000
0101
0000
,  // measure 73
0001
0010
0001
0000
1000
0000
1001
0000
,  // measure 74
0100
0001
0100
0000
0010
1000
0010
0000
,  // measure 75
1000
0100
0010
0002
0000
1003
0001
0000
,  // measure 76
0100
0010
1000
0010
0100
0000
0110
0000
,  // measure 77
0100
0001
0010
0001
0100
0000
0101
0000
,  // measure 78
0001
1000
0100
1100
,  // measure 79
1000
0100
0010
0001
2000
0000
3010
0000
,  // measure 80
0100
0010
0100
0010
0100
0000
1010
0000
,  // measure 81
0100
0010
0100
0010
0100
0000
0011
0000
,  // measure 82
1000
0100
1000
0000
0001
0010
0001
0000
,  // measure 83
1000
0100
0010
0001
2000
0000
3001
0000
,  // measure 84
0100
0010
0100
0010
1000
0001
1000
0001
,  // measure 85
1000
0100
1000
0100
0010
0001
0010
0001
,  // measure 86
0000
0000
2002
3003
,  // measure 87
0000
0000
0110
0000
0010
1000
0000
1000
,  // measure 88
0001
0000
0010
0001
0000
0001
1000
0000
,  // measure 89
0010
1000
0000
1000
0100
0000
0010
0001
,  // measure 90
0000
0001
1000
0000
0001
0100
0000
0010
,  // measure 91
1000
0000
0010
0010
0000
0100
0100
0000
,  // measure 92
1001
1001
0000
0110
0220
0000
0000
0000
,  // measure 93
0000
0000
0000
0000
,  // measure 94
0000
0000
0000
0000
,  // measure 95
0000
0330
0000
0000
;

//---------------dance-single - ----------------
#NOTES:
     dance-single:
     :
     Medium:
     15:
     0.795,0.851,0.558,0.188,0.346: // measure 1
0000
0000
0000
0000
,  // measure 2
0000
0000
0000
0000
,  // measure 3
0000
0000
0000
0000
,  // measure 4
0000
0000
0000
0000
,  // measure 5
0000
0000
0000
0000
,  // measure 6
0000
0000
0000
0000
,  // measure 7
0000
0000
0000
0000
,  // measure 8
0000
0000
0000
0000
,  // measure 9
0110
0000
0000
0000
0010
0000
1000
0000
0100
0000
1000
0000
0001
0000
0100
0001
,  // measure 10
0100
0001
0010
0100
1000
0010
0100
0001
,  // measure 11
1000
0000
0000
0000
0001
0000
0010
0000
0100
0000
0010
0000
0001
0000
0100
0001
,  // measure 12
0100
0001
1000
0100
1000
0010
0100
0001
,  // measure 13
1000
0000
0000
0000
0010
0000
1000
0000
0010
0000
0100
0000
0001
0000
1000
0100
,  // measure 14
1000
0000
0100
0000
0010
0000
0001
0000
1000
0000
0000
0010
1000
0000
0001
0000
,  // measure 15
0100
0000
0010
0000
0100
0000
0001
0000
1000
0000
0001
1000
0001
0000
1000
0000
,  // measure 16
0002
0000
0000
0000
1003
0000
0000
0000
0010
0000
0100
0010
0100
0000
0010
0000
,  // measure 17
1000
0000
0000
0000
0100
0000
1000
0000
0010
0000
0100
0000
0001
0000
0010
0001
,  // measure 18
0010
0001
0100
0010
1000
0001
0010
0100
,  // measure 19
1000
0000
0000
0000
0010
0000
1000
0000
0001
0000
1000
0000
0100
0000
1000
0010
,  // measure 20
1000
0010
0100
0001
1000
0001
0010
0001
,  // measure 21
0100
0000
0000
0110
0000
0000
0010
1000
0010
0000
1000
0000
0100
0000
0010
0000
,  // measure 22
0001
0000
0000
1001
0000
0000
1000
0010
1000
0000
0010
0000
0100
0000
0001
0000
,  // measure 23
1000
0100
1000
0002
0000
0000
0103
0010
0100
0002
0000
0000
,  // measure 24
0013
0000
0100
0000
0010
0000
0001
0000
1000
0000
0001
0000
0000
0000
0000
1000
0000
0000
0010
0000
0000
0000
0000
0000
,  // measure 25
0110
0000
0010
1000
0100
1000
0010
1000
,  // measure 26
0002
0000
0013
0001
0100
0001
0010
0100
,  // measure 27
2000
0000
3100
0010
0001
1000
0010
0100
,  // measure 28
0020
0000
1030
0010
0100
0001
0010
0001
,  // measure 29
2000
0000
3001
1000
0100
1000
0001
0010
,  // measure 30
0002
0000
1003
0010
0100
0001
0010
0100
,  // measure 31
0020
0000
0031
0100
0010
1000
0100
0010
,  // measure 32
0200
0000
1300
0010
0220
0000
0330
0000
,  // measure 33
1010
0000
1000
1100
0000
1000
1001
0000
,  // measure 34
0001
0101
0000
0001
0011
0000
0010
0110
,  // measure 35
0000
0010
0011
0000
0100
0101
0000
0010
,  // measure 36
0110
0000
0010
1010
0000
1000
0001
1000
,  // measure 37
1100
0000
1010
1010
0000
0011
0011
0000
,  // measure 38
1100
1100
0000
0101
0101
0000
1001
1001
,  // measure 39
0010
0100
0001
0010
0100
1000
0100
0010
,  // measure 40
0001
0000
0000
0100
0000
0000
0001
0000
0000
0100
0000
0000
0001
0000
0000
0000
0000
0000
0000
0000
0000
0000
0000
0000
1000
0000
0000
0000
0010
0000
0000
0000
0100
0000
0000
0000
0001
0000
0000
0000
0000
0000
0000
0000
0000
0000
0000
0000
,  // measure 41
0220
0000
0000
0000
,  // measure 42
0000
0000
0000
0000
,  // measure 43
0000
0000
0000
0330
,  // measure 44
0010
0000
1000
0000
0001
0100
0000
0100
0001
0000
1000
0000
0100
0000
0100
0000
,  // measure 45
0000
0000
0000
0000
0010
0000
0001
0000
0100
0010
0000
0010
0100
0000
0001
0000
,  // measure 46
1000
0000
0100
0000
0010
0000
0100
0000
1000
0001
0000
0001
1000
0000
0010
0000
,  // measure 47
1000
0000
1000
0000
0000
0000
0000
0000
0001
0000
0100
0000
0001
0010
0000
0010
,  // measure 48
0001
0000
1000
0000
0100
0000
1000
0000
0010
0000
0100
0000
0010
1000
0000
1000
,  // measure 49
0001
1000
0100
0100
0000
0000
0010
0001
,  // measure 50
1000
0100
0000
1000
0010
0000
1000
0000
0010
0000
0100
0000
0001
0000
0010
0000
,  // measure 51
0100
1000
0000
0001
1000
0000
0010
0000
0100
0000
0001
0000
1000
0000
0010
0000
,  // measure 52
0100
0010
0000
1000
0100
0000
1000
0000
0010
0000
0100
0000
0001
0000
0010
0000
,  // measure 53
0100
0010
0000
0001
1000
0000
0001
0000
0100
0000
0100
0000
0000
0000
0000
0000
,  // measure 54
0010
0000
1000
0000
0001
0010
0000
0010
0001
0000
1000
0000
0100
1000
0000
1000
,  // measure 55
0100
0000
1000
0000
0010
0100
0000
0100
0001
0000
1000
0000
0100
1000
0000
0001
,  // measure 56
1000
0000
0010
0000
0100
0010
0000
1000
0010
0000
1000
0000
0001
0010
0000
0100
,  // measure 57
1000
0001
0100
0010
1000
0100
0011
0000
,  // measure 58
1000
1100
0000
0010
0011
0000
0001
0101
,  // measure 59
0000
0010
1010
0000
1000
0001
0100
0010
,  // measure 60
0100
0110
0000
0100
0101
0000
1000
1100
,  // measure 61
0000
0001
0011
0000
0001
0010
0100
1000
,  // measure 62
1010
1010
0000
0110
0110
0000
1001
1001
,  // measure 63
0000
0011
0011
0000
1000
0100
0010
0001
,  // measure 64
0101
0101
0010
1100
1100
0010
1001
1001
,  // measure 65
0010
0110
0110
0001
1000
0100
0001
0100
,  // measure 66
2000
0010
0001
3100
0002
0010
1000
0103
,  // measure 67
0020
0000
1000
0000
0100
0000
0031
0000
2001
0000
3010
0000
0100
1000
0100
1000
,  // measure 68
0001
0000
0100
0001
0100
0000
0000
0000
0001
0000
0010
0000
0100
0000
1000
0000
,  // measure 69
0010
0000
1000
0010
1000
0000
0000
0000
0100
0000
1000
0000
0010
0000
0100
0000
,  // measure 70
0010
0000
0000
0010
1000
0000
0000
1000
0001
0000
0000
0001
0100
0000
0000
0100
,  // measure 71
0001
0010
0100
2000
0010
0000
3001
0000
,  // measure 72
1000
0000
0100
1000
0100
0000
0000
0000
1000
0000
0010
0000
0100
0000
0001
0000
,  // measure 73
0010
0000
0100
0010
0100
0000
0000
0000
0010
0000
0001
0000
0100
0000
0010
0000
,  // measure 74
1000
0000
0000
1010
0000
0000
0001
0000
0101
0000
0000
1100
0000
0000
0001
0000
,  // measure 75
0010
0000
0100
0010
0100
0000
0010
0000
0001
0000
0100
0000
0010
0000
1000
0000
,  // measure 76
0001
0000
0100
0001
0100
0000
0001
0000
0010
0000
0100
0000
1000
0000
0001
0000
,  // measure 77
1000
0000
0100
1000
0100
0000
1000
0010
1000
0000
0001
1000
0000
0001
0100
0000
,  // measure 78
0010
0000
0000
0010
1000
0000
0000
1000
0001
0000
0000
0001
0100
0000
0000
0100
,  // measure 79
0001
0010
0100
0020
0001
0001
1000
1030
,  // measure 80
0001
0000
0100
0010
1000
0000
0010
0000
1000
0000
0001
0000
0100
0000
0010
0000
,  // measure 81
1000
0000
0100
0010
0001
0000
1000
0000
0100
0000
1000
0000
0001
0000
0100
0000
,  // measure 82
0010
0100
0101
0000
0010
0100
1100
0000
,  // measure 83
0001
0000
1000
0001
0100
0000
0001
0000
0010
0000
0000
0011
0000
0000
1001
0000
,  // measure 84
0010
0010
0010
0010
0110
0100
0100
0100
,  // measure 85
0001
0000
0010
0001
0010
0000
0001
1000
0001
0000
1000
0010
1000
0000
0010
0100
,  // measure 86
0001
0000
2002
3003
,  // measure 87
0000
0000
0000
0000
0110
0000
0010
0000
1000
0000
0001
0100
0001
0000
1000
0000
,  // measure 88
0100
0000
1000
0000
0010
0000
0100
0000
0001
0000
1000
0010
1000
0000
0001
0000
,  // measure 89
1000
0000
0001
0000
0010
0000
0100
0000
1000
0000
0100
0010
0100
0000
1000
0000
,  // measure 90
0001
0000
1000
0000
0010
0000
0100
0000
0001
0000
0100
0010
1000
0000
0001
0000
,  // measure 91
1000
0000
1001
1001
0000
1010
1010
0000
,  // measure 92
0110
0101
0000
0110
2002
0000
0000
0000
,  // measure 93
0000
0000
0000
0000
,  // measure 94
0000
0000
0000
0000
,  // measure 95
0000
3003
0000
0000
;

//---------------dance-single - ----------------
#NOTES:
     dance-single:
     :
     Hard:
     18:
     1.000,1.000,0.573,0.220,0.938: // measure 1
0000
0000
0000
0000
,  // measure 2
0000
0000
0000
0000
,  // measure 3
0000
0000
0000
0000
,  // measure 4
0000
0000
0000
0000
,  // measure 5
0000
0000
0000
0000
,  // measure 6
0000
0000
0000
0000
,  // measure 7
0000
0000
0000
0000
,  // measure 8
0000
0000
0000
0000
,  // measure 9
0110
0000
0000
0000
0010
0000
1000
0000
0100
0000
1000
0010
1000
0000
0001
0000
,  // measure 10
0100
0000
0001
0010
0001
0000
1000
0001
1000
0000
0001
0100
0001
0000
1000
0000
,  // measure 11
0100
0000
0000
0000
0010
0000
0001
0000
0100
0000
0001
0010
0001
0000
1000
0000
,  // measure 12
0010
0000
1000
0010
0100
0000
0010
1000
0001
0000
1000
0001
0100
0000
0001
0000
,  // measure 13
1000
0000
0000
0000
0100
0000
1000
0000
0010
0000
0100
0010
0100
0000
0010
0000
,  // measure 14
1000
0000
0001
0010
0001
0000
1000
0001
1000
0000
0001
0100
0001
0000
1000
0000
,  // measure 15
0010
0000
1000
0010
0100
0000
0001
0000
1000
0000
0001
0010
0100
0000
0010
0000
,  // measure 16
0001
0000
1000
0001
0100
0000
0001
0000
1000
0010
1000
0010
1000
0000
0001
0000
,  // measure 17
1000
0000
0000
0000
0001
0000
0010
0000
0001
0000
0100
0010
1000
0000
0010
0000
,  // measure 18
0100
0000
0001
0100
0010
0000
1000
0100
0010
0000
0001
0100
0010
0000
1000
0000
,  // measure 19
0001
0000
0000
0000
0010
0000
0001
0000
1000
0000
0100
1000
0001
0000
1000
0000
,  // measure 20
0010
0000
1000
0010
0100
0000
0001
0010
0100
0000
0010
0001
1000
0000
0001
0000
,  // measure 21
1001
0000
0001
0100
0010
0000
0100
0001
1000
0000
0001
0000
0010
0000
0001
0000
,  // measure 22
1001
0000
1000
0100
0010
0000
0100
1000
0001
0000
1000
0000
0001
0000
0100
0000
,  // measure 23
0010
0100
0001
0200
0000
0310
1000
0001
1000
0200
0000
1300
,  // measure 24
0001
0000
0010
0000
0100
0000
1000
0000
0010
0000
0100
0000
0000
0000
0000
0001
0000
0000
1010
0000
0000
0000
0000
0000
,  // measure 25
0001
0100
0001
0020
0000
0031
1000
0100
1000
0020
0000
1030
,  // measure 26
0100
0010
0100
2000
0000
3001
0200
0000
0301
0010
0001
1000
,  // measure 27
0100
1000
0100
2000
0000
3001
0010
0001
1000
0002
0000
1003
,  // measure 28
0010
0100
0010
1000
0001
0100
0002
0000
1003
0100
1000
0001
,  // measure 29
1000
0100
1000
0020
0000
1030
0001
0100
0001
0020
0000
0031
,  // measure 30
0010
0100
0010
0001
1000
0010
0200
0000
0301
1000
0001
0010
,  // measure 31
0001
0100
1000
0200
0000
0301
0010
1000
0010
0002
0000
1003
,  // measure 32
0100
0001
0100
1000
0000
0000
2002
0000
0000
3003
0000
0000
,  // measure 33
1010
0000
0101
0101
0000
1100
1100
0000
,  // measure 34
0011
0011
0000
1001
1001
0000
0110
0110
,  // measure 35
0000
0101
0101
0000
1100
1100
0000
0011
,  // measure 36
0011
0000
1001
1001
0000
1100
1100
0100
,  // measure 37
0011
0000
1001
0011
0000
1001
1010
0000
,  // measure 38
1001
0101
0000
1001
1100
0000
1001
0011
,  // measure 39
0001
0100
0001
0000
1000
0000
0100
1000
0100
0000
1000
0000
0010
0100
0001
0000
,  // measure 40
1000
0000
0000
0100
0000
0000
1000
0000
0000
0100
0000
0000
1000
0000
0000
0001
0000
0000
1000
0000
0000
0001
0000
0000
0100
0000
0000
0000
0010
0000
0000
0000
1000
0000
0000
0000
0001
0000
0000
0000
0000
0000
0000
0000
0000
0000
0000
0000
,  // measure 41
0220
0000
0000
0000
,  // measure 42
0000
0000
0000
0000
,  // measure 43
0000
0000
0000
0330
,  // measure 44
0010
0000
0100
0000
0001
1000
0001
1000
0001
0000
1000
0000
0100
0000
0100
0000
,  // measure 45
0000
0000
0000
0000
1001
0000
0010
0000
0100
0000
0001
0010
0100
0000
0010
0000
,  // measure 46
0001
0000
1000
0100
0010
0000
0100
0000
1000
0000
0001
0100
0010
0000
0100
0000
,  // measure 47
0001
0000
0001
0000
0000
0000
0000
0000
1010
0000
0100
0000
0001
0000
0010
0100
,  // measure 48
1000
0000
0100
0000
0010
0000
0001
1000
0100
0000
1000
0000
0010
0100
0010
0100
,  // measure 49
0001
1000
0100
0100
0000
0000
1100
0010
,  // measure 50
0001
0000
1000
0100
0010
0100
1000
0000
0001
0000
0100
0010
1000
0000
0010
0000
,  // measure 51
0100
0000
0001
0100
0010
0100
0001
0000
0010
0000
0001
1000
0100
0000
1000
0000
,  // measure 52
0001
0000
0010
0001
1000
0001
0010
0000
0001
0000
1000
0001
0100
0000
0010
0000
,  // measure 53
1000
0000
0010
0100
0001
0100
0010
0000
1000
0000
1000
0000
0000
0000
0000
0000
,  // measure 54
0011
0000
0100
0000
1000
0000
0001
0010
0100
0010
0001
0000
1000
0000
0001
1000
,  // measure 55
0100
0000
1000
0000
0010
0000
0100
0010
1000
0010
0100
0000
0010
0000
1000
0100
,  // measure 56
0001
0000
0100
0000
1000
0000
0001
0010
1000
0010
0001
0000
1000
0000
0001
0100
,  // measure 57
0010
0000
1000
0000
0001
0000
1000
0100
0001
0100
1000
0000
0001
1000
0100
1000
,  // measure 58
0010
0100
0001
0100
0010
0000
1000
0100
0010
0100
1000
0000
0001
0010
0100
0010
,  // measure 59
0001
0000
1000
0010
0100
0010
1000
0000
0001
1000
0100
1000
0001
1000
0010
1000
,  // measure 60
0001
0010
0100
0010
0001
0000
1000
0100
0010
0100
1000
0000
0001
0100
0010
0100
,  // measure 61
0001
0000
1000
0010
0100
0010
1000
0000
0001
0010
0001
1000
0001
0100
0001
1000
,  // measure 62
0100
1000
0100
0000
1100
0000
1000
0010
0100
0000
0110
0000
0010
1000
0001
0000
,  // measure 63
1001
0000
0001
0010
0100
0000
0110
0000
0010
0001
0100
0001
1000
0010
0100
0010
,  // measure 64
1000
0100
0001
0000
1100
0000
0001
0100
1000
0000
0101
0000
1000
0010
0001
0000
,  // measure 65
1010
0000
0001
0010
1000
0000
0011
0000
1000
0100
1000
0010
0100
0001
1000
0001
,  // measure 66
0200
0010
1000
0001
0320
0001
0100
1000
,  // measure 67
0032
0000
0000
0000
0010
0000
0000
0000
1000
0000
0000
0000
0100
0000
0000
0000
2003
0000
0000
0000
3010
0000
0100
0001
1000
0000
0001
0000
0010
0000
0100
0000
,  // measure 68
0010
0001
0100
0001
0010
0000
0001
1000
0100
0000
1000
0000
0010
0000
0100
0000
,  // measure 69
0010
1000
0100
1000
0010
0000
1000
0001
0100
0000
0001
0000
0010
0000
0001
0000
,  // measure 70
1000
0000
0001
0010
0100
0000
1000
0010
0100
0000
0010
1000
0001
0000
0100
0001
,  // measure 71
1000
0000
0100
1000
0100
0000
2000
0000
0010
0000
3001
0100
0001
0000
0010
0000
,  // measure 72
0001
0100
0010
0100
0001
0000
1000
0001
0100
0000
0001
0000
0010
0000
0100
0000
,  // measure 73
1000
0010
0100
0010
1000
0000
0001
1000
0100
0000
1000
0000
0010
0000
0100
0000
,  // measure 74
0110
0000
0000
1010
0000
0000
0110
0000
0101
0000
0000
0011
0000
0000
1001
0000
,  // measure 75
1000
0100
1000
0100
0010
0000
0001
1000
0100
0000
1000
0000
0001
0000
0010
0000
,  // measure 76
0100
1000
0010
1000
0001
0000
0100
0001
0010
0000
0001
0000
0100
0000
0010
0000
,  // measure 77
0100
0001
0010
0001
1000
0000
0100
1000
0010
0000
0100
0001
0000
1000
0001
1000
,  // measure 78
0010
0000
0100
0001
1000
0000
0100
1000
0001
0000
1000
0010
0100
0000
0010
1000
,  // measure 79
0100
0000
0010
0001
0010
0000
0200
0000
0001
0000
0010
0000
0010
0000
0310
0000
,  // measure 80
1000
0001
0100
0001
1000
0000
0001
0010
0100
0000
0010
0000
0001
0000
0100
0000
,  // measure 81
0001
1000
0100
1000
0001
0000
1000
0010
0100
0000
0010
0000
1000
0000
0001
0000
,  // measure 82
0101
0010
1001
0000
1100
0010
1001
0000
,  // measure 83
1000
0100
1000
0000
0001
0000
1000
0001
0100
0000
0000
1001
0000
0000
1100
0000
,  // measure 84
0110
0000
0010
0001
0100
0000
0010
1000
0100
0000
0010
0001
0100
0000
0010
1000
,  // measure 85
0100
0010
0100
0010
0100
0010
0100
0010
0001
1000
0001
1000
0001
1000
0001
0000
,  // measure 86
0000
0000
2002
3003
,  // measure 87
0000
0000
0000
0000
1010
0000
1000
0000
0100
0000
1000
0010
1000
0010
0100
0000
,  // measure 88
0010
0000
1000
0001
0100
0000
0001
0000
0010
0000
0001
0010
0001
0010
0100
0000
,  // measure 89
0010
0000
0001
1000
0100
0000
1000
0000
0010
0000
0100
0010
0100
0010
1000
0000
,  // measure 90
0001
0000
1000
0001
0100
0000
0010
0000
0100
0000
0001
0010
0100
0010
0001
0000
,  // measure 91
1000
0000
1001
1001
0000
1010
1010
0000
,  // measure 92
0110
0101
0000
0110
2002
0000
0000
0000
,  // measure 93
0000
0000
0000
0000
,  // measure 94
0000
0000
0000
0000
,  // measure 95
0000
3003
0000
0000
;

//---------------dance-single - ----------------
#NOTES:
     dance-single:
     :
     Challenge:
     19:
     1.000,1.000,0.605,0.204,1.000: // measure 1
0000
0000
0000
0000
,  // measure 2
0000
0000
0000
0000
,  // measure 3
0000
0000
0000
0000
,  // measure 4
0000
0000
0000
0000
,  // measure 5
0000
0000
0000
0000
,  // measure 6
0000
0000
0000
0000
,  // measure 7
0000
0000
0000
0000
,  // measure 8
0000
0000
0000
0000
,  // measure 9
0110
0000
0000
0000
0010
1000
0100
1000
0010
0000
1000
0001
0100
0000
0001
0010
,  // measure 10
0100
0000
0010
0001
0100
0000
0010
1000
0100
0000
0010
0100
1000
0000
0001
1000
,  // measure 11
0100
0000
0000
0000
0010
0001
0100
0001
0010
0000
0100
1000
0001
0000
1000
0001
,  // measure 12
0100
0000
0001
1000
0010
0100
0010
0100
0001
0010
0001
0010
0100
1000
0100
1000
,  // measure 13
0001
0000
0000
0000
1000
0010
0100
0010
1000
0000
0100
1000
0001
0000
0010
0001
,  // measure 14
0100
0000
0010
1000
0100
0000
0010
0100
1000
0000
0100
0010
0001
0010
0100
0000
,  // measure 15
1000
0000
0001
0100
0000
0001
1000
0001
0010
0000
0001
1000
0000
0100
1000
0001
,  // measure 16
1000
0010
1000
0010
0100
0000
0001
0010
0100
1000
0100
1000
0001
0000
0100
0000
,  // measure 17
0110
0000
0000
0000
0010
0100
0001
0100
0010
0000
1000
0001
0100
0000
0001
0010
,  // measure 18
0100
0010
0100
0010
0001
1000
0001
1000
0010
0100
0010
0100
0001
1000
0001
1000
,  // measure 19
0100
0000
0000
0000
1000
0100
0010
0100
1000
0000
0001
0100
0010
0000
0100
0001
,  // measure 20
1000
0010
1000
0010
0100
0001
0100
0001
1000
0100
1000
0100
0010
0100
0010
0100
,  // measure 21
1000
0000
0000
1010
0000
0000
0001
0100
0010
0100
0010
0100
0001
0010
0100
0010
,  // measure 22
0001
0000
0000
0011
0000
0000
1000
0100
0010
0100
0010
0100
1000
0001
1000
0001
,  // measure 23
0100
0010
1000
0002
0000
1003
0100
0001
0100
2000
0000
3001
,  // measure 24
0010
0000
1000
0000
0001
0000
0100
0000
1000
0000
0001
0000
0000
0000
0000
0100
0000
0000
1010
0000
0000
0000
0000
0000
,  // measure 25
0001
0010
1000
0020
0000
0031
0100
1000
0100
0002
0000
1003
,  // measure 26
0100
0001
0100
2000
0000
3010
0200
0000
0301
0010
0001
1000
,  // measure 27
0001
0100
0001
0020
0000
1030
0100
1000
0010
0002
0000
0013
,  // measure 28
1000
0100
1000
0001
0100
0001
1000
0010
0001
0010
1000
0001
,  // measure 29
1000
0100
0001
1000
0010
0001
1000
0100
0010
0001
0010
0100
,  // measure 30
1000
0010
0100
0001
0010
0100
1000
0010
0001
0010
1000
0001
,  // measure 31
0010
0100
1000
0010
0100
0001
1000
0010
0001
0100
0001
0010
,  // measure 32
1000
0100
1000
0010
0100
0001
2002
0000
0000
3003
0000
0000
,  // measure 33
1010
1000
1100
0101
0001
0101
1100
1000
,  // measure 34
1010
0011
0001
0011
1010
1000
1100
0101
,  // measure 35
0001
1001
0101
0001
1001
1100
1000
0110
,  // measure 36
1001
1000
1010
1001
0001
0011
1001
0001
,  // measure 37
1001
0010
0110
0101
0010
0110
1100
0010
,  // measure 38
0110
1001
1000
1100
0101
0001
0011
1010
,  // measure 39
0001
0100
0010
0000
1000
0000
0100
0010
0001
0000
1000
0000
0001
0010
0100
0000
,  // measure 40
1000
0000
0000
0010
0000
0000
1000
0000
0000
0010
0000
0000
0100
0000
0000
0001
0000
0000
0100
0000
0000
0001
0000
0000
1000
0000
0000
0000
0100
0000
0000
0000
0001
0000
0000
0000
0010
0000
0000
0000
0000
0000
0000
0000
0000
0000
0000
0000
,  // measure 41
0220
0000
0000
0000
,  // measure 42
0000
0000
0000
0000
,  // measure 43
0000
0000
0000
0330
,  // measure 44
0010
0000
1000
0000
0001
0100
1000
0100
0001
0000
1000
0000
0001
0000
1001
0000
,  // measure 45
0020
0000
0000
0000
0130
0000
0001
0000
1000
0100
0010
0100
1000
0000
0001
0000
,  // measure 46
0100
0001
0010
0001
0100
0000
0001
0000
1000
0001
0100
0001
1000
0000
0001
0000
,  // measure 47
1000
0000
1001
0000
0020
0000
0000
0000
0130
0000
0001
0000
0010
0100
1000
0100
,  // measure 48
0010
0000
0001
0000
0100
0001
0010
0001
0100
0000
0001
0000
1000
0010
0100
0001
,  // measure 49
1000
0010
0100
0110
2000
0000
3001
0010
,  // measure 50
0001
0000
1000
0100
0001
0100
1000
0000
0001
0000
1000
0010
0100
0000
0001
0000
,  // measure 51
1000
0000
0001
0010
1000
0010
0001
0000
1000
0000
0001
1000
0100
0000
1000
0000
,  // measure 52
0010
0000
0100
0001
0010
0001
0100
0000
0001
0000
1000
0001
0100
0000
0001
0000
,  // measure 53
1000
0000
0100
1000
0010
1000
0100
0000
1000
0000
1001
0000
0020
0000
0000
0000
,  // measure 54
0130
0000
0001
0000
0010
0000
0001
0100
0010
1000
0001
0000
1000
0000
0001
1000
,  // measure 55
0100
0000
1000
0000
0010
0000
1000
0100
0010
0001
1000
0000
0001
0000
1000
0001
,  // measure 56
0100
0000
0010
0000
1000
0000
0001
0010
1000
0010
0001
0000
1000
0000
0001
1000
,  // measure 57
0100
0000
1000
0000
0001
0000
1000
0010
0001
0010
1000
0000
0001
0010
0100
1000
,  // measure 58
0001
0000
0001
0010
0000
0001
0100
0000
0001
0010
0100
0000
1000
0000
1000
0010
,  // measure 59
0000
1000
0100
0000
1000
0010
0100
0000
0001
0010
0100
1000
0001
0000
1000
0000
,  // measure 60
0110
0000
0010
1000
0000
0001
0100
0000
0001
1000
0100
0000
0010
0000
0010
0001
,  // measure 61
0000
1000
0100
0000
1000
0001
0100
0000
0010
1000
0001
0000
0100
0001
1000
0010
,  // measure 62
0100
0010
1000
0000
0110
0000
0001
0010
0100
0000
0110
0000
0010
0001
1000
0000
,  // measure 63
1001
0000
0001
1000
0010
0000
1010
0000
0001
0100
0010
1000
0001
0100
0010
1000
,  // measure 64
0001
0010
1000
0000
0011
0000
1000
0100
0001
0000
1100
0000
0001
1000
0100
0000
,  // measure 65
1010
0000
1000
0001
0100
0000
0011
0000
1000
0100
0001
0100
1000
0010
0001
0010
,  // measure 66
2000
0100
0001
0010
3002
0010
1000
0103
,  // measure 67
0120
0000
0000
0000
1000
0000
0000
0000
0001
0000
0000
0000
0130
0000
0000
0000
0012
0000
0000
0000
1000
0000
0103
0010
1000
0000
0001
0000
1000
0000
0100
0000
,  // measure 68
1000
0100
0001
0100
1000
0000
0001
0010
1000
0000
0010
0000
0001
0000
1000
0000
,  // measure 69
0001
0010
1000
0010
0001
0000
1000
0100
0001
0000
0100
0000
1000
0010
0100
0001
,  // measure 70
1000
0000
0100
1000
0010
0000
0100
0001
0010
0000
0100
1000
0010
0000
0100
0001
,  // measure 71
1000
0000
0100
0000
0010
0000
0002
0000
0100
0000
0013
0001
0100
0000
0001
0000
,  // measure 72
1000
0010
0001
0010
1000
0000
0001
0010
1000
0000
0010
0000
0001
0000
0100
0000
,  // measure 73
0001
0010
1000
0010
0001
0000
1000
0010
0001
0000
0010
0000
1000
0001
0100
0010
,  // measure 74
1000
0000
0000
1010
0000
0000
0011
0000
1001
0000
0000
0101
0000
0000
0001
1000
,  // measure 75
0001
0010
0001
0010
0100
1000
0100
1000
0010
0100
0010
0100
0001
1000
0100
1000
,  // measure 76
0001
0100
1000
0100
0001
0000
1000
0010
0001
0000
0010
0000
1000
0000
0100
0000
,  // measure 77
1000
0010
0001
0010
1000
0000
0001
0100
1000
0000
0100
0001
0010
0100
1000
0001
,  // measure 78
1000
0000
0100
1000
0010
0000
0100
0001
0010
0000
0100
1000
0001
0000
0100
0001
,  // measure 79
1000
0000
0010
1000
0100
0000
2000
0000
0010
0000
0010
0000
3001
0100
0010
0000
,  // measure 80
1000
0010
0001
0010
1000
0000
0001
0010
1000
0000
0010
0000
0001
0000
0100
0000
,  // measure 81
0001
0010
1000
0010
0001
0000
1000
0010
0001
0000
0010
0000
1000
0100
0010
0001
,  // measure 82
1000
0001
0101
0100
0001
1000
1100
0100
,  // measure 83
1000
0100
0010
0001
1000
0000
0001
1000
0110
0000
0000
1010
0000
0000
0101
0000
,  // measure 84
1100
0100
1100
0100
0011
0001
0011
0001
,  // measure 85
1000
0100
0001
0100
1000
0010
0001
0010
1000
0100
0001
0010
1000
0100
0001
0000
,  // measure 86
0000
0000
2002
3003
,  // measure 87
0000
0000
0000
0000
0010
0000
1000
0000
0100
0000
1000
0010
0001
0100
1000
0000
,  // measure 88
0001
0000
1000
0100
0010
0000
0001
0000
1000
0000
0001
0010
1000
0100
0001
0000
,  // measure 89
1000
0000
0010
1000
0100
0000
1000
0000
0010
0000
0100
0001
0010
1000
0001
0000
,  // measure 90
0010
0000
0100
0001
1000
0000
0010
0000
0100
0000
0010
1000
0100
0001
1000
0000
,  // measure 91
1001
0000
1010
0110
0001
1100
0101
0001
,  // measure 92
0011
1010
0001
1001
0220
0000
0000
0000
,  // measure 93
0000
0000
0000
0000
,  // measure 94
0000
0000
0000
0000
,  // measure 95
0000
0330
0000
0000
;
