#TITLE:THE BRAVE MUST DIE;
#SUBTITLE:;
#ARTIST:BEMANI Sound Team "L.E.D.-G";
#TITLETRANSLIT:;
#SUBTITLETRANSLIT:;
#ARTISTTRANSLIT:L.E.D.-G;
#GENRE:;
#CREDIT:;
#MUSIC:THE BRAVE MUST DIE.ogg;
#BANNER:THE BRAVE MUST DIE.png;
#BACKGROUND:THE BRAVE MUST DIE-bg.png;
#CDTITLE:./CDTITLES/BEATMANIA IIDX.PNG;
#SAMPLESTART:21.209;
#SAMPLELENGTH:15.000;
#SELECTABLE:YES;
#OFFSET:0.000;
#BPMS:0.000=215.000;
#STOPS:299.667=0.27906976744186046511627906976744
,304.000=0.83720930232558139534883720930233
,311.667=0.27906976744186046511627906976744
,412.500=0.13953488372093023255813953488372
,444.000=0.13953488372093023255813953488372
,445.500=0.27906976744186046511627906976744
;
#MENUCOLOR:;
#METERTYPE:DDR;
#LISTSORT:;
#BGCHANGES:;
#FGCHANGES:;

//--------------- dance-single - t7r ----------------
#NOTES:
     dance-single:
     t7r:
     Beginner:
     5:
     0.173,0.215,0.023,0,0.015:
0000
0000
0000
0000
,
0000
0000
0000
0000
,
0000
0000
0000
0000
,
0000
0000
0000
0000
,
0000
0000
0000
0000
,
0000
0000
0000
0000
,
0000
0000
0000
0000
,
0000
0000
0000
0000
,
0000
0000
0000
0000
,
0000
0000
0000
0000
,
0000
0000
0000
0000
,
0001
0000
0001
0000
,
0001
0000
0000
0000
,
1000
0000
1000
0000
,
1000
0000
0000
0000
,
0010
0000
0010
0000
,
0010
0000
0000
0000
,
0100
0000
0100
0000
,
0100
0000
0000
0000
,
0001
0000
1000
0000
,
0001
0000
0000
0000
,
1000
0000
0001
0000
,
1000
0000
0000
0000
,
0010
0000
0100
0000
,
0010
0000
0000
0000
,
0100
0000
0010
0000
,
0100
0000
0000
0000
,
0001
0000
1000
0000
,
0100
0000
0000
0000
,
1000
0000
0001
0000
,
0010
0000
0000
0000
,
0001
0000
1000
0000
,
0010
0000
0000
0000
,
1000
0000
0001
0000
,
0100
0000
0000
0000
,
0010
0000
0010
0000
,
1000
0000
1000
0000
,
0001
0000
0001
0000
,
0100
0000
0100
0000
,
0001
0000
0001
0000
,
1000
0000
1000
0000
,
0010
0000
0010
0000
,
1000
0000
1000
0000
,
0100
0000
0100
0000
,
0010
0000
0010
0000
,
0001
0000
0001
0000
,
0100
0000
0000
0000
,
0100
0000
0100
0000
,
0010
0000
0010
0000
,
1000
0000
0001
0000
,
1000
0000
0000
0000
,
0001
0000
0000
0000
,
0000
0000
0000
0000
,
0010
0000
0000
0000
,
0000
0000
0000
0000
,
0100
0000
0000
0000
,
0100
0000
0000
0000
,
1000
0000
0001
0000
,
1000
0000
0000
0000
,
0010
0000
0010
0000
,
0010
0000
0000
0000
,
0100
0000
0100
0000
,
0100
0000
0000
0000
,
0001
0000
1000
0000
,
0001
0000
0000
0000
,
1000
0000
0001
0000
,
0100
0000
0000
0000
,
0010
0000
0010
0000
,
0010
0000
0010
0000
,
1000
0000
1000
0000
,
1000
0000
1000
0000
,
0001
0000
0001
0000
,
0001
0000
0001
0000
,
0100
0000
0100
0000
,
0100
0000
0100
0000
,
0000
0010
0000
0010
,
0010
1000
1000
0000
,
0001
0000
0001
0001
,
0000
0100
0000
0010
,
0000
1000
0000
0001
,
0000
0010
0000
0100
,
0000
1000
0000
1001
,
0000
0000
0000
0000
,
0000
0000
0000
0000
,
0000
0000
0000
0000
,
0000
0000
0000
0010
,
0000
0000
0000
1000
,
0000
0000
0000
0001
,
0000
0000
0000
0100
,
0000
0000
0000
0001
,
0000
0001
0000
0010
,
0000
0000
0000
1000
,
0000
1000
0000
0010
,
0000
0000
0000
0000
,
0000
0000
0000
0000
,
0000
0000
0000
1000
,
0000
1000
0000
0001
,
0000
0000
0000
0100
,
0000
0100
0000
0010
,
0000
0000
0000
1000
,
0000
1000
0000
0100
,
0000
0100
0000
0010
,
0000
0010
0000
0001
,
0000
0000
0000
0000
0000
1000
0000
0000
,
0000
1000
0000
0000
0000
0010
0000
0000
,
0000
0010
0000
0000
0000
0100
0000
0000
,
0000
0100
0000
0000
0000
0001
0000
0000
,
0000
0001
0000
0000
0000
1001
0000
0000
,
0000
0000
0000
0000
,
0000
0000
0000
0000
0000
0010
0000
0000
,
0000
0010
0000
0000
0000
0100
0000
0000
,
0000
0000
0000
0010
1001
0000
0000
0000
;

//--------------- dance-single - t7r ----------------
#NOTES:
     dance-single:
     t7r:
     Easy:
     7:
     0.405,0.431,0.031,0.154,0.027:
0000
0000
0000
0000
,
0000
0000
0000
0000
,
0000
0000
0000
0000
,
0000
0000
0000
0000
,
0000
0000
0000
0000
,
0000
0000
0000
0000
,
0000
0000
0000
0000
,
0000
0000
0000
0000
,
0000
0000
0000
0000
,
0000
0000
0000
0000
,
0000
0000
0000
0000
,
0001
0010
0010
0010
,
0100
1000
0010
0010
,
0100
0001
0010
0010
,
0100
1000
0010
0010
,
1000
0100
0010
0001
,
1000
0100
0010
0001
,
1000
0010
0100
0001
,
2000
0000
0000
3000
,
0001
0010
0010
0002
,
0103
0001
0010
0100
,
1000
0010
0010
1000
,
0100
0000
0000
0100
0000
0000
0110
0000
,
0001
0010
0010
0200
,
1300
0010
0010
0100
,
0001
1000
1000
0010
,
1000
0001
0100
0010
,
1000
0100
0100
0020
,
0031
0100
0100
0010
,
1000
0010
0010
0100
,
0010
0000
0000
0100
0000
0000
0110
0000
,
0001
0100
0100
0020
,
1030
0100
0100
0010
,
0001
0010
0010
0100
,
2000
0000
0002
3003
,
1000
0100
0010
0001
,
1000
0010
0100
0001
,
1000
0100
0010
0001
,
1000
0010
0100
0001
,
1000
0100
0010
0001
,
0100
0001
0010
0100
,
1000
0100
0010
0001
,
0100
0001
0010
0100
,
0010
0001
0001
1000
,
0010
1000
0100
0010
,
0100
1000
1000
0001
,
0020
0031
0001
1000
,
0010
0100
0100
0010
,
1000
0010
0010
0100
,
0001
0010
0100
1000
,
0002
0000
0000
0003
,
2000
0000
0010
0000
,
0010
0000
3010
0000
,
0002
0000
0010
0000
,
0010
0000
0013
0000
,
2000
0000
3100
0000
,
0002
0000
0103
0000
,
2000
0000
3010
0000
,
0002
0000
0013
0000
,
1000
0100
0010
0001
,
1000
1000
0010
0100
,
0001
0010
0100
1000
,
0001
0001
0010
0100
,
1000
0001
0100
0010
,
1000
0001
0010
0100
,
0010
0001
1000
0001
,
2002
0000
0000
3003
,
1000
0010
0010
1000
,
0100
0010
0010
0001
,
0100
0010
0010
0100
,
0001
1000
0001
0001
,
1000
0010
0010
1000
,
0100
0010
0010
0001
,
0100
0010
0010
0100
,
0001
0010
0100
1000
,
0001
0010
0010
0100
,
0100
1000
1000
0001
,
0001
0100
0100
0010
,
1000
0100
0010
0010
,
0001
0100
0010
0010
,
0100
0001
1000
0001
,
0010
0100
1000
0020
,
0000
0000
0000
0000
,
0000
0000
0000
0030
,
0000
0000
0000
0000
,
0000
0000
0000
1000
,
0000
1000
0000
0100
,
0000
0100
0000
0010
,
0000
0010
0000
0001
,
0000
0001
0000
1000
,
1000
0010
0010
0100
,
0100
0001
0001
1000
,
0100
0010
0001
1000
,
0100
0001
0100
2000
,
0000
0000
0000
3000
,
0000
0000
0000
0001
,
0100
0100
0001
0010
,
0001
1000
0010
1000
,
0100
0100
1000
0010
,
1000
0001
0100
0010
,
0100
0001
1000
0100
,
0010
0001
1000
0010
,
0010
1000
0001
0100
,
0010
0100
0000
0010
0000
1000
0000
0001
,
0000
0001
0000
0010
0000
0001
0000
0010
,
0000
0100
0000
1000
0000
0001
0000
1000
,
0000
1000
0000
0010
0000
1000
0000
0010
,
0000
0100
0000
0001
0000
1000
0000
0100
,
0000
0000
0000
0100
0000
0000
0000
0010
,
0000
0000
0000
0010
0000
0000
0000
0001
,
0000
1000
0000
1000
0000
0001
0000
0100
,
0010
1000
0001
1000
1001
0000
0000
0000
;

//--------------- dance-single - t7r ----------------
#NOTES:
     dance-single:
     t7r:
     Medium:
     11:
     0.521,0.603,0.139,0.178,0.104:
0000
0000
0000
0000
,
0000
0000
0000
0000
,
0000
0000
0000
0000
,
0000
0000
0000
0000
,
0000
0000
0000
0000
,
0000
0000
0000
0000
,
0000
0000
0000
0000
,
0000
0000
0000
0000
,
0000
0000
0000
0000
,
0000
0000
0000
0000
,
0000
0000
0000
0000
,
0001
0000
0010
0000
0001
0000
1000
0100
,
1000
0000
0010
0000
1000
0000
0001
0100
,
0001
0000
1000
0000
0010
0000
1000
0100
,
1000
0000
0001
0000
0010
0000
0100
0010
,
0100
0000
0100
0000
0010
0001
1000
0000
,
0010
0000
0010
0000
0100
0001
1000
0000
,
0001
0000
0100
0000
0001
0010
0001
0000
,
2200
0000
0000
3300
,
0010
0000
0100
0000
0001
0000
1000
0200
,
0010
0301
0100
0010
,
1000
0000
0010
0000
0100
0000
0001
0100
,
0010
0000
0000
0010
0000
0000
1001
0000
,
1000
0000
0010
0000
0100
0000
0010
2000
,
0100
0000
3001
0000
0100
0000
0010
0100
,
0001
0000
0010
0000
0100
0000
0010
0002
,
0100
0000
0013
0001
1000
0000
0010
0000
,
1000
0000
0010
0000
0100
0000
0001
2000
,
0100
0000
3001
0000
0100
0000
0010
0100
,
0001
0000
1000
0000
0001
0000
0010
0100
,
0010
0000
0000
0100
0000
0000
0110
0000
,
0001
0000
0100
0000
0010
0000
1000
0002
,
0100
0000
1003
0000
0010
0000
1000
0001
,
0010
0000
0001
0000
0100
0000
0010
1000
,
0200
0000
0020
0330
,
1001
0000
0001
0100
0001
0000
1000
0000
,
0001
0010
0001
0010
0001
0000
1000
0000
,
0010
0000
1000
0100
1000
0000
0001
0000
,
1000
0010
1000
0010
1000
0000
0001
0000
,
1000
0000
0100
0010
0100
0000
1000
0000
,
0010
0100
0010
0100
0010
0000
1000
0000
,
0010
0000
0100
0001
0100
0000
0001
0000
,
0010
0001
0010
0001
0010
0000
0001
0000
,
1000
0000
0100
1000
0100
0000
0010
0000
,
0100
1000
0100
1000
0100
0000
1000
0000
,
0010
0000
0100
0001
0100
0000
0001
0000
,
2000
0000
3001
0010
0100
0000
0010
0000
,
0001
0000
1000
0010
1000
0000
0001
0000
,
0010
0001
0010
0001
0010
0000
0001
0000
,
1000
0000
0001
1000
0100
0000
1000
0000
,
0220
0000
0000
0330
,
0020
0000
1000
0000
,
1000
0000
0130
0000
,
0002
0000
0010
0000
,
0010
0000
0103
0000
,
2000
0000
3100
0000
,
0002
0000
0103
0000
,
2000
0000
3010
0000
,
0220
0000
0000
0330
,
1000
0100
0010
0100
,
1100
0100
0010
0001
,
0100
0001
0010
0001
,
0011
0001
1000
0010
,
0100
0010
0110
1000
,
0001
0100
0101
0001
,
1000
0100
1100
1000
,
0020
0000
0000
0030
,
1000
0000
0000
0100
0000
0000
1100
0000
0000
1000
0000
1000
,
0100
0000
0000
1000
0000
0000
1001
0000
0000
0001
0000
0001
,
0100
0000
0000
0001
0000
0000
1001
0000
0000
0001
0000
0001
,
0010
0000
0000
0001
0000
0000
1000
0000
0001
0000
0100
0000
,
0010
0000
0000
0100
0000
0000
0101
0000
0000
0001
0000
0001
,
0010
0000
0000
0100
0000
0000
1100
0000
0000
1000
0000
1000
,
0010
0000
0000
0100
0000
0000
0110
0000
0000
0010
0000
0010
,
1000
0000
0000
0001
0000
0000
1000
0000
1000
0000
1000
0000
,
0001
0000
0000
1000
0000
1000
0001
0000
0000
0100
0000
0100
,
0010
0000
0000
1000
0000
1000
0100
0000
0100
0010
0000
0010
,
0001
0000
0001
1000
0000
1000
0010
0000
0010
0100
0000
0010
,
0110
0000
0000
1001
0000
0000
0010
0000
0010
1000
0000
0000
,
0001
0000
0000
1000
0000
0000
0001
0000
0001
0010
0000
0000
,
0100
0000
0100
1000
0000
0000
0001
0000
0001
1000
0000
1000
,
0001
0000
0001
1000
0000
1000
0000
1000
0000
0020
0000
0000
,
0000
0000
0000
0000
,
0000
0000
0000
0030
,
0000
0000
0000
0000
,
0000
0000
0000
0010
,
0000
0010
0000
1000
,
0000
1000
0000
0001
,
0000
0001
0000
0100
,
0000
0100
0000
0001
,
0001
0010
0010
0100
,
0100
1000
1000
0001
,
0001
0100
0100
0010
,
0010
1000
0001
2000
,
0000
0000
0000
3001
,
0000
0000
0000
0001
,
0010
0100
0000
0100
1000
0000
0010
1000
,
0010
0000
0100
0001
0100
0000
0001
0000
,
1000
0010
0000
0010
0100
0000
0010
1000
,
0010
0000
1000
0100
1000
0000
0001
0000
,
1000
0010
1000
0000
0001
0000
0010
0001
,
0010
0001
0000
0001
1000
0000
0001
0100
,
0001
0000
1000
0100
0010
0000
0100
0010
,
0100
1000
0001
0100
0001
0010
0000
0010
,
0001
0000
0001
1000
0000
0010
0100
0000
,
0100
0001
0000
1000
0000
0010
0000
0010
,
1000
0000
1000
0001
0000
0010
0001
0000
,
0001
0100
0000
0010
0000
0200
0000
0010
,
0000
0010
0000
0010
0000
1000
0000
0001
,
0000
0001
0000
0301
0000
1000
0100
1000
,
0100
1000
0001
0100
0010
0100
0100
0100
,
0100
0010
1000
0001
1001
0000
0000
0000
;

//--------------- dance-single - t7r ----------------
#NOTES:
     dance-single:
     t7r:
     Hard:
     15:
     0.768,0.99,0.448,0.185,0.209:
0000
0000
0000
0000
,
0000
0000
0000
0000
,
0000
0000
0000
0000
,
0000
0000
0000
0000
,
0000
0000
0000
0000
,
0000
0000
0000
0000
,
0000
0000
0000
0000
,
0000
0000
0000
0000
,
0000
0000
0000
0000
,
0000
0000
0000
0000
,
0000
0000
0000
0000
,
1010
0000
0001
0100
0010
0100
0001
0010
,
0100
0000
1000
0100
0010
0100
1000
0010
,
0100
0000
0010
1000
0001
0100
0001
1000
,
0010
0000
0100
0001
1000
0001
0010
0001
,
1000
1000
0100
0100
0010
0010
0001
0001
,
1000
1000
0010
0010
0100
0100
0001
0001
,
1000
1000
0001
0001
0100
0100
0010
0010
,
2000
0000
0000
3000
,
1010
0000
0011
0000
1100
0000
1001
0001
,
0200
0000
0301
0000
0101
0000
0011
0001
,
1000
0000
1001
0000
1100
0000
0110
0010
,
0100
0000
0000
0110
0000
0000
1001
0000
,
0011
0000
0000
1001
0000
0000
0101
0000
0000
1001
0000
0001
,
2000
0000
3100
0000
1100
0000
1010
0010
,
1000
0000
1010
0000
0010
0010
0100
0100
,
0001
0100
0010
0100
0001
0100
1000
0100
,
0001
0000
1100
0000
0110
0000
0011
0001
,
2000
0000
3010
0100
0001
0001
1000
1000
,
0001
0000
0110
0000
1001
0000
0011
0001
,
1000
0100
0100
1000
0010
0010
0100
0100
,
0010
0000
0000
0000
0000
0000
0110
0000
0000
0000
0000
0000
0101
0000
0000
0000
0001
0000
0010
0000
0000
0001
0000
0000
,
1000
1000
1000
0100
0010
0100
1000
0100
,
0010
0000
0110
0010
0001
0001
1000
1000
,
0002
0000
2000
3003
,
1000
0010
0010
1000
0100
0100
1000
0100
,
1000
0010
0100
0001
1000
0100
0010
0100
,
1000
0010
0010
1000
0100
0100
1000
0100
,
0010
0001
0100
0001
1000
0001
0100
0010
,
0100
0001
0001
0010
0100
0100
0010
0001
,
0100
0001
0010
0001
1000
0010
0100
0001
,
0100
0010
0010
0100
0001
0001
0100
0010
,
1000
0100
0010
0100
1000
0010
0100
0001
,
1000
0010
0010
1000
0010
0000
1010
0000
,
1000
0100
0100
0010
0100
1000
0100
0010
,
0001
0100
0100
0001
0010
0000
0011
0000
,
1002
0000
1003
0010
0100
0100
0020
0000
,
2030
0000
3001
0001
0001
1000
1001
0000
,
0001
0010
0010
0100
0010
0010
0001
0100
,
0001
0001
0010
0010
0100
0100
1000
1000
,
0002
0000
2000
3003
,
0120
0100
0100
0100
,
1000
1000
1000
1030
,
2100
0100
0100
0100
,
0001
0000
3001
0000
0001
1000
0001
0001
,
0012
0000
0010
0000
1000
0000
1003
1000
,
2100
0000
0100
0000
0001
0000
3001
0001
,
0220
0330
2002
3003
,
2200
0000
0000
3300
,
0110
0000
0000
0011
0000
0000
0110
0000
0000
1100
0000
0010
,
1000
0000
1010
0000
0110
0000
0101
0001
,
1000
0000
1001
0000
0010
0010
0100
0100
,
0001
0100
1000
0100
0001
0010
0100
0010
,
0001
1000
0100
1000
0010
0010
1000
0001
,
1000
0001
0100
0001
0010
0010
0001
1000
,
0001
0001
1000
1000
0010
0010
0100
0100
,
0002
0000
0000
0003
,
1000
0000
0000
1100
0000
0000
0101
0000
0000
1000
0000
1000
,
0100
0000
0000
0101
0000
0000
1000
0000
1000
0010
0000
0010
,
0100
0000
0000
0001
1000
0001
0010
0000
0000
0001
0000
0001
,
1000
0000
0000
1010
0000
0000
1000
0100
1000
0001
1000
0001
,
1000
0000
0000
0011
0000
0000
1010
0000
0000
0001
0000
0001
,
0010
0000
0000
1010
0000
0000
0001
0000
0001
0010
0000
0010
,
0100
0000
0000
1000
0000
0000
1100
0000
0000
1000
0000
1000
,
0001
0000
0000
1000
0000
1000
0001
1000
0001
0100
0010
0100
,
0010
1000
0010
1000
0010
1000
0010
1000
0010
1000
0100
1000
,
0001
0000
0000
0001
0100
0001
0100
0001
0100
0001
0100
0001
,
0100
0010
0100
0010
0100
0001
1000
0001
1000
0001
1000
0100
,
1000
0000
0000
1001
0000
0000
0010
0000
0010
0100
0000
0000
,
0101
0000
0000
1000
0000
1000
0100
0000
0100
0010
0000
0000
,
0001
0000
0001
0100
0000
0000
1000
0000
1000
0100
0000
0000
,
0001
0000
0001
0010
0100
0010
0001
1000
0001
2000
0000
0000
,
0000
0000
0000
0000
,
0000
0000
0000
3000
,
0000
0000
0000
0000
,
0000
0000
0000
0010
,
0000
0010
0000
1000
,
1000
0001
0100
0001
,
0000
0001
0000
1000
,
1000
0100
0100
0010
,
0010
0001
0000
0001
0100
0000
0100
0010
,
0000
0010
1000
0000
0001
0000
1000
0100
,
1000
0100
0001
0100
0001
0100
1000
0010
,
1000
0010
0001
0010
0001
0010
1000
1000
,
0001
0001
0100
0100
0010
0010
2000
0000
,
0000
0000
0000
0000
3000
0000
0001
0100
,
0001
0010
0000
0010
0001
1000
0001
0100
,
0010
1000
0100
0100
0010
0010
0001
0010
,
0100
0010
0000
0010
0001
1000
0001
0100
,
0010
0100
0001
1000
0100
1000
0010
0000
,
1000
0100
0001
0100
1000
0100
0010
0000
,
0001
0100
1000
0100
0001
0010
0100
0100
,
0100
0010
0001
0001
1000
0001
0001
1000
,
0100
0010
0100
1000
0010
0100
0100
0001
,
0100
0000
0100
0010
0100
0001
0010
0100
,
1000
0010
0010
0100
0100
0001
0010
1000
,
0010
0000
0001
0100
1000
0100
0010
1000
,
0100
0001
0100
1000
0010
0100
0000
0100
,
0010
1000
0000
0010
1000
0100
0010
0001
,
0100
0010
0100
0001
0010
0100
0100
0100
,
0010
0001
0001
1000
0001
0100
0100
0010
,
0100
0001
0010
1000
0110
0000
0000
0000
;

//--------------- dance-single - t7r ----------------
#NOTES:
     dance-single:
     t7r:
     Challenge:
     17:
     0.989,1,0.741,0.077,0.668:
0000
0000
0000
0000
,
0000
0000
0000
0000
,
0000
0000
0000
0000
,
0000
0000
0000
0000
,
0000
0000
0000
0000
,
0000
0000
0000
0000
,
0000
0000
0000
0000
,
0000
0000
0000
0000
,
0000
0000
0000
0000
,
0000
0000
0000
0000
,
0000
0000
0000
0000
,
0110
0000
0000
0000
0001
0000
0100
0000
0010
0000
0100
0000
0001
0000
0010
0100
,
1000
0000
0000
0000
0010
0000
0100
0000
0001
0000
0100
0000
0010
0000
1000
0001
,
0010
0000
0000
0000
0001
0000
1000
0000
0100
0000
1000
0000
0010
0000
0100
0001
,
1000
0000
0000
0000
0010
0000
0100
0000
0001
0000
0100
0000
0010
0000
1000
0100
,
0010
0000
0010
0000
0100
0000
0100
0000
1000
0000
1000
0000
0001
0000
0100
0001
,
1000
0000
1000
0000
0010
0000
0010
0000
0100
0000
0100
0000
0001
0000
1000
0100
,
1000
0000
0001
0100
0001
0000
1000
0010
1000
0000
0001
0010
0001
0000
1000
0001
,
2000
0000
0000
3000
,
0101
0000
0000
0000
0011
0000
0000
0000
1001
0000
0000
0000
0101
0000
0001
0010
,
0100
0110
0011
1001
,
0110
0000
0000
0000
1010
0000
0000
0000
1100
0000
0000
0000
1001
0000
0001
1000
,
0100
0000
1000
0100
1000
0000
0001
1000
0001
0000
1000
0010
1000
0000
0000
0000
,
0110
0000
0000
0000
1010
0000
0000
0000
0110
0000
0000
0000
0101
0000
0001
0100
,
0010
0000
0110
0000
0101
0000
0011
0001
,
1001
0000
0000
0000
1100
0000
0000
0000
0100
0000
0100
0000
0010
0000
0010
0001
,
1000
0000
0001
0100
0001
0000
1000
0010
1000
0000
0001
1000
0001
0000
0001
0000
,
0011
0000
0000
0000
0101
0000
0000
0000
1001
0000
0000
0000
0110
0000
0010
1000
,
0100
0000
0000
0000
1100
0000
0000
0000
0110
0000
0010
0000
0100
1000
0100
0000
,
0110
0000
0000
0000
0011
0000
0000
0000
1000
0001
1000
0000
0001
0100
0001
0000
,
1000
0000
0100
0010
0100
0000
1000
0001
1000
0000
0010
0100
0010
0100
0010
0100
,
0001
0000
0000
0000
0101
0000
0000
0000
1100
0000
0001
1000
0010
0000
1000
0000
,
0001
0000
1000
0000
1001
0000
0000
0000
1100
0000
0100
0010
0100
0000
1000
0000
,
1010
0000
0000
0000
0011
0000
0001
0000
0100
0000
0001
0100
0001
0000
1000
0100
,
2000
0000
0000
0000
3001
1000
0001
1000
0001
0000
0002
0000
0000
0000
0000
0000
,
0013
0000
0001
0000
1000
0000
0001
0000
1001
0000
0000
0000
0101
0000
0001
0100
,
0010
0000
0100
0001
1000
0100
0010
0010
,
0100
1000
0010
0100
0110
0000
1010
0000
,
1100
0000
0110
0000
0010
0010
0100
0100
,
1000
0000
1000
0000
0001
0000
0001
0000
0101
0000
0000
0000
1100
0000
0100
0010
,
0001
0000
0101
0001
0010
0000
0011
0000
,
1001
0000
0000
0000
0101
0000
0001
0000
1000
0000
0000
0000
0010
0100
0001
0000
,
0110
0000
1100
0000
0010
0001
0200
0000
,
0310
0000
1000
0000
0001
0000
1000
0000
1001
0000
0000
0000
1100
0000
0100
1000
,
0001
0000
0101
0001
0010
0000
0011
0001
,
1000
0010
0100
0001
0101
0000
1100
0000
,
0011
0000
1001
0001
0100
1000
0100
0001
,
1000
0000
0001
0000
1001
0000
0001
0000
0100
0000
0000
0000
0110
0000
0010
1000
,
0100
0100
0010
0100
0100
0100
1000
1000
,
0001
0000
0001
0000
0010
0001
0100
0001
0010
0000
0001
0000
1000
0010
0100
0010
,
2000
0000
0002
3003
,
1100
0000
1000
0010
0000
0100
0001
0000
,
1000
0100
0010
0100
1000
0001
0100
0001
,
0010
0000
0001
0100
0000
0001
0010
0000
,
0001
0100
0010
1000
0001
0010
0100
1000
,
1001
1000
0010
0010
0100
0100
0001
0001
,
1000
1000
0100
0100
0010
0010
0001
0001
,
1100
0000
0001
0000
0100
0001
0100
0001
0010
0000
0001
0000
0100
0010
0100
0010
,
2000
0000
0010
0000
0000
0000
0001
0000
0000
0000
0100
0000
0000
0000
3001
1000
,
0001
0000
0010
0000
0100
0000
0010
0000
0001
0000
0100
0000
0010
0000
1000
0001
,
1000
0100
0010
0100
1000
0010
0100
0001
,
1001
0001
0100
0001
0010
0100
0010
0010
,
0001
0000
1000
0100
1000
0000
0001
0100
0001
1000
0001
1000
0001
0000
0010
0100
,
0010
0100
0010
0000
1001
0000
0001
0000
0100
0000
0100
0000
0100
0000
0000
0100
,
0001
0000
1000
0000
0010
0000
0000
0010
1000
0000
0001
0000
0010
0000
0010
0000
,
0001
0000
0001
0000
0100
0000
0100
0000
0010
0000
1000
0100
1000
0000
0001
1000
,
0002
1000
0000
0010
0000
0100
0000
0013
,
0011
0000
0000
1001
0000
0000
0101
0000
0000
1100
0000
0100
,
0010
0000
0000
1100
0000
0000
1000
0100
1000
0001
1000
0001
,
0010
0000
0000
0001
0100
0010
1000
0000
0000
0100
0010
0001
,
1000
0000
0000
1001
0000
0000
1000
0010
0001
1000
0100
0001
,
1000
0000
0000
0110
0000
0000
0101
0000
0000
0011
0000
0001
,
1000
0000
0000
1001
0000
0000
0001
0010
1000
0001
0100
1000
,
0010
0000
0000
0110
0000
0000
0101
0000
0000
0110
0000
0010
,
1000
0000
0000
1001
0000
0000
0010
0100
0010
1000
0001
1000
,
0001
0010
0100
1000
0100
0010
0001
1000
0001
0100
0010
0100
,
0010
0000
0000
0010
0100
0010
1000
0001
1000
0100
1000
0001
,
0010
0001
1000
0010
0001
1000
0100
0001
1000
0001
1000
0001
,
1010
0000
0000
1100
0000
0000
0011
0000
0001
1000
0000
0000
,
1100
0000
0000
0010
1000
0100
0010
0001
0100
0010
0100
0010
,
0100
0001
0100
0001
1000
0100
1000
0001
0010
0001
1000
0001
,
1000
0100
1000
0001
0010
1000
0001
0100
1000
0020
0000
0000
,
0000
0000
0000
0000
,
0000
0000
0000
0030
,
0000
0000
0000
0000
,
0000
0000
0000
0000
0000
0000
0010
0100
,
0001
0100
0000
0100
0001
0010
0100
1000
,
0100
0010
0001
1000
0010
0100
0010
1000
,
0100
1000
0000
1000
0010
0100
0010
1000
,
0100
0001
0100
1000
0010
0100
0001
0010
,
0100
0010
0000
0010
0001
0100
1000
0100
,
0001
0010
0100
0010
0001
1000
0010
0010
,
1000
1000
0001
0001
0100
0100
0001
0010
,
1000
0000
0001
0000
0100
0000
1000
0000
0001
0000
1000
0000
0001
1000
0001
1000
,
0001
1000
0001
1000
0010
0100
0010
0100
0010
0100
0010
0100
0020
0000
0000
0000
,
0000
0000
0000
0000
0000
0000
0000
0000
0030
0000
0000
0000
1000
0100
1000
0000
,
0001
0000
1001
0000
0000
0000
0001
0000
0100
0000
0100
0000
0001
0000
0010
0100
,
1000
0000
0010
0000
0100
0001
0100
0000
0001
0000
1000
0000
0001
0000
0010
0001
,
0010
0000
0001
0000
1000
0000
0001
0000
0100
0000
0010
0000
0100
0000
0100
0001
,
0100
0000
0100
0010
0100
0000
0010
0000
0100
0000
0100
0000
1010
0000
0001
0000
,
1000
0100
0010
0001
1000
0000
0001
0100
0001
0000
1000
0000
0001
0010
0100
0010
,
0001
0000
1000
0001
0100
0001
1000
0000
0001
0010
0100
1000
0010
0000
0100
0000
,
0110
0000
0001
1000
0001
0000
1000
0001
0100
0000
0001
0000
1000
0001
1000
0000
,
1001
0000
1001
0000
0110
0000
0001
0000
0100
0000
1000
0010
0100
0001
0010
0000
,
0011
0000
0000
0000
1000
0000
0100
0000
0010
0000
0100
0000
1000
0100
1000
0000
,
0001
0000
0100
0000
0001
1000
0100
0000
0010
0000
0011
0000
0001
1000
0010
0000
,
0100
0000
0010
0000
1000
0000
0100
0000
0001
0000
0100
0000
1000
0010
1000
0000
,
0001
0100
0001
0000
1000
0100
1000
0000
0001
0000
1000
0000
0001
0000
0101
0000
,
0001
0000
1000
0000
0001
0000
0011
0000
0001
0000
1000
0100
1000
0100
0010
0100
,
0010
0100
1000
0001
1000
0001
0100
0010
0100
0010
1000
0000
0010
1000
0100
0010
,
0100
0000
0001
0000
0100
1000
0010
0000
1000
0000
1001
0000
0010
0100
0001
0000
,
0110
0000
0001
0100
1000
0000
1010
0000
0011
0000
0000
0000
0000
0000
0000
0000
;
