#TITLE:T-REX vs Velociraptor (In the Far east euphoria);
#SUBTITLE:;
#ARTIST:RoughSketch & TARACHINE;
#TITLETRANSLIT:;
#SUBTITLETRANSLIT:;
#ARTISTTRANSLIT:;
#GENRE:RAVECORE;
#CREDIT:;
#MENUCOLOR:;
#METERTYPE:DDR;
#BANNER:T-REX vs Velociraptor (In the Far east euphoria).png;
#BACKGROUND:T-REX vs Velociraptor (In the Far east euphoria)-bg.png;
#LYRICSPATH:;
#CDTITLE:;
#MUSIC:T-REX vs Velociraptor (In the Far east euphoria).ogg;
#OFFSET:-0.100;
#SAMPLESTART:84.100;
#SAMPLELENGTH:13.200;
#SELECTABLE:YES;
#LISTSORT:;
#BPMS:0.000=200.000;
#STOPS:;
#BGCHANGES:-4.000=T-REX vs Velociraptor (In the Far east euphoria).avi=1.000=0=0=0,
99999=-nosongbg-=1.000=0=0=0 // don't automatically add -songbackground-
;
#ATTACKS:;

//---------------dance-single - ----------------
#NOTES:
     dance-single:
     :
     Beginner:
     4:
     0.174,0.328,0.060,0.026,0.000:
0000
0000
0000
0000
,
0000
0000
0000
0000
,
0000
0000
0000
0000
,
0000
0000
0000
0000
,
1000
0000
0000
0000
,
0000
0000
0000
0000
,
1000
0000
0000
0000
,
0000
0000
0000
0001
,
0001
0000
0000
0000
,
0000
0000
0000
0100
,
0000
0000
0000
0000
,
0000
0010
0000
0000
,
1000
0000
0000
0000
,
0000
0000
0000
0000
,
0001
0000
0000
0000
,
0000
0000
0000
0000
,
0100
0000
0000
0000
,
0000
0000
0000
0000
,
0010
0000
1000
0000
,
0001
0000
0100
0000
,
0010
0000
0010
0000
,
0010
0010
0010
0000
,
1000
0000
1000
0000
,
1000
1000
1000
0000
,
0001
0000
0001
0000
,
0001
0001
0001
0000
,
0100
0000
0100
0000
,
0100
0000
0100
0000
,
0010
0000
0010
0000
,
0010
0010
0010
0000
,
1000
0000
1000
0000
,
1000
1000
1000
0000
,
1001
0000
0000
0000
,
1001
0000
0000
0000
,
0010
0000
0100
0000
,
0001
0000
1000
0000
,
1001
0000
0000
0000
,
0000
0000
0000
0010
,
1001
0000
0000
0000
,
0000
0000
1000
0000
,
1001
0000
0000
0000
,
0000
0000
0000
0100
,
1001
0000
0000
0000
,
0000
0000
0000
0000
,
0010
0010
0000
0010
,
0000
0000
0010
0000
,
1000
0000
0000
1000
,
0000
0000
0000
0000
,
0001
0000
1000
0000
,
0010
0000
0100
0000
,
0010
0000
1000
0000
,
0001
1000
0010
0100
,
1001
0000
0000
0000
,
0000
0000
0000
0000
,
0000
0000
0000
0000
,
0000
0000
0000
0000
,
0000
0000
0000
0000
,
0000
0000
0000
0000
,
0000
0000
0000
0000
,
0000
0000
0000
0000
,
1000
0000
0000
0000
,
0001
0000
0000
0000
,
0100
0000
0000
0000
,
0010
0000
0000
0000
,
1000
0000
0000
0000
,
0100
0000
0000
0000
,
1000
0000
0000
0000
,
0001
0000
0000
0000
,
0200
0000
0000
0000
,
0000
0000
0300
0000
,
0010
0000
0000
0000
,
1000
0000
0000
0000
,
0100
0000
1000
0000
,
0001
0001
0001
0000
,
0100
0000
0000
0000
,
0010
0000
0000
0000
,
1000
0000
0001
0000
,
0100
0000
0000
0000
,
0020
0000
0000
0000
,
0000
0000
0000
0030
,
1000
0000
0001
0000
,
1000
1000
1000
0000
,
0100
0000
1000
0000
,
0010
0010
0010
0000
,
0100
0000
0001
0000
,
1000
0001
1000
0000
,
0010
0000
0000
0000
,
0000
0000
0000
0000
,
1000
1000
1000
1000
,
1000
1000
1000
0000
,
0001
0001
0001
0001
,
0000
0000
0000
0000
,
0100
0100
0100
0100
,
0100
0100
0100
0000
,
0010
0010
0010
0010
,
0020
0000
0000
0000
,
0030
0000
0000
0000
;

//---------------dance-single - ----------------
#NOTES:
     dance-single:
     :
     Easy:
     8:
     0.427,0.738,0.359,0.179,0.000:
0000
0000
0000
0000
,
0000
0000
0000
0000
,
0000
0000
0000
0000
,
0000
0000
0000
0000
,
0010
0000
2000
0000
,
0001
0001
0001
3001
,
0010
0000
0002
0000
,
1000
1000
1000
1003
,
0100
0000
0020
0000
,
0100
0100
0100
0130
,
0010
0000
0200
0000
,
0010
0010
0010
0310
,
1000
0100
2000
0000
,
0001
0010
0010
3010
,
0001
0100
0002
0000
,
1000
0010
0010
0013
,
1000
0100
0020
0000
,
0100
1000
1000
1030
,
0001
0100
0020
0000
,
1030
0100
0010
0001
,
1001
0000
0000
0101
0000
0000
1100
0000
,
0001
0010
0100
1000
,
1001
0000
0000
1100
0000
0000
0101
0000
,
1000
0010
0100
0001
,
1001
0000
0000
0011
0000
0000
1001
0000
,
0010
1000
0100
1000
,
0110
0000
0000
0101
0000
0000
0110
0000
,
0010
1000
0001
0100
,
0001
0000
0000
0011
0000
0000
1001
0000
,
0001
0100
0010
1010
,
0001
0000
0000
1100
0000
0000
0101
0000
,
1000
0010
0200
0301
,
1100
0000
0000
1000
0000
1000
0000
0000
,
1000
0100
0010
0001
,
0100
0100
0010
0010
,
1000
0001
0100
0010
,
1000
0000
0000
0000
0100
0000
0100
0100
,
0000
0100
0000
0000
0010
0000
1001
0000
,
0001
0000
0000
0000
0100
0000
0100
0100
,
0000
0100
0000
0000
0010
0000
0110
0000
,
1000
0000
0000
0000
0010
0000
0010
0010
,
0000
0010
0000
0000
1000
0000
1001
0000
,
0001
0000
0000
0000
0010
0000
0010
0010
,
0000
0010
0000
0000
0001
0000
0100
0000
,
0010
0010
0000
0010
0010
0000
1000
1000
,
0000
1000
1000
0000
0001
0000
0100
0000
,
0001
0001
0000
0001
0001
0000
1000
1000
,
0000
1000
1000
0000
0200
0000
0300
0000
,
1000
0000
1100
0000
,
0010
0000
0011
0000
,
1000
1000
0001
0001
,
0100
0010
1000
0000
,
0010
0000
0000
0000
,
0000
0000
0000
0000
,
0000
0000
0000
0000
,
0000
0000
0000
0000
,
0000
0000
0000
0000
,
0000
0000
0000
0000
,
0000
0000
0000
0000
,
0000
0000
0000
0000
,
1000
0001
0000
1000
,
0100
1000
0000
0001
,
0100
0001
0000
1000
,
0010
1000
0000
0001
,
0010
0001
0000
1000
,
0001
0100
0000
0001
,
1000
0010
0100
0000
,
0001
0010
0100
0000
,
2001
0000
0000
0000
,
0010
0010
3010
0000
,
1000
0100
0010
0100
,
1000
0010
0100
0010
,
1000
0100
0010
0001
,
0100
0100
0010
0010
,
1000
0010
0100
0001
,
0010
0100
1000
0100
,
0010
0001
1000
0001
,
0100
0100
0010
0100
,
0002
0010
0000
0010
,
0000
0010
0000
1003
,
0100
1000
0010
0100
,
0001
1000
0200
0300
,
1000
0010
0100
0001
,
2000
3000
0002
0003
,
1000
0010
0100
0001
,
0020
0030
0200
0300
,
0010
0000
0000
0000
,
0000
0000
0000
0000
,
1001
0101
0101
0101
,
1100
1010
1002
0013
,
1001
1001
1001
1001
,
0100
0100
0010
0100
,
0110
0110
0010
0100
,
0101
0101
0022
0033
,
1001
0000
1001
0000
1000
0001
1000
0000
,
0010
0100
0010
0100
0020
0000
0000
0000
,
0130
0000
0000
0000
;

//---------------dance-single - ----------------
#NOTES:
     dance-single:
     :
     Medium:
     12:
     0.539,0.697,0.231,0.128,0.026:
0000
0000
0000
0000
,
0000
0000
0000
0000
,
0000
0000
0000
0000
,
0000
0000
0000
0000
,
1000
0001
0010
0200
0000
0000
0000
0000
,
0000
0000
0320
0032
,
1003
0001
0100
0002
0000
0000
0000
0000
,
0000
0000
0000
0000
1003
0100
0010
0100
,
1000
0000
0100
0000
,
0010
0000
0001
1001
,
0001
0000
0100
0000
,
0010
0000
1000
0000
,
0001
0100
0000
0001
0000
0010
0000
0011
,
0000
1100
0000
0000
0200
0000
2300
0000
,
3010
0000
1000
0002
0000
0000
0013
0000
,
0100
0000
0010
0000
0001
1000
0100
0000
,
0010
0100
1000
0002
0000
0000
0103
0000
,
0001
0010
0100
0010
,
0001
0100
0010
0000
0010
1000
0100
0000
,
0100
1000
0010
0000
0010
0100
0001
0000
,
1000
0100
0010
0100
1000
0010
0100
0001
,
0010
0010
0010
0000
,
0100
0010
0001
0100
0010
0100
0001
1000
,
0100
0010
0100
1000
0001
0000
0000
0000
,
1000
0010
1000
0001
0010
0001
1000
0100
,
0010
0001
1000
0000
0001
0000
0000
0000
,
1000
0010
1000
0000
0010
0100
0010
0000
,
0100
0001
0100
0000
0001
0010
0001
0000
,
0010
0001
1000
0100
1000
0010
0100
0001
,
1000
1000
1000
0000
,
0100
1000
0010
0100
0001
0010
0100
0010
,
0001
1000
0010
1000
0100
0000
0000
0000
,
1000
0001
0000
0100
0000
0010
0000
1000
,
0100
0100
0010
0000
1001
0000
0000
0000
,
0001
0100
0010
0000
0010
1000
0100
0000
,
0100
1000
0001
0000
0001
1000
0010
0000
,
1000
0010
0000
0100
0001
0010
0100
0010
,
0000
0100
1000
0000
0100
0010
0001
0000
,
1000
0001
0000
0010
0001
0100
0010
1000
,
0000
0010
0100
0000
0002
0000
2003
0000
,
3100
1000
0000
0100
1000
0010
0100
0001
,
0000
0010
0100
0000
0010
0001
0100
0000
,
0010
1000
0000
0010
0100
0001
0010
0100
,
0000
0010
0001
0000
0000
0000
0000
0000
,
1010
0000
0000
0101
0000
0000
0011
0000
,
0000
1100
0000
0000
1000
0001
1001
0000
,
0101
0000
0000
0011
0000
0000
1001
0000
,
0000
1100
0000
0000
1000
0000
0100
0000
,
0010
0000
0000
0010
0000
0000
0001
0000
0100
0000
0000
0100
0000
0000
0010
0000
,
1000
0000
0000
1000
0000
0000
0001
0000
1000
0000
0010
0000
0110
0000
0000
0000
,
0100
0100
0100
0100
,
1000
0100
0001
0010
0100
1000
0001
1000
,
0010
0000
0000
0000
,
0000
0000
0000
0000
,
0000
0000
0000
0000
,
0000
0000
0000
0000
,
0000
0000
0000
0000
,
0000
0000
0000
0000
,
0000
0000
0000
0000
,
0000
0000
0000
0000
,
1000
0000
0011
0000
0000
0010
0100
0000
,
0010
0000
1001
0000
0000
1000
0010
0000
,
0100
0000
0101
0000
0000
1000
0010
0000
,
1000
0000
1100
0000
0000
0001
0010
0000
,
0100
0000
1001
0000
0000
0001
0010
0000
,
0100
0000
1100
0000
0000
1000
0010
0000
,
0100
0000
0101
0000
0000
0001
0010
0000
,
0100
0000
0110
0000
0000
0100
1000
0000
,
0100
0010
0001
1000
0100
0010
0100
1000
,
0001
0010
0100
1000
0001
0000
0000
0000
,
0100
0010
0000
1000
0000
0001
0000
0010
,
0000
0100
0000
0010
0000
0001
0100
0010
,
0000
0100
0010
1000
0000
0001
1000
0100
,
0000
1000
0010
0100
0001
0000
0010
0000
,
0100
0010
0001
0100
0000
0010
1000
0001
,
1000
0000
0100
0000
0010
0001
0010
0000
,
0001
0100
0010
1000
,
0100
0000
0000
0100
0000
0000
0010
0000
0000
0001
0000
0000
1000
0000
0000
0000
,
0020
0000
0000
0000
,
0000
0000
0000
0000
0000
0130
0001
0010
,
0001
1000
0000
0100
0000
1000
0000
0010
,
0000
0100
0001
0020
0000
0000
0000
0000
,
0030
0100
0010
0100
,
1000
0000
0001
0200
0000
0000
0000
0000
,
0310
0000
1000
0001
0000
0011
0000
1100
,
0000
0100
1000
0002
0000
0000
0000
0000
,
0003
0000
0000
0000
,
0000
0000
0000
0000
,
1000
1000
0001
0001
0100
0100
0010
0010
,
0110
0110
0110
0000
,
0010
0010
1000
1000
0001
0001
0100
0100
,
0001
0010
0001
0010
1000
0010
0001
0010
,
0100
0100
1000
1000
0001
0001
0100
0100
,
0100
0000
0001
0000
0010
0000
0000
0000
0100
0000
0000
0100
0000
0000
0100
0000
,
0010
0001
0100
1000
0100
0010
1000
0001
,
2000
0000
0000
0000
,
3100
0000
0000
0000
;

//---------------dance-single - ----------------
#NOTES:
     dance-single:
     :
     Hard:
     16:
     0.749,1.000,0.495,0.051,0.273:
0000
0000
0000
0000
,
0000
0000
0000
0000
,
0000
0000
0000
0000
,
0000
0000
0000
0000
,
1000
0100
0010
0200
0000
0000
0010
0000
,
0010
0010
0310
0001
,
0010
0100
1000
0020
0000
0000
0100
0000
,
0100
0130
0001
1100
,
1001
0000
1000
0000
,
1000
0000
1000
0101
,
1000
0000
1000
0000
,
1000
0000
1000
0000
,
0001
0100
0000
0010
0000
1000
0000
0100
,
0000
0010
0000
0100
1000
0000
0001
0000
,
1000
0010
1000
0200
0000
0000
0310
0000
,
0100
1000
0001
0100
,
0001
1000
0100
0010
0000
0100
1000
0001
,
0000
1000
0010
0000
0100
0000
0001
0000
,
1000
1000
0001
1000
0001
0001
1000
0001
,
0100
0100
0010
0100
0010
0010
0100
0001
,
0101
0001
0010
1100
0100
0100
0010
0001
,
1001
0000
0110
0000
1001
0000
0000
0001
,
0101
0001
0100
1010
0010
0010
0100
0001
,
1000
0010
0100
0001
1000
0000
0000
1000
,
1100
0100
0010
0011
0001
0001
0100
0010
,
0010
0100
0001
0000
1100
0000
0000
0100
,
0010
0001
0010
0001
1000
0100
1000
0100
,
1000
0010
1000
0010
0100
0000
0000
0000
,
1001
0001
0010
0110
0100
0100
0010
0001
,
1001
0000
0110
0000
1001
0000
0000
0001
,
0011
0001
0100
0110
0010
0010
0100
0010
,
1000
0001
0010
0001
1000
0000
0000
0000
,
0001
1001
0000
0110
0000
1001
0000
1001
,
0001
0000
0001
0000
1000
0001
1000
0000
0001
0000
0100
0000
0100
0000
0010
0000
,
1000
1000
0010
0100
0001
0001
0010
0100
,
1000
1000
0100
0010
0100
0100
0010
0001
,
1000
0100
0000
1000
0010
0100
0001
1000
,
0000
0010
0100
0000
0001
0001
1001
0000
,
0001
0010
0000
0100
0010
0001
0010
0100
,
0000
0010
0001
0000
0000
0000
0000
0000
,
1000
0001
0000
1000
0001
0100
0010
1000
,
0000
0100
0010
0000
0001
0001
0101
0000
,
0100
0001
0000
0100
0001
0100
0010
1000
,
0000
0100
0010
0000
0000
0000
0000
0000
,
0001
1000
0001
1000
0001
0000
1000
0001
1000
0001
1000
0000
0001
1000
0001
1000
,
0001
0000
1000
0001
1000
0001
1000
0000
0001
1000
0001
1000
0010
0000
0000
0000
,
0100
0010
0100
0010
0100
0000
0010
0100
0010
0100
0010
0000
0100
0010
0100
0010
,
0100
0000
0010
0100
0010
0100
0001
0000
0000
0000
0000
0000
0000
0000
0000
0000
,
1000
0000
0000
0100
0000
0000
0010
0001
0100
0000
0000
0010
0000
0000
0100
0001
,
1000
0000
0000
0001
0000
0000
1000
0000
0100
0010
0001
0000
1001
0000
0000
0000
,
0001
1000
0010
0000
0100
0010
1000
0000
0001
0010
0100
0000
0010
0001
1000
0000
,
0010
0000
0100
0010
0000
0100
0001
0000
0100
0010
0000
0100
0001
0100
0010
0100
,
0001
0000
0000
0000
,
0000
0000
0000
0000
,
0000
0000
0000
0000
,
0000
0000
0000
0000
,
0000
0000
0000
0000
,
0000
0000
0000
0000
,
0000
0000
0000
0000
,
0000
0000
0000
0000
,
1000
0000
0100
0000
0000
1000
0000
0000
0010
0000
0000
0100
0000
0000
0101
0000
,
0000
0000
0001
0000
0000
0010
0000
0000
0001
0000
0000
0100
0000
0000
0110
0000
,
0000
0000
0100
0000
0000
0010
0000
0000
1000
0000
0000
0001
0000
0000
1100
0000
,
0000
0000
0100
0000
0000
1000
0000
0000
0010
0000
0000
0100
0000
0000
0101
0000
,
0000
0000
0001
0000
0000
1000
0000
0000
0100
0000
0000
0010
0000
0000
1100
0000
,
0000
0000
0010
0000
0000
0001
0000
0000
0100
0000
0000
0010
0000
0000
0101
0000
,
0000
0000
0100
0000
0000
0010
0000
0000
1000
0000
0000
0100
0000
0000
0011
0000
,
0000
0000
0001
0000
0000
0010
0000
0000
0001
0000
0000
1000
0000
0000
1001
0000
,
1000
0100
0001
0010
0100
1000
0001
1000
,
0001
0100
1000
0010
0001
0000
0000
0000
,
1000
0010
1000
0100
0010
0100
1000
0001
,
0100
0001
0010
0100
0010
0001
0100
0010
,
1000
0001
0010
0100
0010
0001
0100
0010
,
1000
0010
0100
0001
0010
0001
0010
0100
,
1000
0100
1000
0010
1000
0001
0010
0100
,
1000
0100
0010
0100
1000
0010
0100
0001
,
0010
0100
0010
0001
0100
0010
1000
0100
,
0010
0000
0001
0010
0000
0010
0100
0000
0100
1000
0000
1000
0001
0100
0001
0000
,
1000
0001
0010
0100
0010
0001
0100
0010
,
1000
0010
0100
0001
0010
0100
0010
0001
,
1000
0100
1000
0010
0100
0010
0100
0001
,
0010
0100
0010
0001
1001
0000
0200
0000
,
0310
1000
0010
0100
0001
0010
0100
0010
,
0001
0100
0010
1000
0001
0010
0100
0010
,
0001
0100
0010
1000
0100
0010
0100
1000
,
0001
1000
0001
0020
0000
0000
0000
0000
,
0130
0000
0000
0000
,
0000
0000
0000
0000
,
1001
0001
1001
1000
1001
0001
0101
0100
,
0110
0010
1010
1000
1100
0000
0000
0000
,
1100
0100
0110
0010
0011
0001
0101
0100
,
0010
0000
0100
0010
0000
0000
0100
0010
0100
0000
0100
0000
0100
0000
0100
0000
,
0101
0001
0011
0010
0110
0100
1100
1000
,
1001
0001
1001
0000
0110
0000
0000
0000
,
1010
0010
0110
0100
0101
0001
0011
0010
,
0100
1000
0100
1000
0100
0010
0001
0010
0100
0010
0001
0100
0020
0000
0000
0000
,
0130
0000
0000
0000
;

//---------------dance-single - ----------------
#NOTES:
     dance-single:
     :
     Challenge:
     18:
     1.000,1.000,0.649,0.179,0.807: // measure 1
0000
0000
0000
0000
,  // measure 2
0000
0000
0000
0000
,  // measure 3
0000
0000
0000
0000
,  // measure 4
0000
0000
0000
0000
,  // measure 5
0001
0010
0100
2000
0000
0000
0000
3010
,  // measure 6
1000
0001
0100
0010
1000
0001
0100
0010
,  // measure 7
1000
0100
0010
0002
0000
0000
0000
1003
,  // measure 8
0001
1000
0010
0100
0001
1000
0010
0100
,  // measure 9
0001
0010
0100
2000
0010
0000
0000
3100
,  // measure 10
1000
0010
0100
0001
1000
0010
0100
0001
,  // measure 11
1000
0100
0010
0002
0000
0000
0000
0013
,  // measure 12
0001
0100
0010
1000
0001
0100
0010
0010
,  // measure 13
1000
0100
1000
0002
0100
0000
1003
0001
,  // measure 14
0100
0010
1000
0100
0010
0100
1000
0010
,  // measure 15
0100
0001
1000
0020
1000
0000
0130
0010
,  // measure 16
1000
0001
0010
0100
0010
0001
0100
0010
,  // measure 17
1000
0001
0010
0002
0010
0000
1003
0001
,  // measure 18
0100
0001
1000
0100
0010
0001
1000
0010
,  // measure 19
0100
0000
0100
0000
0100
0000
0100
0010
1000
0000
1000
0000
1000
0000
1000
0001
,  // measure 20
0010
0000
0001
0100
0001
0000
1000
0010
1000
0000
0001
0000
1000
0100
1000
0100
,  // measure 21
0010
0000
0100
1000
0100
0000
1000
0000
0001
0000
0100
0001
0100
0000
0001
0000
,  // measure 22
0010
0000
0001
0000
0100
0000
0010
0000
1000
0000
0001
0000
0100
0000
0001
0010
,  // measure 23
0001
0000
0100
0001
0100
0000
0001
0000
1000
0000
0100
1000
0100
0000
1000
0000
,  // measure 24
0001
0000
0010
0001
0010
0000
0001
0000
1000
0000
0010
0100
0001
0000
0100
0000
,  // measure 25
0010
0000
1000
0100
0010
0000
0100
0000
1000
0000
0001
0100
0010
0000
0100
0000
,  // measure 26
0001
0000
1000
0001
0100
0000
0001
0000
1000
0000
0001
0000
0010
0001
0010
0001
,  // measure 27
0100
0000
0010
0100
0001
0000
0100
0000
0010
0000
1000
0100
0010
0000
0100
0000
,  // measure 28
1000
0000
0001
1000
0100
0000
0010
0000
0100
0000
1000
0000
0010
1000
0001
1000
,  // measure 29
0010
0000
1000
0001
0100
0000
0001
0000
1000
0000
0001
1000
0010
0000
0100
0000
,  // measure 30
0010
0000
1000
0100
0010
0000
0001
0000
1001
0000
0001
0100
0010
0000
1000
0000
,  // measure 31
1010
0000
1000
0001
0100
0000
0001
0000
1000
0000
0001
1000
0010
0000
0100
0000
,  // measure 32
0001
0101
1100
0010
1001
0010
0200
0001
,  // measure 33
0310
0110
0100
0110
0100
0101
0001
1001
,  // measure 34
1100
0000
1100
0000
0100
0000
0100
0010
0001
0000
0011
0000
0001
0000
1001
0000
,  // measure 35
0100
0000
0100
0000
0100
0000
0100
0010
1000
0000
1000
0000
1000
0000
1000
0010
,  // measure 36
0100
0000
0001
1000
0100
0000
1000
0001
0100
0000
0010
0000
0100
0001
0010
0001
,  // measure 37
1000
1100
0100
1000
1100
1100
1001
1001
,  // measure 38
1000
1100
1001
1000
0010
0110
0102
0000
,  // measure 39
0103
0101
0001
1000
0101
0101
1001
1001
,  // measure 40
0001
0000
0101
0000
1001
0000
1000
0000
0001
0010
0100
1000
0001
0000
0100
0000
,  // measure 41
0010
0110
0010
0001
0110
0110
0101
0101
,  // measure 42
0001
0000
1001
0000
1001
0000
1000
0000
0010
1000
0001
0100
0020
0000
0000
0000
,  // measure 43
1030
1010
1000
0010
1010
1010
1001
1001
,  // measure 44
0100
0000
0011
0000
0011
0000
1000
0000
0001
1000
0100
1000
0001
0000
1000
0000
,  // measure 45
0010
1000
0010
1000
0010
0000
0100
0001
0100
0001
0100
0000
0001
0010
0001
0010
,  // measure 46
0001
0000
1000
0100
1000
0100
1000
0000
0001
1000
0010
0100
0002
0000
0000
0000
,  // measure 47
1003
0100
0010
0100
1000
0000
0001
0100
0010
0100
0001
0000
1000
0010
0100
0010
,  // measure 48
1000
0000
0001
0010
0100
0010
0001
0000
1000
0001
1000
0001
0100
0001
1000
0001
,  // measure 49
1000
0000
0000
1100
0000
0000
0100
1000
0010
0000
0000
1010
0000
0000
0100
0001
,  // measure 50
0010
0000
0000
0011
0000
0000
0001
1000
0100
0000
1100
0000
0020
0000
0000
0000
,  // measure 51
0031
0100
0001
0000
1000
0100
1000
0000
0001
0100
0010
0000
1000
0100
0010
0000
,  // measure 52
0001
0000
1000
0010
1000
0000
0001
0000
0010
0001
0010
0000
0001
0100
0010
1000
,  // measure 53
0002
0000
0000
0000
,  // measure 54
0000
0000
0000
0000
0000
1003
0010
1000
,  // measure 55
0001
0100
0000
0001
0000
0010
0000
0200
,  // measure 56
0000
1300
0001
0020
0000
0000
0000
0000
,  // measure 57
0031
0010
0001
0100
,  // measure 58
0020
0000
1030
0002
0000
0000
0000
1003
,  // measure 59
0020
0000
1030
0001
0000
1000
0000
0200
,  // measure 60
0000
0000
0310
0000
0100
0000
1000
0000
0010
0100
0010
0100
0010
0000
0100
0000
,  // measure 61
1010
0000
0001
0000
1000
0100
0010
0000
,  // measure 62
0110
0000
0001
0000
0100
0010
1000
0000
,  // measure 63
0010
0000
0100
0000
0001
0010
0000
0001
1000
0000
0001
0100
0000
0001
0100
0000
,  // measure 64
0010
0000
1000
0000
0100
0010
0000
0100
1000
0000
0001
1000
0000
0001
1000
0000
,  // measure 65
0110
0000
1000
0000
0001
1000
0100
0000
,  // measure 66
0110
0000
0001
0000
1000
0001
0010
0000
,  // measure 67
0001
0000
0100
0000
0010
1000
0000
0001
1000
0000
0001
0010
0000
0001
1000
0000
,  // measure 68
0010
0100
0010
0000
0000
0000
0100
0000
0000
0000
0001
0000
0000
0000
1000
0000
,  // measure 69
0001
0000
1000
0100
1000
0000
0001
0010
0001
0000
1000
0010
1000
0000
0001
0000
,  // measure 70
1000
0100
0010
0000
0001
0100
0010
0000
1000
0100
0010
0001
1000
0000
0001
0000
,  // measure 71
1001
0000
0001
0000
0100
0001
0000
0010
0001
0000
1000
0001
0000
1000
0100
1000
,  // measure 72
0010
0000
0100
0000
0010
1000
0000
0010
0100
0000
0010
1000
0000
0001
0010
0100
,  // measure 73
0010
0000
0001
0000
1000
0100
0000
1000
0010
0000
1000
0001
0000
0100
0010
1000
,  // measure 74
0010
0100
0010
0000
0100
0001
1000
0000
0001
0010
0001
0010
0100
1000
0100
1000
,  // measure 75
0010
0000
0100
0000
0001
1000
0000
0010
0100
0000
0010
1000
0000
0001
0100
0001
,  // measure 76
0010
0000
0001
0000
1000
0100
0000
1000
0010
0000
0100
0010
0000
1000
0001
0100
,  // measure 77
0010
0000
0100
0000
0001
1000
0000
0010
0100
0000
0010
1000
0000
0010
0100
0000
,  // measure 78
0010
0000
1000
0010
0000
0010
0100
0000
0001
0010
0000
0010
0100
1000
0001
0100
,  // measure 79
0010
0000
1000
0000
0001
0000
0100
0001
1000
0001
0100
0000
0001
0000
1000
0001
,  // measure 80
0100
0000
0001
0000
1000
0000
0010
1000
0001
1000
0010
0000
1000
0000
0001
0010
,  // measure 81
0100
0000
0010
0000
0001
0000
1000
0100
1000
0001
1000
0000
0001
0000
0100
0001
,  // measure 82
1000
0000
0010
0000
0100
0000
0010
1000
0001
0000
1000
0000
0001
0010
0100
1000
,  // measure 83
0001
0000
0100
0000
0010
0100
0000
0001
0100
0000
0010
1000
0000
0001
0010
0100
,  // measure 84
0010
0000
0001
0000
1000
0100
0000
0010
0100
1000
0100
0000
1000
0000
0001
0100
,  // measure 85
0010
0000
1000
0000
0001
0000
1000
0100
0010
0000
0001
0000
1000
0000
0010
0100
,  // measure 86
0001
0100
0001
0000
1000
0100
1000
0000
0001
0010
0001
0010
0100
1000
0100
1000
,  // measure 87
0010
0000
0000
0010
0000
0000
0200
0000
0000
0000
0000
0000
0000
0000
0301
1000
,  // measure 88
0001
0000
1000
1000
0010
0100
1001
0001
,  // measure 89
0011
0001
0011
0001
1001
0001
1001
0001
,  // measure 90
0101
0000
0101
0000
0101
0000
0000
0000
2100
0000
0000
0000
3010
0000
0100
0001
,  // measure 91
1000
0100
1100
0100
1100
1100
1100
1100
,  // measure 92
0010
0000
0100
1000
0010
0000
0100
0001
0010
0000
0110
0000
0011
0000
0011
0000
,  // measure 93
1001
0000
0001
0000
1001
0000
1000
0000
0001
0000
1000
0001
0100
0000
0001
0000
,  // measure 94
0101
0000
0001
0100
0010
0000
1000
0010
0100
0000
0000
0110
0000
0000
0101
0000
,  // measure 95
0011
0000
0001
1000
0010
0000
1000
0000
1001
0000
1000
0001
0010
0000
0001
0000
,  // measure 96
1000
0100
1000
0100
0010
0001
0010
0001
1000
0010
1000
0010
0100
0001
1000
0001
,  // measure 97
0010
0000
0000
0000
;
