#TITLE:Smells Like Teen Spirit;
#SUBTITLE:;
#ARTIST:Nirvana;
#TITLETRANSLIT:;
#SUBTITLETRANSLIT:;
#ARTISTTRANSLIT:;
#GENRE:;
#CREDIT:;
#MENUCOLOR:;
#METERTYPE:DDR;
#BANNER:Smells Like Teen Spirit.png;
#BACKGROUND:Smells Like Teen Spirit-bg.png;
#LYRICSPATH:;
#CDTITLE:;
#MUSIC:Smells Like Teen Spirit.ogg;
#OFFSET:0.000;
#SAMPLESTART:58.887;
#SAMPLELENGTH:15.000;
#SELECTABLE:YES;
#LISTSORT:;
#DISPLAYBPM:117.000;
#BPMS:0.000=117.000,16.000=116.000,20.000=117.000,24.000=119.000,28.000=121.000,32.000=117.000,40.000=116.500,44.000=116.000,46.000=115.000,56.000=115.500,76.000=116.000,83.000=115.000,84.000=116.000,91.000=117.000,106.000=118.000,124.000=117.000,130.000=118.000,166.000=116.000,178.000=122.000,180.000=120.000,186.000=118.000,192.000=119.000,200.000=120.000,204.000=118.000,208.000=119.000,216.000=118.000;
#STOPS:;
#BGCHANGES:0.000=Smells Like Teen Spirit.avi=1.000=0=0=0,
99999=-nosongbg-=1.000=0=0=0 // don't automatically add -songbackground-
;
#ATTACKS:;

//---------------dance-single - ----------------
#NOTES:
     dance-single:
     :
     Beginner:
     2:
     0.122,0.158,0.007,0.000,0.000:
0000
0000
0000
0000
,
0000
0000
0000
0000
,
0000
0000
0000
0000
,
0000
0000
0000
0000
,
1000
0000
0000
0000
,
0001
0000
0001
0000
,
0001
0000
0000
0000
,
1000
0000
1000
0000
,
1000
0000
0000
0000
,
0000
0010
0000
0010
,
0010
0000
0010
0000
,
0000
0100
0000
0100
,
0100
0000
0100
0000
,
0000
0001
0000
0001
,
0001
0000
0001
0000
,
0000
1000
0000
1000
,
1000
0000
0001
0000
,
0000
1000
1000
0000
,
1000
0000
1000
0000
,
0000
0001
0001
0000
,
0001
0000
0001
0000
,
0100
0000
0100
0000
,
0100
0000
0100
0000
,
0010
0000
0010
0000
,
0010
0000
0010
0000
,
1000
0000
1000
0000
,
1000
0000
1000
0000
,
0001
0000
0001
0000
,
0001
0001
0001
0000
,
1001
0000
0000
1000
,
1000
0000
0000
0001
,
0001
0000
0000
0010
,
0010
0000
0000
0000
,
0100
0000
0000
1000
,
1000
0000
0000
0000
,
0010
0000
0000
0100
,
0100
0000
0000
0001
,
0001
0000
0001
0000
,
1000
0000
1000
0000
,
0010
0000
0010
0000
,
0100
0000
0100
0000
,
0001
0001
0001
0000
,
1000
1000
1000
0000
,
0010
0010
0010
0000
,
0100
0100
0100
0000
,
0000
0001
0000
0001
,
0000
1000
0000
1000
,
0000
0010
0000
0010
,
0000
0100
0000
0100
,
0000
0001
0000
0001
,
0000
1000
0000
1000
,
0000
0100
0000
0100
,
0000
0010
0000
0010
,
0010
0000
0001
0000
,
0010
0000
1000
0000
,
0010
0000
0001
0000
,
0010
0000
0100
0000
,
0010
0000
0001
0000
,
0100
0000
0010
0000
,
0100
0000
0010
0000
,
1000
0000
0100
0000
,
0010
0000
0000
0000
;

//---------------dance-single - ----------------
#NOTES:
     dance-single:
     :
     Easy:
     5:
     0.233,0.275,0.059,0.207,0.000:
0000
0000
0000
0000
,
0000
0000
0000
0000
,
0000
0000
0000
0000
,
0000
0000
0000
0000
,
1000
1000
1000
1000
,
0001
0010
0100
0100
,
1000
0010
1000
1000
,
0001
0100
0010
0010
,
1000
0100
0010
0010
,
0001
0100
0020
0000
,
1000
0000
0130
0000
,
1000
0100
0020
0000
,
0001
0000
0130
0000
,
0010
0001
2000
0000
,
0010
0000
3001
0000
,
0010
1000
0002
0000
,
0010
0000
1003
0000
,
0001
1000
0200
0000
,
0010
0000
1300
0000
,
0010
1000
0002
0000
,
0100
0000
0013
0000
,
0001
0200
0000
0001
,
0000
0001
0000
0310
,
1000
0200
0000
1000
,
0000
1000
0000
0310
,
1000
0100
0010
0010
,
0001
0100
0010
0010
,
1000
0001
0010
0010
,
0001
1000
0001
0110
,
2000
3100
0010
0010
,
0002
0103
0010
1000
,
0002
0103
0010
0010
,
2000
3100
0010
0001
,
2000
3010
1000
0100
,
2000
3001
0100
0010
,
0200
0301
0010
0100
,
0020
0031
1000
0001
,
1000
1100
1000
0001
,
0100
0101
0001
1000
,
0010
1010
1000
0001
,
0010
0011
0001
1000
,
0001
0100
1000
0120
,
1030
0100
0010
0001
,
1000
0100
0001
0120
,
1030
0010
0100
0001
,
1000
0010
0000
0010
,
1000
0001
0000
0001
,
0010
0100
0000
0100
,
0010
0001
0000
0001
,
1000
0020
0000
1030
,
0001
0020
0000
0031
,
1000
0200
0000
1300
,
0001
0200
0000
0301
,
1000
0200
0000
0001
,
0000
0010
0000
1300
,
0001
0200
0000
1000
,
0000
0010
0000
0301
,
1000
0020
0000
0001
,
0000
0100
0000
1030
,
0001
0020
0000
1000
,
0000
0100
0000
0031
,
2002
0000
0000
0000
,
3003
0000
0000
0000
;

//---------------dance-single - ----------------
#NOTES:
     dance-single:
     :
     Medium:
     8:
     0.401,0.435,0.207,0.369,0.000:
0000
0000
0000
0000
,
0000
0000
0000
0000
,
0000
0000
0000
0000
,
0000
0000
0000
0000
,
1000
0100
1000
0110
,
0002
0000
0103
0000
0001
1000
0001
0000
,
2000
0000
3100
0000
1000
0001
0010
0000
,
0002
0000
0103
0000
0010
0100
0010
0000
,
2000
0000
3100
0000
0010
0001
1000
0001
,
1000
0000
0100
0010
0002
0000
0100
0000
,
1000
0000
0100
0000
0013
0100
1000
0000
,
0001
0000
1000
0001
0200
0000
0010
0000
,
1000
0000
0001
0000
0310
0100
0001
0000
,
1000
0100
1000
0000
0001
0000
0100
0000
,
0001
0010
0001
0000
1000
0000
0100
0000
,
1000
0010
1000
0000
0001
0000
0010
0000
,
0001
1000
0001
0000
0100
0000
0010
0000
,
1000
0100
0010
0000
0001
0000
0100
0000
,
0001
0100
0010
0000
1000
0000
0001
0000
,
0010
0001
1000
0000
0001
0000
1000
0000
,
0100
0010
0001
0000
1000
0000
0110
0000
,
0010
1000
0200
0000
0310
0001
0200
0000
,
0310
1000
0200
0000
0310
0001
1000
0000
,
0001
0010
0200
0000
0310
0001
0200
0000
,
0310
1000
0200
0000
1300
0010
0100
0000
,
0010
1000
0002
0000
0013
0001
2000
0000
,
3010
1000
0002
0000
0103
0001
1000
0000
,
0100
0010
0002
0000
0103
0010
2000
0000
,
3010
0100
0010
0100
0010
0000
1001
0000
,
2100
0000
3001
0000
1000
0100
0010
0000
,
0002
0000
0103
0000
0010
1000
0001
0000
,
0200
0000
0310
0000
1000
0001
0100
0000
,
0020
0000
0130
0000
0001
1000
0010
0000
,
2000
0000
3100
0000
1000
0001
0010
0000
,
0002
0000
0103
0000
0010
1000
0001
0000
,
0200
0000
0310
0000
0100
0010
1000
0000
,
0020
0000
0130
0000
0010
0100
0001
0000
,
2000
0000
3100
0000
0010
0100
1000
0100
,
0020
0000
0031
0000
0100
0001
1000
0010
,
2000
0000
3010
0000
1000
0100
0001
0100
,
0020
0000
0031
0100
0010
0000
1001
0000
,
1100
0101
1100
0020
,
1030
0010
1000
0110
,
0011
1010
0011
0200
,
0301
0000
1001
0000
1000
0100
1000
0001
,
1000
0000
0010
2000
0000
3010
0000
0200
,
0000
0000
0301
0020
0000
0031
1000
0002
,
0000
0000
0103
0020
0000
2030
0000
3200
,
0000
0000
1300
0002
0000
0103
0010
2000
,
0000
0000
3010
0200
0000
0302
0000
0023
,
0000
0000
0031
2000
0000
3010
1000
0002
,
0000
0000
1003
0200
0000
0302
0000
0203
,
0000
0000
1300
0020
0000
0031
0010
1000
,
0001
0000
1001
0000
1000
0100
1000
0010
,
1010
0000
1001
0000
0001
0100
0001
0010
,
0011
0000
1001
0000
0100
0010
1000
0010
,
0110
0000
0101
0000
1000
0100
0010
0100
,
1100
0000
1001
0000
1000
0010
0100
0001
,
0011
0000
1001
0000
0001
0100
0010
1000
,
1010
0000
1100
0100
1000
0001
0100
0001
,
0011
0000
1001
0001
0100
0010
1000
0001
,
2000
0000
0000
0000
,
3000
0000
0000
0000
;

//---------------dance-single - ----------------
#NOTES:
     dance-single:
     :
     Hard:
     11:
     0.545,0.549,0.229,0.340,0.258:
0000
0000
0000
0000
,
0000
0000
0000
0000
,
0000
0000
0000
0000
,
0000
0000
0000
0000
,
0010
0100
0000
0100
0001
0100
0000
0100
0010
0000
1000
0000
0002
0000
0000
0000
,
1003
0000
0000
0000
1001
0000
0000
1000
0100
0000
1000
0000
0001
0000
0100
0000
,
0001
0000
0000
0000
0101
0000
0000
0001
0100
0000
0001
0000
0010
0000
0001
0000
,
0010
0000
0000
0000
0011
0000
0000
0001
0010
0000
0100
0000
1000
0000
0001
0000
,
0100
0000
0000
0000
0110
0000
0100
0000
0010
0000
1000
0001
1000
0001
1000
0000
,
0001
0010
0100
2000
0010
0000
3001
0000
,
1000
0100
0010
0002
0100
0000
1003
0000
,
0100
0010
1000
0020
0100
0000
0031
0000
,
0100
0001
1000
0200
0010
0000
1300
0000
,
0010
1000
0001
0200
0001
0000
0310
0000
,
1000
0010
0100
0001
1000
0100
1000
0000
,
0001
0010
0100
0020
0001
0000
1030
0000
,
0001
0100
0010
1000
0001
0010
0100
1000
,
0001
1000
0010
0200
0010
0000
1300
0000
,
0010
1000
0001
0100
0001
0010
0001
1000
,
0001
0100
0010
2000
0010
0000
3100
0000
,
1000
0100
0010
0001
1000
0010
0110
0000
,
0010
1000
2100
0000
3001
0100
0102
0000
,
0103
0001
0012
0000
1003
0010
0100
0001
,
1000
0100
1200
0000
0310
0100
0120
0000
,
0031
1000
2001
0000
3010
1000
0001
0100
,
0001
0010
0021
0001
0130
0100
2100
0100
,
3001
0001
0201
0010
0310
0100
0120
1000
,
1030
0001
1001
0100
1100
0100
1001
0100
,
0001
0100
0001
0000
1000
0100
1000
0000
0001
0010
0100
1000
0020
0000
0000
0000
,
0130
0000
0000
0000
0110
0000
0000
0010
1000
0010
1000
0000
0010
0000
1000
0000
,
0100
0000
0000
0000
0110
0000
0000
0010
0001
0010
0001
0000
1000
0000
0001
0000
,
0100
0000
0000
0000
0101
0000
0000
0001
0100
0001
0100
0000
0001
0000
1000
0000
,
0010
0000
0000
0000
1010
0000
0000
1000
0010
1000
0010
0000
1000
0000
0001
0000
,
0100
0000
0000
0001
0100
0000
0000
0001
1000
0001
1000
0000
0010
0000
1000
0000
,
0100
0000
0000
1000
0100
0000
0000
0010
0001
0010
0001
0000
1000
0000
0001
0000
,
0100
0000
0000
0010
1000
0000
0000
0001
0010
0001
0100
0000
0010
0000
1000
0000
,
0100
0000
0000
0010
0100
0000
0000
1000
0100
1000
0010
0000
1000
0000
0001
0000
,
0100
0000
0001
0000
0101
0000
0000
0001
1000
0001
0010
0000
0001
0000
1000
0000
,
0100
0000
1000
0000
1100
0000
0000
1000
0001
1000
0010
0000
1000
0000
0001
0000
,
0100
0000
0010
0000
1010
0000
0000
0010
0100
0010
1000
0000
0100
0000
0010
0000
,
0001
0000
0010
0000
0011
0000
0001
1000
0010
0000
0100
0000
1010
0000
0000
0000
,
1100
0000
0100
0000
1000
0000
0000
0100
0001
0000
0100
0000
2000
0000
0000
0000
,
3001
0000
0100
0000
0010
0000
0000
1000
0100
1000
0000
0001
0100
0000
0010
0000
,
0110
0000
0100
0000
0001
0000
0010
0001
0010
0000
0001
0000
2000
0000
0000
0000
,
3001
0000
0100
0000
0110
0000
0010
0000
1000
0000
0001
1000
0001
1000
0001
0000
,
0120
0000
1030
0200
0000
0301
0100
2000
,
0000
0000
3001
0020
0000
0031
0100
0020
,
0000
0000
1030
0200
0000
0302
0000
0203
,
0000
0000
1300
0002
0000
0103
0010
1000
,
0020
0000
0000
0130
0001
0000
0000
0100
0010
0000
0100
0000
0001
0000
1000
0000
,
0200
0000
0000
0310
0100
0000
0000
1000
0001
0000
0010
0000
0001
0000
0100
0000
,
0020
0000
0000
1030
0100
0000
0000
1000
0010
0000
0100
0000
0001
0000
0010
0000
,
0002
0000
0000
0103
0010
0000
0000
0100
0001
0000
1000
0000
0001
0000
0010
0000
,
0002
0100
1003
1000
0200
1000
0310
0010
,
2000
0100
3001
0001
0200
0010
1300
1000
,
0200
0010
0301
0001
0020
1000
1030
0100
,
2000
0010
3001
0001
0020
0100
1030
1000
,
0100
0000
0000
0010
0001
0000
0000
1000
0100
1000
0010
0000
1000
0000
0001
0000
,
0100
0000
0000
0010
1000
0000
0000
0001
0100
0001
0010
0000
0001
0000
1000
0000
,
0020
0000
0000
1030
0100
0000
0000
0010
0001
1000
0001
0000
0100
0000
0001
0000
,
0020
0000
0000
0031
0100
0000
0010
0100
0001
1000
0001
1000
0010
1000
0010
1000
,
0002
0000
0000
0000
,
0003
0000
0000
0000
;

//---------------dance-single - ----------------
#NOTES:
     dance-single:
     :
     Challenge:
     14:
     0.753,0.733,0.532,0.465,0.521:
0000
0000
0000
0000
,
0000
0000
0000
0000
,
0000
0000
0000
0000
,
0000
0000
0000
0000
,
1000
0000
0100
0000
0000
0000
0100
0000
0010
0000
0100
0000
0000
0000
0100
0000
0001
0000
0100
0000
0000
0000
0100
0000
1000
0001
0000
0000
0100
0000
0000
0000
,
0210
0000
0000
0301
0100
0000
0010
0100
0010
1000
0010
0000
1000
0000
0100
0000
,
2100
0000
0000
3001
0010
0000
0001
1000
0001
0100
0001
0000
1000
0000
0001
0000
,
1002
0000
0000
1003
0100
0000
1000
0010
1000
0001
1000
0000
0010
0000
0100
0000
,
0120
0000
0000
1030
0010
0000
0100
0010
0100
0000
0001
1000
0001
1000
0001
1000
,
0001
0010
0011
0002
0100
0010
1003
0100
,
1100
0100
1000
0010
0100
0010
1000
0001
,
1000
0010
0110
0020
1000
0100
0031
0100
,
0110
0010
1000
0001
0010
0001
1001
0001
,
0010
0100
0110
0200
1000
0010
0301
1000
,
0100
1000
1001
0001
0100
0001
0011
0001
,
1000
0001
0011
0020
0001
0100
1030
0001
,
0100
0001
0101
1000
0010
0100
0110
0010
,
1000
0100
1100
2000
0010
0100
3001
0100
,
0001
1000
1010
1000
0001
0010
0110
0010
,
0001
1000
1001
0002
0100
1000
0013
0100
,
0010
0001
0101
0010
0100
0110
0101
0000
,
1000
0100
2100
0001
3010
0100
0120
0001
,
0130
0001
2001
0010
3100
1000
1001
0010
,
0110
0001
0102
1000
0013
0100
0120
1000
,
0031
0100
0201
0010
1300
0001
0011
0001
,
1000
0100
1100
1000
0100
1100
1001
0001
,
0100
0001
0101
0001
0100
0101
1001
0001
,
0010
0001
0011
0001
0010
0011
1001
0001
,
1000
0000
0001
0000
0100
0000
0001
0000
1000
0000
0001
0000
0010
0000
0100
0000
0010
0000
0001
0000
0100
0000
0010
0000
1000
0001
0000
0000
0100
0000
0000
0000
,
0210
0000
0000
0301
0100
0000
0010
1000
0001
1000
0010
0000
1000
0000
0001
0000
,
1002
0000
0000
1003
0010
0000
0100
0010
1000
0001
0010
0000
0001
0000
1000
0000
,
2100
0000
0000
3100
0010
0000
0001
0100
0010
0100
0001
0000
0010
0000
0001
0000
,
1002
0000
0000
1003
0010
0000
0100
0010
1000
0001
0010
0000
0001
0000
1000
0000
,
1200
0000
0000
1300
0010
0000
0100
0001
1000
0010
0100
0000
0010
0000
1000
0000
,
2010
0000
0000
3010
0100
0000
0001
0010
0100
0010
0001
0000
1000
0000
0001
0000
,
0102
0000
0000
1003
0100
0000
0010
0100
1000
0100
0010
0000
0001
0000
1000
0000
,
2010
0000
0000
3010
0100
0000
0010
1000
0100
1000
0010
0000
1000
0000
0001
0000
,
0021
0000
0031
0010
0100
0000
0010
0001
0100
0001
0010
0000
0001
0000
1000
0000
,
1020
0000
1030
0010
0100
0000
0010
1000
0001
1000
0010
0000
1000
0000
0001
0000
,
0201
0000
0301
0100
0010
0000
0100
0001
1000
0001
0100
0000
0010
0000
1000
0000
,
1200
0000
1300
0100
0010
0000
0100
1000
0001
1000
0010
0100
0001
0000
0010
0000
,
0110
0000
0001
0000
0101
0000
0010
0100
1000
0000
0001
1000
0020
0000
0000
0000
,
1030
0000
0100
0000
0110
0000
0100
1000
0001
0100
0000
0100
0010
0000
0100
0000
,
0110
0000
1000
0000
1100
0000
0010
0100
0001
0000
1000
0001
0020
0000
0000
0000
,
0031
0000
0100
0000
0101
0000
0001
0000
1001
0000
0001
1000
0001
1000
0001
1000
,
0020
0000
1030
0100
0020
0000
0130
1000
0001
1000
0100
1000
0010
0000
0100
0000
,
0002
0000
0103
0010
2000
0000
3010
0100
0001
0100
0010
1000
0001
0000
0010
0000
,
0012
0000
1003
0100
0020
0000
0130
1000
0001
0100
0001
1000
0010
0000
0100
0000
,
0020
0000
1030
0100
0020
0000
0130
1000
0001
0100
0001
1000
0010
0000
0100
0000
,
0201
0000
0301
0100
0020
0000
1030
0100
0010
0100
1000
0001
0100
0000
0010
0000
,
1020
0000
1030
0010
0200
0000
0301
0010
0100
0010
0001
1000
0001
0000
0010
0000
,
0021
0000
0031
0010
0200
0000
0310
0001
1000
0001
0100
0010
1000
0000
0010
0000
,
1020
0000
1030
0010
0200
0000
0310
1000
0001
1000
0010
1000
0100
0000
1000
0000
,
2100
0000
3001
0100
2000
0000
3100
0001
0100
1000
0100
1000
0001
0000
0100
0000
,
0102
0000
1003
0100
0002
0000
0103
0001
0100
1000
0100
1000
0001
0000
0010
0000
,
0021
0000
0031
0010
2000
0000
3010
0001
0010
0001
1000
0010
0100
0000
0010
0000
,
1020
0000
1030
0010
0002
0000
0013
1000
0010
1000
0001
0010
0100
0000
0010
0000
,
0012
0000
0103
0010
2000
0000
3001
0010
1000
0010
0100
1000
0001
0000
1000
0000
,
1020
0000
1030
0010
0200
0000
0301
1000
0100
1000
0001
0100
0010
0000
0100
0000
,
0201
0000
0310
0100
0002
0000
1003
0010
0001
0010
0100
0001
1000
0000
0001
0000
,
0021
0000
0031
0010
0200
0000
1300
0010
0100
0001
1000
0001
1000
0001
1000
0001
,
0020
0000
0000
0000
,
0030
0000
0000
0000
;

//---------------dance-double - ----------------
#NOTES:
     dance-double:
     :
     Easy:
     5:
     0.255,0.252,0.081,0.251,0.000:
00000000
00000000
00000000
00000000
,
00000000
00000000
00000000
00000000
,
00000000
00000000
00000000
00000000
,
00000000
00000000
00000000
00000000
,
00100000
00100000
00100000
00100000
,
10020000
01030000
00001000
00001000
,
00020000
00030100
00001000
00001000
,
00000020
00000130
00000001
00000001
,
00000020
00000130
00010000
00010000
,
00001000
01000000
00200000
00000000
,
10000000
00000000
01300000
00000000
,
10000000
01000000
00200000
00000000
,
00001000
00000000
00310000
00000000
,
00001000
00000100
00000020
00000000
,
00001000
00000000
00000130
00000000
,
00000001
00000010
00000200
00000000
,
00001000
00000000
00010300
00000000
,
00001000
01000000
00200000
00000000
,
10000000
00000000
00310000
00000000
,
10000000
01000000
00200000
00000000
,
00001000
00000000
00310000
00000000
,
00001000
00010000
00001000
00001000
,
00010000
00000100
00001000
00001000
,
00000010
00000100
00000001
00000001
,
00000010
00000100
00010000
00010000
,
00001000
01000000
00100000
00100000
,
10000000
00010000
10000000
10000000
,
01000000
00100000
00001000
00001000
,
00010000
00001000
00010000
00011000
,
00002000
01003000
00100000
00100000
,
02000000
03010000
10000000
10000000
,
02000000
03100000
00001000
00001000
,
00020000
00030010
00000100
00000100
,
00000002
00001003
00000100
00000100
,
00002000
01003000
00100000
00100000
,
00020000
01030000
00100000
00100000
,
20000000
30010000
00100000
00001000
,
00010000
00011000
00001000
00001000
,
00010000
00010100
00001000
00001000
,
00000010
00000110
00000001
00000001
,
00000010
00000110
00001000
00000100
,
00010000
00010000
00002000
00003000
,
00010000
00010000
00001000
01000000
,
00100000
00100000
02000000
03000000
,
00100000
00100000
10000000
01000000
,
10000000
00020000
00000000
01030000
,
00010000
00200000
00000000
00301000
,
00010000
00000020
00000000
00000130
,
00000001
00000020
00000000
00000130
,
00010000
00000200
00000000
00001300
,
00000100
00020000
00000000
00031000
,
00100000
00020000
00000000
01030000
,
00100000
20000000
00000000
30010000
,
10000000
21000000
00000000
30010000
,
01000000
01002000
00000000
00103000
,
00001000
00021000
00000000
00030010
,
00000100
00000120
00000000
00001030
,
00000001
00000010
00000100
00000100
,
00001000
00010000
01000000
01000000
,
00100000
10000000
01000000
01000000
,
00100000
00010000
00001000
00001000
,
00022000
00000000
00000000
00000000
,
00033000
00000000
00000000
00000000
;

//---------------dance-double - ----------------
#NOTES:
     dance-double:
     :
     Medium:
     8:
     0.396,0.389,0.244,0.377,0.000:
00000000
00000000
00000000
00000000
,
00000000
00000000
00000000
00000000
,
00000000
00000000
00000000
00000000
,
00000000
00000000
00000000
00000000
,
00001000
00001000
00001000
00001000
,
00012000
00000000
01003000
00000000
00100000
10000000
00010000
00000000
,
20000000
00000000
31000000
00000000
00100000
00001000
00010000
00000000
,
00002000
00000000
01003000
00000000
00001000
00010000
00000010
00000000
,
00000200
00000000
00000301
00000000
00000010
00000100
00010000
00001000
,
00010000
00000000
00001000
02000000
00100000
00000000
03010000
00000000
,
10000000
00000000
01000000
00000000
00100000
01000000
10000000
00000000
,
00010000
00000000
10000000
00020000
01000000
00000000
00031000
00000000
,
00100000
00000000
00001000
00000000
00010000
00000010
00000100
00000000
,
00000010
00000000
00001000
00000002
00000010
00000000
00001003
00000000
,
00000001
00000000
00000010
00000100
00010000
00000000
00001000
00000000
,
00010000
00000000
00001000
02000000
00100000
00000000
03010000
00000000
,
10000000
00000000
01000000
00100000
00001000
00000000
00010000
00000010
,
00000100
00000000
00000010
00002000
00000100
00000000
00003001
00000000
,
00000100
00000000
00000010
00001000
00000100
00000000
00000010
00000100
,
00010000
00000000
00001000
00200000
00010000
00000000
01300000
00000000
,
00010000
01000000
00100000
00000000
10000000
00000000
10010000
00000000
,
10000000
00000000
12000000
00000000
13000000
01000000
00200000
00000000
,
00301000
00000000
00021000
00000000
00031000
00010000
00000020
00000000
,
00000130
00000000
00000120
00000000
00001030
00000010
00000200
00000000
,
00000301
00000000
00000021
00000000
00000031
00000010
00000200
00000000
,
00010300
00000000
00012000
00000000
00103000
00010000
01000000
00010000
,
00100000
00000000
01200000
00000000
01300000
00100000
00001000
00010000
,
00001000
00000000
02001000
00000000
03001000
01000000
00100000
01000000
,
00010000
10000000
00010000
01010000
,
00201000
00000000
00301000
00000000
00010000
00001000
00010000
00000000
,
00000020
00000000
00000130
00000000
00000001
00001000
00000010
00000000
,
00000200
00000000
00000301
00000000
00000010
00000100
00010000
00000000
,
00000200
00000000
00010300
00000000
00001000
00100000
00010000
00000000
,
01020000
00000000
00130000
00000000
00010000
00100000
01000000
00000000
,
20000000
00000000
30100000
00000000
01000000
00001000
00010000
00000000
,
00002000
00000000
01003000
00000000
00001000
00010000
00000010
00000000
,
00000200
00000000
00000310
00000000
00001000
00000100
00000010
00000100
,
00010000
00000000
00010100
00000000
00000100
00010000
00001000
00000000
,
00100000
00000000
00101000
00000000
00001000
01000000
00100000
00000000
,
01000000
00000000
01100000
00000000
00010000
10000000
01000000
00000000
,
10000000
00000000
11000000
00000000
00100000
00001000
00010000
00000000
,
00001000
00011000
00010100
00010020
,
00000130
00000110
00000001
00001100
,
00000001
00000011
00000110
00010200
,
00010300
00000000
00011000
00000000
00001000
00010000
00001000
00010000
,
00001000
00000000
01000000
00200000
00000000
20300000
00000000
32000000
,
00000000
00000000
13000000
00020000
00000000
01030000
00010000
02000000
,
00000000
00000000
03001000
00200000
00000000
00302000
00000000
00023000
,
00000000
00000000
00030010
00000200
00000000
00000301
00000010
00000200
,
00000000
00000000
00000310
00000002
00000000
00000203
00000000
00000320
,
00000000
00000000
00010030
00002000
00000000
00103000
00001000
00200000
,
00000000
00000000
00310000
02000000
00000000
03200000
00000000
20300000
,
00000000
00000000
31000000
00200000
00000000
01300000
10000000
00010000
,
10000000
00000000
10010000
00000000
00010000
01000000
00001000
00000000
,
00100000
00000000
00101000
00000000
00001000
00010000
00000010
00000000
,
00000100
00000000
00000110
00000000
00000001
00001000
00000100
00000000
,
00010000
00000000
00010100
00000000
00000100
00010000
00001000
00010000
,
00100000
00000000
10100000
00000000
00100000
10000000
01000000
00100000
,
00010000
00000000
00010100
00000000
00000100
00010000
00000010
00000100
,
00000001
00000000
00000011
00000000
00000001
00000010
00000100
00001000
,
00010000
00000000
01010000
00000000
01000000
00001000
00010000
00001000
,
00020000
00000000
00000000
00000000
,
00030000
00000000
00000000
00000000
;

//---------------dance-double - ----------------
#NOTES:
     dance-double:
     :
     Hard:
     12:
     0.514,0.549,0.347,0.347,0.192: // measure 1
00000000
00000000
00000000
00000000
,  // measure 2
00000000
00000000
00000000
00000000
,  // measure 3
00000000
00000000
00000000
00000000
,  // measure 4
00000000
00000000
00000000
00000000
,  // measure 5
00010000
01000000
00000000
00000000
00010000
10000000
00000000
00000000
01000000
00000000
00100000
00000000
00001000
00000000
00010000
00000000
,  // measure 6
00002000
00000000
00000000
00000000
01003000
00000000
00000000
00001000
00100000
00000000
00001000
00000000
00010000
00000000
00000000
00000000
,  // measure 7
00000020
00000000
00000000
00000000
00000130
00000000
00000000
00000001
00000010
00000000
00000100
00000000
00010000
00000000
00000000
00000000
,  // measure 8
00002000
00000000
00000000
00000000
00103000
00000000
00000000
00001000
01000000
00000000
00100000
00000000
10000000
00000000
00000000
00000000
,  // measure 9
02000000
00000000
00000000
00000000
03100000
00000000
01000000
00000000
10000000
00000000
00010000
10000000
00010000
10000000
00010000
00000000
,  // measure 10
10000000
00100000
01000000
00020000
00100000
00130000
00001000
00000000
,  // measure 11
00010000
00000010
00000100
00000010
00001000
00001000
00000100
00000000
,  // measure 12
00000010
00000100
00010000
00002000
01000000
01000000
00013000
00000000
,  // measure 13
00100000
00010000
01000000
00100000
10000000
10000000
01000000
00000000
,  // measure 14
00100000
01000000
10000000
00200000
01000000
01000000
00310000
00000000
,  // measure 15
01000000
00001000
00100000
00001000
00010000
00010000
00001000
00000000
,  // measure 16
00010000
00000010
00000100
00000020
00001000
00001000
00000130
00000000
,  // measure 17
00001000
00000010
00000100
00000001
00000010
00000010
00000100
00000000
,  // measure 18
00001000
00000100
00010000
00002000
00100000
00100000
00013000
00000000
,  // measure 19
00001000
01000000
00100000
10000000
00100000
00100000
01000000
00010000
,  // measure 20
10000000
01000000
00100000
00020000
01000000
01000000
00031000
00000000
,  // measure 21
00000100
00010000
00001000
00000000
00010000
00000010
00000110
00000000
,  // measure 22
00000010
00001000
00001200
00000000
00001300
00000001
00000201
00000000
,  // measure 23
00000301
00000100
00000120
00000000
00010030
00000100
00010100
00000000
,  // measure 24
00001000
00100000
00201000
00000000
00310000
10000000
20010000
00000000
,  // measure 25
30100000
01000000
02100000
00000000
03010000
01000000
00100000
10000000
,  // measure 26
01000000
00100000
01100000
00100000
00001000
00010000
00021000
00000000
,  // measure 27
00030010
00000100
00000101
00000001
00000010
00000100
00000210
00000000
,  // measure 28
00000310
00000001
00001001
00000001
00000100
00000010
00020010
00000000
,  // measure 29
00031000
00010000
00001000
00010000
00001000
00010000
00001000
00010000
00001000
00000000
01000000
00000000
00100000
00000000
00000000
00000000
,  // measure 30
02100000
00000000
00000000
00000000
03010000
00000000
00000000
00010000
01000000
00000000
00100000
00000000
10000000
00000000
00000000
00000000
,  // measure 31
21000000
00000000
00000000
00000000
31000000
00000000
00000000
01000000
00100000
00000000
00001000
00000000
00010000
00000000
00000000
00000000
,  // measure 32
00020100
00000000
00000000
00000000
00031000
00000000
00000000
00010000
00000010
00000000
00000100
00000000
00000001
00000000
00000000
00000000
,  // measure 33
00000021
00000000
00000000
00000000
00000130
00000000
00000000
00000010
00000001
00000000
00001000
00000000
00000001
00000000
00000000
00000000
,  // measure 34
00000201
00000000
00000000
00000000
00000310
00000000
00000000
00000010
00000100
00000000
00000010
00000000
00010000
00000000
00000000
00000000
,  // measure 35
00020100
00000000
00000000
00000000
00031000
00000000
00000000
00100000
00010000
00000000
01000000
00000000
00100000
00000000
00000000
00000000
,  // measure 36
20100000
00000000
00000000
00000000
30010000
00000000
00000000
10000000
01000000
00000000
00100000
00000000
00010000
00000000
00000000
00000000
,  // measure 37
00201000
00000000
00000000
00000000
00310000
00000000
00000000
00001000
00010000
00000000
00000010
00000000
00000100
00000000
00000010
00000000
,  // measure 38
00001010
00000000
00000000
00001000
00000010
00000000
00000000
00001000
00000001
00000000
00000010
00000000
00000100
00000000
00010000
00000000
,  // measure 39
00010100
00000000
00000000
00000100
00010000
00000000
00000000
00000100
00010000
00000000
00001000
00000000
01000000
00000000
00100000
00000000
,  // measure 40
10100000
00000000
00000000
00100000
10000000
00000000
00000000
00010000
10000000
00010000
10000000
00000000
00010000
00000000
00100000
00000000
,  // measure 41
00101000
00000000
00000000
00001000
00100000
00000000
00001000
00000000
00010000
00000000
00001000
00000000
00021000
00000000
00000000
00000000
,  // measure 42
00030010
00000000
00000000
00000000
00000110
00000000
00000001
00000000
00000100
00000000
00000010
00001000
00000001
00000000
00000000
00000000
,  // measure 43
00000010
00000011
00000110
00010100
,  // measure 44
00011000
00000000
00000000
00000000
01100000
00000000
00010000
00000000
01000000
00000000
00100000
10000000
00010000
00000000
00000000
00000000
,  // measure 45
10000000
10100000
01100000
01001000
,  // measure 46
00102000
00000000
00013000
00000020
00000000
00001030
00000100
00000002
,  // measure 47
00000000
00000103
00001000
00020000
00000000
00031000
00100000
02000000
,  // measure 48
00000000
00000000
03100000
20000000
00000000
32000000
00000000
03020000
,  // measure 49
00000000
00000000
01030000
20000000
00000000
30100000
01000000
00010000
,  // measure 50
00002000
00000000
00103000
02000000
00000000
03010000
00100000
00020000
,  // measure 51
00000000
00000000
00031000
00000200
00000000
00000310
00001000
00000002
,  // measure 52
00000000
00000000
00000013
00002000
00000000
00023000
00000000
00230000
,  // measure 53
00000000
00000000
10300000
00200000
00000000
01300000
00001000
00010000
,  // measure 54
00001000
00000000
00000000
00000000
00011000
00000000
00000000
00001000
01000000
00001000
01000000
00000000
00001000
00000000
00000000
00000000
,  // measure 55
00010000
00000000
00000000
00000000
00011000
00000000
00000000
00010000
00000100
00010000
00000100
00000000
00010000
00000000
00000000
00000000
,  // measure 56
00010010
00000000
00000000
00000000
00000110
00000000
00000000
00000010
00001000
00000001
00001000
00000000
00000001
00000000
00000000
00000000
,  // measure 57
00000011
00000000
00000000
00000000
00001001
00000000
00000000
00000001
00001000
00000100
00001000
00000000
00000100
00000000
00010000
00000000
,  // measure 58
00011000
00000000
00000000
00001000
01000000
00000000
00000000
00001000
01000000
00100000
01000000
00000000
00010000
00000000
10000000
00000000
,  // measure 59
11000000
00000000
00000000
10000000
01000000
00000000
00000000
10000000
01000000
00100000
01000000
00000000
00100000
00000000
00001000
00000000
,  // measure 60
00011000
00000000
00010000
00000010
00010000
00000000
00000010
00001000
00000001
00001000
00000001
00000000
00001000
00000000
00000001
00000000
,  // measure 61
00000011
00000000
00000001
00000010
00000001
00000000
00001000
00000100
00010000
00001000
00010000
00001000
00010000
00001000
00010000
00001000
,  // measure 62
00020000
00000000
00000000
00000000
,  // measure 63
00030000
00000000
00000000
00000000
;

//---------------dance-double - ----------------
#NOTES:
     dance-double:
     :
     Challenge:
     13:
     0.605,0.595,0.325,0.236,0.406: // measure 1
00000000
00000000
00000000
00000000
,  // measure 2
00000000
00000000
00000000
00000000
,  // measure 3
00000000
00000000
00000000
00000000
,  // measure 4
00000000
00000000
00000000
00000000
,  // measure 5
00010000
01000000
00000000
01000000
00100000
01000000
00000000
01000000
00010000
00100000
00000000
00100000
00001000
00000000
00010000
00000000
,  // measure 6
00011000
00000000
00000000
00001000
01000000
00000000
00000000
00001000
00100000
00001000
00100000
00000000
00001000
00000000
01000000
00000000
,  // measure 7
01010000
00000000
00000000
00010000
01000000
00000000
00000000
00100000
01000000
00100000
01000000
00000000
00100000
00000000
10000000
00000000
,  // measure 8
11000000
00000000
00000000
00100000
01000000
00000000
00000000
10000000
01000000
10000000
01000000
00000000
10000000
00000000
00100000
00000000
,  // measure 9
01100000
00000000
00100000
01000000
00001000
00000000
00100000
00000000
00001000
00000000
00010000
00001000
00010000
00001000
00010000
00001000
,  // measure 10
00010000
00000010
00000100
00000001
00000010
00000001
00000101
00000000
,  // measure 11
00000001
00000100
00000010
00010000
00000100
00010000
00010100
00000000
,  // measure 12
00001000
01000000
00100000
10000000
01000000
00100000
01100000
00000000
,  // measure 13
01000000
10000000
00100000
01000000
00010000
00100000
00101000
00000000
,  // measure 14
00001000
00010000
00001000
02000000
00010000
00100000
03100000
10000000
,  // measure 15
01000000
00100000
01000000
10000000
00010000
01000000
00010000
00100000
,  // measure 16
00001000
00010000
00000010
00000200
00000001
00000010
00000310
00000001
,  // measure 17
00000010
00000100
00010000
00000100
00010000
00001000
00100000
00010000
,  // measure 18
01000000
00100000
10000000
02000000
00010000
00100000
03100000
00010000
,  // measure 19
01000000
00100000
10000000
01000000
00010000
00001000
00000100
00000010
,  // measure 20
00001000
00000001
00000010
00000200
00010000
00001000
00001300
00000100
,  // measure 21
00010000
00001000
00100000
00010000
01000000
00100000
10100000
00000000
,  // measure 22
11000000
01000000
00010000
01000000
00100000
00001000
00011000
00001000
,  // measure 23
00010000
00000010
00000110
00000010
00001000
00000100
00001100
00001000
,  // measure 24
00000001
00000010
00000011
00000010
00000100
00010000
00010100
00010000
,  // measure 25
00001000
01000000
01010000
00010000
01000000
00100000
10100000
00100000
,  // measure 26
10000000
01000000
21000000
01000000
30010000
01000000
02010000
00010000
,  // measure 27
03100000
01000000
01002000
01000000
00013000
00000100
00001000
00000010
,  // measure 28
00000110
00000100
00000102
00000010
00001003
00000100
00020100
00000100
,  // measure 29
00031000
00000000
00010000
00000000
00001000
00000000
00010000
00000000
00001000
00000000
00010000
00000000
00001000
00000000
01000000
00000000
00100000
00000000
10000000
00000000
01000000
00000000
00100000
00000000
01000000
10000000
00000000
00000000
00000000
00000000
00000000
00000000
,  // measure 30
21000000
00000000
00000000
30010000
01000000
00000000
00000000
00010000
00100000
00001000
00100000
00000000
00001000
00000000
00010000
00000000
,  // measure 31
00000020
00000000
00000000
00000130
00000001
00000000
00000000
00000010
00000100
00010000
00000100
00000000
00010000
00000000
00001000
00000000
,  // measure 32
00012000
00000000
00000000
01003000
00100000
00000000
00000000
01000000
00010000
10000000
00010000
00000000
10000000
00000000
01000000
00000000
,  // measure 33
01200000
00000000
00000000
01300000
10000000
00000000
00000000
00010000
01000000
00001000
00100000
00000000
00001000
00000000
00010000
00000000
,  // measure 34
00020010
00000000
00000000
00030010
00000100
00000000
00000000
00000010
00001000
00000001
00000100
00000000
00000001
00000000
00000010
00000000
,  // measure 35
00000021
00000000
00000000
00000031
00000010
00000000
00000000
00000100
00010000
00001000
00010000
00000000
00001000
00000000
01000000
00000000
,  // measure 36
01200000
00000000
00000000
10300000
00100000
00000000
00000000
10000000
01000000
00100000
00010000
00000000
00100000
00000000
00001000
00000000
,  // measure 37
00021000
00000000
00000000
00030010
00000100
00000000
00000000
00000010
00001000
00000001
00000100
00000000
00000001
00000000
00001000
00000000
,  // measure 38
00001001
00000000
00000000
00000001
00000100
00000000
00000000
00000001
00000010
00000100
00010000
00000000
00000100
00000000
00010000
00000000
,  // measure 39
00011000
00000000
00000000
00001000
00100000
00000000
00000000
00010000
01000000
00100000
10000000
00000000
00010000
00000000
10000000
00000000
,  // measure 40
11000000
00000000
00000000
01000000
00100000
00000000
00000000
01000000
10000000
00100000
01000000
00000000
00001000
00000000
00100000
00000000
,  // measure 41
00101000
00000000
00000000
00001000
00100000
00000000
00001000
00010000
00001000
00000000
00000100
00000010
00001000
00000000
00000100
00000000
,  // measure 42
00001100
00000000
00000100
00000000
00010100
00000000
00000100
00010000
00001000
00000000
01000000
00000000
00200000
00000000
00000000
00000000
,  // measure 43
10300000
00000000
01000000
00000000
11000000
00000000
10000000
00100000
01000000
00000000
00010000
00100000
00001000
00000000
00010000
00000000
,  // measure 44
00010010
00000000
00000010
00000000
00001010
00000000
00000010
00000100
00000001
00000000
00000010
00000000
00002000
00000000
00000000
00000000
,  // measure 45
00013000
00000000
01000000
00000000
10000000
00000000
00100000
00000000
01000000
00000000
00010000
10000000
00010000
10000000
00010000
10000000
,  // measure 46
00010000
00000000
00000000
10000000
01000000
00000000
20000000
00000000
00000000
00000000
30100000
00000000
01000000
00000000
00020000
00000000
,  // measure 47
00000000
00000000
00000000
00130000
00001000
00000000
00020000
00000000
00000000
00000000
00030010
00000000
00000100
00000000
00000001
00000000
,  // measure 48
00000010
00000000
00000000
00000100
00000010
00000000
00000000
00000100
00010000
00001000
00010000
00000000
00001000
00000000
01000000
00000000
,  // measure 49
00100000
00000000
00000000
01000000
00010000
00000000
00000000
10000000
01000000
10000000
00010000
00000000
01000000
00000000
00100000
00000000
,  // measure 50
20000000
00000000
00000000
31000000
00100000
00000000
02000000
00000000
00000000
00000000
13000000
00000000
00100000
00000000
00020000
00000000
,  // measure 51
00000000
00000000
00000000
00031000
00000010
00000000
00000002
00000000
00000000
00000000
00000103
00000000
00000010
00000000
00001000
00000000
,  // measure 52
00000100
00000000
00000000
00010000
00000100
00000000
00000000
00010000
00001000
00100000
00001000
00000000
01000000
00000000
00100000
00000000
,  // measure 53
10000000
00000000
00000000
00100000
01000000
00000000
00000000
00010000
01000000
00010000
00100000
00000000
00001000
00000000
00010000
00000000
,  // measure 54
00011000
00000000
00000000
00001000
01000000
00000000
00020000
00000000
00100000
00000000
00030000
00010000
01000000
00000000
00020000
00000000
,  // measure 55
00100000
00000000
00000000
00031000
00000010
00000000
00000001
00000000
00001000
00000000
00000010
00000100
00000001
00000000
00001000
00000000
,  // measure 56
00000002
00000000
00000000
00000013
00000100
00000000
00002000
00000000
00000100
00000000
00003000
00010000
00000010
00000000
00002000
00000000
,  // measure 57
00000100
00000000
00000000
00013000
00000010
00000000
00010000
00001000
00100000
00001000
01000000
00000000
00100000
00000000
10000000
00000000
,  // measure 58
10010000
00000000
00000000
10000000
01000000
00000000
00000000
01000000
00100000
00001000
00100000
00000000
00001000
00000000
00010000
00000000
,  // measure 59
00010010
00000000
00000000
00010000
00000010
00000000
00000000
00000010
00000100
00000001
00000100
00000000
00000001
00000000
00001000
00000000
,  // measure 60
00001001
00000000
00000000
00000001
00000010
00000000
00000001
00000100
00000010
00000100
00000001
00001000
00000100
00000000
00010000
00000000
,  // measure 61
00010100
00000000
00000000
00000100
00010000
00000000
00001000
00100000
00010000
01000000
00100000
01000000
00010000
10000000
01000000
00100000
,  // measure 62
00002000
00000000
00000000
00000000
,  // measure 63
00003000
00000000
00000000
00000000
;
