#TITLE:Slip Into My Royal Blood;
#SUBTITLE:;
#ARTIST:BEMANI Sound Team "あさき";
#TITLETRANSLIT:;
#SUBTITLETRANSLIT:;
#ARTISTTRANSLIT:Asaki;
#GENRE:;
#CREDIT:;
#MUSIC:Slip Into My Royal Blood.ogg;
#BANNER:Slip Into My Royal Blood.png;
#BACKGROUND:Slip Into My Royal Blood-bg.png;
#CDTITLE:./CDTITLES/GITADORA.PNG;
#SAMPLESTART:91.921;
#SAMPLELENGTH:15.000;
#SELECTABLE:YES;
#OFFSET:0.000;
#BPMS:0.000=250.000
,208.000=222.000
,212.000=161.000
,220.000=250.000
;
#STOPS:;
#DISPLAYBPM:161.000:250.000;
#MENUCOLOR:;
#METERTYPE:DDR;
#LISTSORT:;
#BGCHANGES:;
#FGCHANGES:;

//--------------- dance-single - t7r ----------------
#NOTES:
     dance-single:
     t7r:
     Beginner:
     8:
     0.383,0.496,0.203,0.008,0:
0000
0000
0000
0000
,
0000
0000
0000
0000
,
0000
0000
0000
0000
,
0000
0000
0000
0000
,
0000
0000
0000
0000
,
0000
0000
0000
0000
,
0000
0000
0000
0000
,
0000
0000
0000
0000
,
0000
0000
0000
0000
,
0000
0000
0000
0000
,
0000
0000
0000
0000
,
1000
1000
1000
1000
,
1000
0000
0000
0000
,
0001
0001
0001
0001
,
0001
0000
0000
0000
,
0100
0100
0100
0100
,
0100
0000
0000
0000
,
0010
0010
0010
0010
,
0010
0000
0000
0000
,
1000
0000
0001
1000
,
0001
0000
0000
0000
,
0100
0000
0010
0100
,
0010
0000
0100
0010
,
0100
0000
0001
1000
,
0001
0000
0000
0000
,
1000
0001
1000
0001
,
1000
0001
1000
0001
,
1000
0000
0100
0010
,
0001
0000
0100
0010
,
1000
0000
0010
0100
,
0001
0000
1000
0001
,
1000
0100
0001
0100
,
1000
0100
0001
0000
,
1001
0000
0010
0000
,
0100
0000
0001
0000
,
1000
0001
0010
0001
,
1000
0000
0001
0000
,
1000
0001
0100
0001
,
1000
0000
0001
0000
,
1000
0010
0001
0010
,
1000
0010
0001
0000
,
0110
0000
0100
0000
,
0010
0000
1001
0000
,
1000
1000
1000
0100
,
0100
0100
0010
0010
,
0001
0001
0010
0010
,
0100
0100
1000
1000
,
1000
0010
0010
0010
,
0100
0100
0001
0001
,
0100
0100
0010
0010
,
1000
1000
1000
0001
,
0001
0001
1000
0001
,
1000
0001
0100
0010
,
1000
0000
0000
0000
,
0000
0000
0000
0000
,
0001
0001
0001
0001
,
0001
0000
0000
0000
,
0010
0010
0010
0010
,
0010
0000
0000
0000
,
0100
0100
0100
0100
,
0100
0000
0000
0000
,
1000
1000
1000
1000
,
0001
0000
1000
0000
,
0001
0100
0010
1000
,
0001
0000
1000
0000
,
0001
0010
0100
1000
,
0001
0000
1000
0000
,
0001
0100
1000
0100
,
0001
0100
1000
0000
,
0001
0010
1000
0010
,
0001
0000
0110
0000
,
0010
0100
0001
0000
,
0100
0010
1000
0000
,
0010
1000
0100
0000
,
1000
0001
0010
0000
,
0001
0010
1000
0010
,
0001
0100
1000
0000
,
0100
0010
1000
0000
,
0001
0010
0100
0000
,
1000
0001
1000
0100
,
1000
0001
1000
0000
,
0001
1000
0001
0100
,
0001
1000
0001
0000
,
0010
0000
0010
0000
,
0001
0000
0001
0000
,
0100
0000
0100
0000
,
1000
0000
1000
0000
,
0001
0010
0100
1000
,
0001
0010
0100
1000
,
0001
0100
0010
1000
,
0001
0100
0010
1000
,
0001
0000
1000
1000
,
0100
0100
0010
0010
,
0001
0000
0000
0000
,
0000
0000
0000
0000
,
1000
0000
1100
0000
,
1000
0000
1100
0000
,
0001
0000
0101
0000
,
0001
0000
0101
0000
,
0010
0000
1010
0000
,
0010
0000
1010
0000
,
0100
0000
0101
0000
,
0100
0000
0101
0000
,
0001
0000
1001
0000
,
0001
0000
1001
0000
,
1000
0000
1001
0000
,
1000
0000
1001
0000
,
1000
0000
1100
0000
,
1000
0000
1100
0000
,
0010
0000
0011
0000
,
0001
0010
0100
1000
,
0010
0100
0010
0100
,
0110
0000
0010
0000
,
0100
0010
0100
0010
,
0110
0000
0100
0000
,
0001
1000
0001
1000
,
1001
0000
0001
0000
,
1000
0001
1000
0001
,
1001
0000
1000
0000
,
0001
0010
0100
1000
,
1100
0000
0010
0000
,
0001
0100
0010
1000
,
1010
0000
0010
0000
,
0100
0001
1000
0100
,
1100
0000
0001
0000
,
1000
0010
0100
0001
,
0101
0000
0001
0000
,
2000
0000
0000
0000
,
0000
0000
0000
0000
,
0000
0000
0000
0000
,
0000
0000
0000
0000
,
0000
0000
0000
0000
,
0000
3000
0000
0000
0000
0000
0000
0000
0000
0000
0000
0000
0000
0000
0000
0000
0000
0000
0000
0000
0000
0000
0000
0000
0000
0000
0000
0000
0000
0000
0000
0000
0000
0000
0000
0000
0000
0000
0000
0000
0000
0000
0000
0000
0000
0000
0000
0000
0000
0000
0000
0000
0000
0000
0000
0000
0000
0000
0000
0000
0000
0000
0000
0000
0000
0000
0000
0000
0000
0000
0000
0000
0000
0000
0000
0000
0000
0000
0000
0000
0000
0000
0000
0000
0000
0000
0000
0000
0000
0000
0000
0000
0000
0000
0000
0000
0000
0000
0000
0000
0000
0000
0000
0000
0000
0000
0000
0000
0000
0000
0000
0000
0000
0000
0000
0000
0000
0000
0000
0000
0000
0000
0000
0000
0000
0000
0000
0000
0000
0000
0000
0000
0000
0000
0000
0000
0000
0000
0000
0000
0000
0000
0000
0000
0000
0000
0000
0000
0000
0000
0000
0000
0000
0000
0000
0000
0000
0000
0000
0000
0000
0000
0000
0000
0000
0000
0000
0000
0000
0000
0000
0000
0000
0000
0000
0000
0000
0000
0000
0000
0000
0000
0000
0000
0000
0000
0000
0000
0000
0000
0000
0000
;

//--------------- dance-single - t7r ----------------
#NOTES:
     dance-single:
     t7r:
     Easy:
     12:
     0.569,0.645,0.541,0.225,0:
0000
0000
0000
0000
,
0000
0000
0000
0000
,
0000
0000
0000
0000
,
0000
0000
0000
0000
,
0000
0000
0000
0000
,
0000
0000
0000
0000
,
0000
0000
0000
0000
,
0000
0000
0000
0000
,
0000
0000
0000
0000
,
0000
0000
0000
0000
,
0000
0000
0000
0000
,
0001
0100
0010
1000
,
1010
1000
0100
0010
,
0001
0100
0010
1000
,
1010
1000
0001
0010
,
0001
0100
0010
1000
,
1100
1000
0100
0010
,
0001
0100
0010
1000
,
0110
0000
1000
0001
,
0200
0000
0001
0001
,
0310
0000
1000
1000
,
0200
0000
0010
0010
,
1300
0000
0001
0001
,
0200
0000
0010
0010
,
1300
0000
0001
0010
,
0001
0100
1000
0100
,
0001
0000
1000
0000
0001
1000
0001
0000
,
1000
0000
0100
0000
0010
0000
0000
0200
,
0000
0000
1300
0000
0001
0000
0000
0200
,
0000
0000
0301
0000
1000
0000
0000
0020
,
0000
0000
1030
0000
0001
0000
0000
2000
,
0000
3100
0001
0100
,
1000
0000
0100
0000
0010
0000
0000
0002
,
0000
0103
1000
0100
,
0001
0010
0100
1000
,
0001
0000
0001
1000
0000
0001
0000
0020
,
0000
0000
0031
0000
1000
0000
0000
0002
,
0000
0000
1003
0000
0100
0000
0000
2000
,
0000
0000
3001
0000
0100
0000
0000
0010
,
0000
0100
0110
0100
,
0110
0000
0010
0000
1000
0000
1000
0001
,
0000
0010
0001
0010
,
1000
0010
0100
1000
,
0001
0001
1001
0001
,
0100
0100
0101
0001
,
1000
0100
0001
0100
,
1000
0010
1000
1000
,
1100
1000
0001
0001
,
1001
0001
1000
0010
,
0001
0010
1000
0001
,
1000
1000
1100
0100
,
0010
0010
0011
0001
,
1000
0010
0100
0001
,
2002
0000
0000
0000
,
0000
0000
0000
3003
,
0001
0010
0100
1000
,
1100
1000
0010
0100
,
0001
0010
0100
1000
,
1100
1000
0001
0010
,
0001
0010
0100
0010
,
0011
0001
1000
0010
,
1000
0010
0100
0001
,
0100
0010
0000
0000
1000
0001
0000
0000
,
2000
0000
3100
0000
0010
0000
0000
0002
,
0000
0000
0103
0000
0010
0000
0000
2000
,
0000
0000
3010
0000
0100
0000
0000
0002
,
0000
0000
1003
0000
0001
0000
0000
0200
,
0000
0310
1000
0010
,
0001
0000
0010
0000
0100
0000
0000
0002
,
0000
1003
0100
0001
,
0100
0010
0001
1000
,
0001
0000
1000
0000
1001
0000
0000
2010
,
0000
0000
3001
0000
1000
0000
0000
0012
,
0000
0000
1003
0000
0001
0000
0000
2100
,
0000
0000
3001
0000
1000
0000
0000
0120
,
0000
0130
0110
0100
,
0110
0000
0010
0000
1000
0000
1000
0002
,
0000
1003
0100
0001
,
0100
0010
0001
1000
,
0001
0001
0101
0001
,
1000
1000
1010
0000
,
0010
0000
0110
0000
0000
0100
0000
0000
,
0001
1000
0001
0010
,
0001
0000
0000
0100
0000
0101
0000
0000
,
0001
1000
0100
1000
,
0010
0000
0000
1010
0000
0000
1001
0000
,
1000
0100
0010
0001
,
1000
0100
0001
0100
,
1000
0010
0001
0010
,
1000
0100
0010
0001
,
1000
0000
0001
0000
0100
0020
0000
0000
,
1030
0100
1000
0000
0001
0100
0001
0000
,
1000
0010
1000
0000
0001
0010
0001
0000
,
2002
0000
0000
3003
,
0001
0010
0100
1000
,
1100
0100
0110
0010
,
0011
0001
1001
0000
,
0101
0100
0110
0010
,
1010
1000
1001
0000
,
1010
0010
0110
0100
,
0101
0001
1001
0000
,
0011
0010
0110
0100
,
1000
0010
0100
0001
,
1001
0001
0011
0001
,
1001
1000
1100
0000
,
1001
1000
1010
1000
,
1001
0001
0101
0000
,
0110
0010
1010
0010
,
0110
0100
0101
0000
,
0011
0010
0110
0100
,
1000
0010
0001
0010
,
1000
0100
1100
1000
,
1001
0001
0100
0001
,
0010
0001
0011
0001
,
1001
0001
0100
0010
,
1000
0010
1010
0010
,
0110
0010
1000
0100
,
0010
0001
0011
0001
,
0101
0001
1000
0010
,
0110
0010
1010
1000
,
1001
1000
0100
0010
,
0110
0010
0011
0001
,
1001
0001
0100
0010
,
2000
0100
0001
0010
,
3001
0010
0100
1000
,
0002
0100
1000
0013
,
0100
0010
1000
0001
,
0100
0010
0200
0000
0000
0000
0000
0000
,
0000
0000
0000
0000
,
0000
0000
0000
0000
,
0000
0000
0000
0000
,
0000
0000
0000
0000
,
0300
0000
0000
0000
;

//--------------- dance-single - t7r ----------------
#NOTES:
     dance-single:
     t7r:
     Medium:
     15:
     0.773,0.843,0.278,0.21,0.143:
0000
0000
0000
0000
,
0000
0000
0000
0000
,
0000
0000
0000
0000
,
0000
0000
0000
0000
,
0000
0000
0000
0000
,
0000
0000
0000
0000
,
0000
0000
0000
0000
,
0000
0000
0000
0000
,
0000
0000
0000
0000
,
0000
0000
0000
0000
,
0000
0000
0000
0000
,
0001
0010
0001
0000
1000
0100
0010
0001
,
1000
0000
0010
1000
0010
0100
0001
0000
,
1000
0100
1000
0000
0001
0010
0100
1000
,
0001
0000
0100
0001
0100
0010
1000
0000
,
0001
0100
0001
0000
1000
0010
0100
0001
,
1000
0000
0100
1000
0001
0010
0001
0000
,
1000
0010
0100
0000
0001
0010
0100
0000
,
1000
0010
0100
0001
1000
0001
0100
0000
,
0110
0000
0000
0000
0010
1000
0010
1000
,
0001
0000
0000
0000
0010
0001
0010
0001
,
2000
0000
0000
0000
3001
0010
0001
0010
,
0100
0000
0000
0000
1000
0010
1000
0010
,
0100
0000
0000
0000
0010
1000
0001
1000
,
0010
0000
0000
0000
0100
0010
1000
0001
,
1000
0100
1000
0100
1000
0100
0010
0001
,
1000
0010
1000
0010
1000
0010
0100
0001
,
2000
0000
3001
0010
0100
0010
0000
0002
,
0000
0000
1003
0010
0100
0010
0000
2000
,
0000
0000
3001
0010
0100
0010
0000
0200
,
0000
0000
0310
0001
1000
0001
0000
0200
,
0000
0310
1000
0000
0010
0000
1010
0000
,
0010
0000
1010
0000
1000
0100
0010
0002
,
0000
1003
0001
0000
1001
0000
0001
0000
,
0100
0001
1000
0000
0100
1000
0001
0000
,
1000
0010
0001
0010
0000
1000
0000
0002
,
0000
0000
0013
0001
0100
0001
0000
2000
,
0000
0000
3100
1000
0100
0001
0000
0200
,
0000
0000
0310
1000
0010
0001
1000
0020
,
0000
0130
0010
0000
0110
0000
0010
0000
,
0110
0000
0010
0000
0100
0001
1000
0002
,
0000
0000
1003
0001
0100
0000
0001
0000
,
1000
0100
0010
0000
0001
0010
0100
0000
,
1000
0000
0100
1000
0000
0100
1000
0000
0000
0001
0000
0100
,
0001
0000
0100
0001
0000
0000
0100
0000
0000
0110
0000
0000
,
0010
0000
1000
0100
0000
0010
0001
0000
1000
0010
0000
0100
,
0001
0000
0010
0001
0000
0000
1000
0000
0010
1000
0000
0010
,
1000
0000
0000
0001
0000
0010
0001
0000
0010
0001
0000
0000
,
1000
0000
0000
1001
0000
0000
0001
0000
0010
0100
0000
1000
,
0100
0000
0010
0001
0000
1000
0010
0000
0100
0010
0000
0000
,
1000
0000
0100
1000
0000
0010
1000
0000
0000
0001
0000
0100
,
0001
0000
0010
0001
0000
0000
1000
0000
0001
0100
0000
0000
,
0001
0010
0100
1000
,
2002
0000
0000
0000
,
0000
0000
0000
3003
,
0101
0000
1100
0000
0101
0000
0001
0010
,
0100
0000
1000
0010
0100
0001
1000
0000
,
1100
0000
0101
0000
1100
0000
1000
0010
,
0100
0000
0010
1000
0001
0100
0010
0000
,
0110
0000
0101
0000
0110
0000
1000
0010
,
0100
0000
0001
0010
0100
1000
0001
0000
,
0110
0000
1100
0000
0110
0000
0010
0001
,
1000
0001
0000
0000
0100
0010
0000
0000
,
2000
0000
3010
1000
0100
1000
0000
0002
,
0000
0000
0013
0001
0100
0001
0000
0200
,
0000
0000
0310
1000
0001
1000
0000
0020
,
0000
0000
0130
0001
1000
0001
0010
0002
,
0000
1003
0100
0000
1100
0000
1000
0000
,
1001
0000
0001
0100
0010
1000
0000
0120
,
0000
0000
0130
0000
0001
1000
0100
0000
,
1000
0001
0010
0000
0001
1000
0100
1000
,
0001
0010
1000
0010
0000
0001
0000
2000
,
0000
0000
3001
0100
1000
0100
0000
0002
,
0000
0000
1003
0010
0001
0010
0000
2000
,
0000
0000
3100
0001
0100
1000
0000
0120
,
0000
0130
0010
0000
0110
0000
0010
0000
,
0110
0000
0010
0000
1000
0001
0100
0002
,
0000
0000
1003
0010
0100
0001
1000
0000
,
0001
0010
0100
1000
0001
0100
0010
1000
,
0001
0100
0001
0100
0010
1000
0010
1000
,
0001
0010
0100
1000
0001
0000
0000
0000
,
1000
0100
0010
0000
0000
0100
0000
0000
,
1000
0000
0001
1000
0010
0000
1000
0000
,
0001
0100
0001
1000
0000
1000
0010
0000
,
1000
0000
0100
0000
1000
0001
0010
0000
,
0001
0000
0001
0100
0000
0100
0010
0000
,
1000
0100
0010
0001
1000
0010
0100
0001
,
1000
0100
1000
0100
0010
0001
0010
0001
,
1000
0010
0100
0001
1000
0000
0001
0000
,
1000
0010
0100
0001
0000
0001
0010
0000
,
0001
0010
0100
1000
0001
1002
0000
0000
,
1003
0000
1000
0100
0000
0100
0010
0000
0010
0001
0000
0001
,
1000
0000
1000
0010
0000
0010
0100
0000
0100
0001
0000
0001
,
2000
0000
0000
0000
,
3001
0010
0100
0000
1000
0010
0100
0000
,
0110
0000
0001
0000
0100
0001
0000
0001
,
0010
0000
0001
0010
0100
0000
1000
0000
,
0010
0000
1000
0000
0100
1000
0000
1000
,
0010
0000
1000
0001
0100
0001
1000
0000
,
0010
0000
1000
0000
0010
0100
0000
0100
,
0001
0000
0010
0100
1000
0100
0010
0000
,
0100
0000
0010
0000
0001
0100
0000
0100
,
0001
0010
0100
1000
0001
0010
0100
1000
,
0001
0000
0010
0000
1000
0010
0000
0010
,
0001
0000
0100
0001
1000
0000
0001
0000
,
1000
0000
0010
0000
1000
0100
0000
0100
,
0001
0000
0100
1000
0001
0000
1000
0000
,
0010
0000
1000
0000
0100
1000
0000
1000
,
0010
0000
0100
0001
0010
0000
0001
0000
,
0100
0000
0010
0000
0100
0001
0000
0001
,
1000
0010
0100
0001
1000
0010
0100
0001
,
1000
0000
0100
0000
1100
0000
0100
1000
,
0001
0100
0001
0000
1000
0010
1000
0000
,
0001
0000
0010
0000
0011
0000
0001
0100
,
0010
1000
0001
0000
0010
0001
1000
0000
,
0010
0000
0100
0000
0110
0000
0010
1000
,
0100
1000
0001
0000
0010
0001
1000
0000
,
0001
0000
0100
0000
0101
0000
0001
1000
,
0001
0010
0100
1000
0001
0100
0010
1000
,
0010
0000
0100
0000
0101
0000
1000
0001
,
0100
0001
1000
0000
0010
1000
0001
0000
,
1000
0000
0100
0000
0110
0000
0100
1000
,
0001
0000
0100
0001
0000
1000
0100
0000
1000
0001
0000
0000
,
0110
0000
0001
0000
1000
0010
0100
0001
,
1000
0000
0001
0010
0100
1000
0001
0000
,
0110
0000
1000
0000
0001
0010
0100
1000
,
0010
0000
1000
0100
0000
0010
0001
0000
1000
0010
0000
0100
,
0001
1000
0020
0000
0000
0000
0000
0000
,
0000
0000
0000
0000
,
0000
0000
0000
0000
,
0000
0000
0000
0000
,
0000
0000
0000
0000
,
0030
0000
0000
0000
;

//--------------- dance-single - t7r ----------------
#NOTES:
     dance-single:
     t7r:
     Hard:
     18:
     1,1,0.481,0.195,0.571:
0000
0000
0000
0000
,
0000
0000
0000
0000
,
0000
0000
0000
0000
,
0000
0000
0000
0000
,
0000
0000
0000
0000
,
0000
0000
0000
0000
,
0000
0000
0000
0000
,
0000
0000
0000
0000
,
0000
0000
0000
0000
,
0000
0000
0000
0000
,
0000
0000
0000
0000
,
0001
0000
0010
0000
0100
0000
0010
0000
0001
0000
0010
0000
0100
0000
0010
0001
,
1000
0010
0100
0010
1000
0100
0010
0001
,
1000
0000
0100
0000
0010
0000
0100
0000
1000
0000
0100
0000
0010
0000
0100
1000
,
0001
0100
0010
0100
0001
0010
0100
1000
,
0001
0000
0010
0000
0001
0000
1000
0000
0001
0000
0010
0000
0001
0000
1000
0010
,
0100
0010
1000
0001
1000
0100
0010
0001
,
1000
0100
1000
0100
0001
0100
0001
0100
,
1000
0000
0010
0000
1000
0000
0010
0000
0100
0000
0001
0100
0001
0000
1000
0000
,
0010
0000
0000
0000
0100
0001
0100
0001
,
0010
0000
0000
0000
0100
1000
0001
1000
,
0020
0000
0000
0000
1030
0100
0010
0100
,
1000
0000
0000
0000
0001
0001
0001
0001
,
0100
0000
0000
0000
0010
0100
0001
0100
,
0010
0000
0000
0000
1000
0100
0010
0010
,
0100
0000
1000
0100
1000
0000
0001
0100
0001
0000
1000
0010
1000
0000
0001
0010
,
0001
1000
0001
1000
0001
1000
0001
1000
,
0001
0000
0010
0001
0100
0001
0000
0012
,
0000
1003
0010
0100
0010
1000
0000
1020
,
0000
1030
0001
0100
0001
1000
0000
2001
,
0000
3001
1000
0100
1000
0010
0100
0002
,
0000
1003
0100
0001
0100
1000
0100
0001
,
0010
0000
0100
0000
0001
0000
0010
0000
0100
0010
0100
0010
0001
0000
1000
0000
,
0000
0000
0010
0000
0100
0000
0001
0000
1000
0001
1000
0001
0010
0000
0001
0000
,
1000
0001
1000
0001
0100
0000
0001
0000
1000
0000
0100
0000
0010
0000
0001
0000
,
1000
0010
0100
0010
1000
0001
0000
2100
,
0000
3010
0100
0010
1000
0001
0000
2010
,
0000
0000
3001
0000
0010
0000
0100
0000
0010
0001
0010
0000
0001
0000
1000
0000
,
0010
0000
0100
0000
0010
0000
1000
0000
0001
1000
0001
1000
0010
0000
1000
0000
,
0000
0000
0001
0100
0001
0000
0000
0000
1100
0000
0000
0000
0101
0000
0000
0000
,
1100
0000
1000
0010
0100
0001
0010
0002
,
0000
1003
0100
0100
0010
0010
0001
0001
,
1000
0000
1000
0000
0010
0000
0010
0000
1000
0001
1000
0001
1000
0000
0001
0000
,
0100
0010
0100
0010
0100
0010
0100
0000
0000
0010
1000
0001
,
1000
0010
0001
0010
,
1000
0100
1000
0001
0010
0001
1000
0010
1000
0001
0100
0001
,
1000
0001
1000
0001
1000
0001
1000
0100
0010
0100
1000
0001
,
1000
0000
0000
0001
0100
0010
0100
0000
0000
0001
0000
0000
,
0010
0000
0000
1000
0000
0000
0010
0001
0010
0001
0100
0001
,
1000
0010
1000
0100
1000
0100
1000
0001
1000
0010
0100
0010
,
1000
0100
0001
0100
1000
0001
1000
0000
0000
0001
0100
1000
,
0100
0000
0001
0000
1000
0000
0001
0000
0000
0000
0000
0000
0100
0000
0000
0000
0000
0000
0010
0000
0000
1000
0000
0000
,
0001
1000
0010
0100
,
0220
0000
0000
0000
,
0000
0000
0000
0330
,
0010
0000
1000
0000
0100
0000
1000
0000
0001
0000
0010
0000
0100
0000
1000
0010
,
0100
0000
0010
0000
1000
0000
0001
0000
1000
0100
1000
0000
0001
0100
0001
0000
,
0100
0000
0001
0000
0010
0000
0001
0000
1000
0000
0010
0000
0100
0000
0001
0010
,
0100
0000
0010
0000
0001
0000
1000
0000
0001
0010
0001
0000
1000
0010
1000
0000
,
0010
0000
0100
0000
0001
0000
1000
0000
0100
0000
1000
0000
0010
0000
0100
0010
,
1000
0000
0010
0000
0100
0000
0001
0000
0010
0001
0010
0000
0001
1000
0001
0000
,
0100
0000
0010
0000
1000
0000
0001
0000
0100
0000
0001
0000
1000
0000
0100
0010
,
0001
1001
0000
0000
0010
0110
0000
0000
,
2010
0000
3001
0000
1000
0100
0010
0002
,
0000
0103
0010
0000
0100
0001
0010
0200
,
0000
0310
0001
0000
1000
0010
0100
0020
,
0000
1030
0001
1000
0001
0100
1000
0200
,
0000
0301
0010
0001
0100
1000
0100
0010
,
0100
0001
0100
0010
0100
0001
1000
0002
,
0000
0000
1003
0000
0100
0000
1000
0000
0001
0010
0100
1000
0001
0000
1000
0000
,
0010
1000
0001
0100
0001
0000
1000
0000
0100
1000
0001
0010
0001
0000
1000
0000
,
0010
1000
0010
1000
0010
1000
0010
1000
0010
0000
1000
0000
0000
0000
2010
0000
,
0000
0000
3001
0000
0010
0000
1000
0000
0010
0000
0100
0000
0000
0000
1000
0001
,
1000
0001
1000
0000
0001
0000
0100
0000
1000
0000
0100
0000
0000
0000
0001
1000
,
0001
1000
0001
0000
1000
0000
0100
0000
0001
0000
0100
0000
0000
0000
1100
0000
,
0000
0100
0101
0000
1100
0000
0011
0000
,
1001
0000
0010
0100
0001
0011
0001
2000
,
0000
3010
0100
0010
0100
0001
0100
1000
,
0100
0000
0010
0000
1000
0000
0100
0000
1000
0010
1000
0010
0100
0001
0100
0001
,
1000
0100
0001
0100
1000
0100
0001
0100
,
1000
0100
0010
1000
0001
0000
1000
0000
,
0001
0010
0100
0000
1000
0001
0010
0000
,
0001
0100
0001
0000
1000
0010
0100
0000
,
0010
1000
0010
0000
1000
0000
0001
0000
0000
0000
1000
0000
0010
0000
0000
0000
,
1000
0000
0100
1000
0100
0000
0000
0000
1000
0000
0001
0000
0001
0000
0001
0000
,
0101
0001
1000
1100
1000
0001
0011
0001
,
1000
0000
0000
0001
0000
0000
1000
0000
0000
0001
0000
0000
1000
0000
0000
0000
0010
0000
0000
0000
0100
0000
0000
0000
0001
0000
0000
0000
0010
0000
0000
0000
0100
0000
0000
0000
1000
0000
0000
0000
0100
0000
0000
0000
0010
0000
0000
0000
,
0001
0100
1000
0100
0001
0100
1000
0100
,
0001
0000
0100
0000
0010
0000
0001
0000
1000
0001
1000
0001
0100
0000
0001
0000
,
1000
0001
0100
0100
0001
1000
0001
0010
,
0001
0100
0010
1000
0001
1002
0000
0000
,
1003
0100
1000
0100
0001
0100
0010
0001
1000
0001
0100
0001
,
1000
0010
1000
0010
0001
0010
0100
0001
1000
0001
0100
0001
,
2000
0000
0000
0000
,
3001
0010
0100
1000
0001
0100
1000
0100
,
0110
0010
1000
0010
1010
0010
1000
0001
,
0011
0001
0100
0001
1001
0001
1000
0100
,
1100
0100
1000
0100
0110
0010
0001
0010
,
0011
0010
0001
1000
1001
0001
0100
0001
,
0101
0001
0010
0100
0110
0010
0001
1000
,
1001
1000
0010
0100
0110
0010
1000
0001
,
1001
0001
0010
0100
0110
0100
1000
0001
,
0101
0100
1000
0100
0001
0010
0100
1000
,
1001
1000
0100
1000
1100
1000
0010
0100
,
0110
0010
1000
0001
1001
0001
0010
0100
,
0110
0000
0000
0010
0000
0000
0001
0000
0000
0100
0000
0000
0101
0000
0000
0001
0000
0000
1000
0000
0001
0000
0100
0000
,
0001
0010
0100
0010
0110
0010
0001
1000
,
1001
0000
0000
0001
0000
0000
1000
0000
0000
0010
0000
0000
1010
0000
0000
0010
0000
0000
1000
0000
0001
0000
0010
0000
,
0001
0000
0000
0100
0000
0000
0010
0000
0000
1000
0000
0000
1010
0000
0000
1000
0000
0000
0100
0000
0010
0000
0001
0000
,
1000
0010
0100
0001
0011
0001
0100
0010
,
1000
0100
1000
0001
0010
0001
1000
0010
0001
0010
0100
0001
,
1000
0100
0001
0100
1100
0100
0001
0100
,
1100
0000
0000
0100
0000
0000
1000
0000
0000
0001
0000
0000
1000
0000
0010
0000
0100
0000
0001
0000
0000
1000
0000
0000
,
1010
0010
0001
0010
1010
0010
0001
0010
,
2000
0000
3100
0002
0000
0103
0020
0000
,
0031
0010
1000
0010
0011
0010
1000
0010
,
0011
0001
0100
0010
1010
1000
0001
0100
,
0101
0100
1000
0100
0101
0100
1000
0100
,
0001
0010
0100
1000
0001
0100
0010
1000
,
1010
0010
0001
0010
1010
0100
0001
0100
,
1010
0100
0010
1000
1001
0001
0010
0100
,
0011
0010
1000
0010
0011
0100
1000
0001
,
1000
0100
0010
0001
0010
0100
1000
0001
0100
1000
0100
0001
,
0020
0000
0000
0001
1000
0000
0000
1000
,
0031
0000
1000
0000
0001
1000
0010
0000
,
0200
0000
0000
0001
1000
0000
0000
1000
,
0301
0010
1000
0010
0100
1000
0100
0001
0100
0010
0001
1000
,
0001
0100
0020
0000
0000
0000
0000
0000
,
0000
0000
0000
0000
,
0000
0000
0000
0000
,
0000
0000
0000
0000
,
0000
0000
0000
0000
,
0030
0000
0000
0000
;

//--------------- dance-single - t7r ----------------
#NOTES:
     dance-single:
     t7r:
     Challenge:
     19:
     1,1,0.887,0.248,0.755:
0000
0000
0000
0000
,
0000
0000
0000
0000
,
0000
0000
0000
0000
,
0000
0000
0000
0000
,
0000
0000
0000
0000
,
0000
0000
0000
0000
,
0000
0000
0000
0000
,
0000
0000
0000
0000
,
0000
0000
0000
0000
,
0000
0000
0000
0000
,
0000
0000
0000
0000
,
0010
1000
0100
1000
0010
0100
0001
0010
,
0100
0000
1000
0000
0001
0000
0010
0000
0001
0100
0001
0000
1000
0010
1000
0000
,
0100
1000
0010
1000
0100
1000
0001
0100
,
0010
0000
1000
0000
0001
0000
0010
0000
0100
0010
0100
0000
0010
0001
0010
0000
,
0001
0100
0010
1000
0010
0100
0010
0001
,
0010
0000
1000
0000
0100
0000
1000
0000
0010
0100
0010
0000
1000
0010
1000
0000
,
0100
0001
0100
0010
0100
1000
0100
0010
,
0001
0000
0100
0000
1000
0000
0100
0000
0001
0010
0001
0010
0100
0000
1000
0000
,
1001
0000
0000
0000
0010
0010
0010
0010
,
0200
0000
0000
0000
0301
0001
0001
0001
,
0020
0000
0000
0000
1030
1000
1000
1000
,
0020
0000
0000
0000
0031
0001
0001
0001
,
0200
0000
0000
0000
1300
1000
1000
1000
,
0200
0000
0000
0000
0301
0001
0001
0001
,
1000
0000
0100
1000
0001
0000
0100
0001
1000
0000
0010
1000
0001
0000
0010
0001
,
1000
0100
0001
0100
1000
0010
0001
0010
,
1010
0000
1000
0100
1000
1001
0000
0102
,
0000
0000
0013
0001
0100
0101
0000
2001
,
0000
0000
3010
1000
0100
1100
0000
0210
,
0000
0000
0310
0001
0100
0001
1000
2001
,
0000
3001
0010
0001
0101
0000
0010
1000
,
1100
0000
0000
0000
1010
0000
0010
0000
0100
0001
0100
0001
1000
0000
2001
0000
,
0000
0000
3001
0000
0011
0000
0000
0000
0001
1000
0100
1000
0001
0000
1000
0000
,
0001
0010
0100
0010
0001
0000
1000
0000
0001
0000
0010
0000
1000
0000
0010
0000
,
0001
0100
1000
1100
0000
0101
0000
2100
,
0000
3001
0010
1000
0010
0001
0100
0120
,
0000
1030
0010
0001
0010
1000
0100
0120
,
0000
0130
1000
0100
0001
0100
1000
1020
,
0000
0130
0101
0000
1100
0000
0011
0000
,
1001
0000
0101
0000
1000
0001
1000
1002
,
0000
1003
0100
0100
0010
0010
0001
0001
,
1000
0000
0010
0000
0001
0000
0010
0000
1000
0100
0010
0100
1000
0000
0001
0000
,
1000
0100
1000
0100
0001
0100
1000
0000
0000
0001
0010
0001
,
0010
1000
0010
0001
0000
0000
0101
0000
0000
1100
0000
0000
,
0001
0010
1000
0010
0100
1000
0100
0001
0100
0010
0001
0010
,
1000
0010
0100
1000
0001
1000
0001
0100
0001
0100
1000
0100
,
0001
0000
0000
1000
0010
1000
0010
0001
0010
1000
0000
0000
,
0110
0000
0000
0101
0000
0000
1000
0100
0001
0100
0010
0001
,
0010
1000
0010
0100
1000
0010
0001
0010
0100
0001
0100
1000
,
0100
0010
1000
0001
0100
0001
1000
0000
0000
0010
0100
0001
,
1000
0000
0100
0000
1000
0000
0001
0000
0000
0000
0000
0000
1100
0000
0000
0000
0000
0000
1000
0000
0000
0001
0000
0000
,
0011
0101
1010
0110
,
2002
0000
0000
0000
,
0000
0000
0000
3003
,
1100
0000
0100
1000
0100
0000
1000
0010
1000
0000
0001
1000
0001
0000
1000
0001
,
0010
0000
0001
1000
0001
0000
1000
0001
1000
0100
1000
0000
0001
0100
0001
0000
,
0101
0000
0001
0100
0001
0000
1000
0010
1000
0000
0001
0010
0001
0000
1000
0100
,
0010
0000
0100
1000
0100
0000
1000
0001
0100
0001
0100
0000
0010
0100
0010
0000
,
0110
0000
0010
1000
0010
0000
1000
0001
1000
0000
0001
0010
0001
0000
0100
0010
,
1000
0000
0010
0100
0010
0000
0100
0001
1000
0100
1000
0000
0001
0010
0001
0000
,
0011
0000
0001
1000
0100
0000
1000
0001
0010
0000
0001
1000
0010
0000
0100
0010
,
1000
1010
0000
0000
0101
0101
0000
0000
,
2100
0000
3001
0100
0010
0110
0000
2010
,
0000
3001
0010
0100
0010
0011
0000
1002
,
0000
1003
0100
0001
0100
1100
0000
0021
,
0000
0031
0010
1000
0010
0100
1000
1002
,
0000
0103
0001
0100
1000
0100
0010
1000
,
0010
0001
0010
0100
0001
1000
0100
2100
,
0000
3001
0010
1000
0010
0100
1000
0001
,
1000
0100
0010
0001
0010
0100
1000
0000
0001
0100
0010
1000
0010
0100
0001
0000
,
1000
0100
1000
0100
0010
0100
0010
0100
0010
0000
0001
0000
0000
0000
0012
0000
,
0000
0000
1003
0000
0001
0000
0100
0000
0001
0000
1000
0000
0010
0000
0100
0001
,
0100
0001
0100
0010
1000
0000
0001
0000
0100
0000
1000
0000
0100
0000
0010
1000
,
0010
1000
0010
0100
0001
0000
1000
0000
0100
0000
1000
0000
0001
0000
1001
0000
,
0001
1000
1100
0000
0101
0000
1100
0000
,
0011
0000
1001
0001
0100
0100
0100
0120
,
0000
1030
0010
0010
0100
0100
0001
0001
,
1000
0100
1000
0001
1000
0000
0001
0000
0100
0001
0100
0010
0100
0000
0010
0000
,
1000
1000
0100
0100
0001
0001
0100
0100
,
1000
0010
0001
0010
2000
0000
3001
0000
,
1000
0100
0010
0001
2000
0000
0000
0000
3010
0000
0100
0000
0000
0000
0000
0000
,
0001
0010
0100
1000
0001
0100
0010
1000
,
0001
0010
0001
1000
0001
0000
0100
0000
0000
0000
0100
0000
0010
0000
0000
0000
,
1000
0010
0100
0010
1000
0000
0001
0000
0000
0000
0001
0000
0100
0000
0000
0000
,
0011
0001
1000
0101
0001
1000
1100
1000
,
0001
0000
0000
1000
0000
0000
0001
0000
0000
0010
0000
0000
0001
0000
0000
0000
0100
0000
0000
0000
0010
0000
0000
0000
1000
0000
0000
0000
0001
0000
0000
0000
0010
0000
0000
0000
0100
0000
0000
0000
1000
0000
0000
0000
0100
0000
0000
0000
,
0010
0001
0100
1000
0100
0001
0100
0010
,
1000
0000
0010
0000
0001
0000
0010
0000
0100
0010
1000
0001
1000
0000
0001
0010
,
0100
0010
0100
0100
0010
0001
0010
1000
,
0010
0100
1000
0001
0101
1002
0000
0000
,
1003
0100
1000
0100
0001
0100
1000
0010
1000
0010
0001
0010
,
1000
0010
0100
0001
0010
0100
1000
0100
0001
0100
1000
0010
,
0200
0000
0000
0000
,
0310
0010
0010
0010
1000
1000
0001
0001
,
1001
0001
0100
0001
1001
1000
0100
1000
,
1001
0001
0010
1000
1010
0010
0001
1000
,
1001
0001
0010
0001
1001
1000
0010
1000
,
1010
0010
0100
0001
0101
0100
0010
1000
,
1100
0100
0010
0001
0011
0010
0100
1000
,
1100
1000
0010
0100
0101
0100
0001
0010
,
0011
0001
0100
1000
1100
1000
0100
0001
,
0101
0010
0100
1000
1010
0100
0001
1000
,
1001
1000
0100
1000
1001
0001
0010
0001
,
0101
0000
0000
0100
0000
0000
0001
0000
0000
0010
0000
0000
0110
0000
0000
0100
0000
0000
1000
0000
0001
0000
0100
0000
,
0110
0000
0000
0100
0000
0000
0001
0000
0000
0100
0000
0000
0110
0000
0000
0010
0000
0000
1000
0000
0001
0000
0010
0000
,
0011
0000
0000
0001
0000
0000
1000
0000
0000
0100
0000
0000
1100
0000
0000
1000
0000
0000
0001
0000
1000
0000
0010
0000
,
1010
0000
0000
1000
0000
0000
0100
0000
0000
1000
0000
0000
1001
0000
0000
0001
0000
0000
0100
0000
0001
0000
1000
0000
,
1010
0000
0000
0010
0000
0000
0100
0000
0000
0001
0000
0000
0101
0000
0000
0001
0000
0000
1000
0000
0001
0000
0100
0000
,
0110
0010
1000
0001
1001
0001
0010
0100
,
1000
0100
0001
0100
0010
0001
0010
1000
0010
0100
1000
0001
,
1000
0100
0010
0100
1000
0100
0001
0100
1000
0100
0010
0001
,
1000
0000
0000
0000
0000
0000
0001
0000
0000
0000
0000
0000
1001
0000
0001
0000
0100
0000
0001
0000
0000
0100
0000
0000
,
0110
0000
0000
0010
0000
0000
1000
0000
0000
0001
0000
0000
0011
0000
0000
0001
0000
0000
1000
0000
0001
0000
0100
0000
,
0101
0001
0010
0100
1100
1000
0010
0100
,
0110
0010
1000
0010
0011
0010
1000
0010
,
0110
0000
0000
0010
0000
0000
1000
0000
0000
0100
0000
0000
0001
0000
0100
0000
1000
0000
0100
0000
0010
0000
0001
0000
,
0011
0001
0100
0001
1001
1000
0010
0100
,
0110
1000
0100
0001
0110
0001
0100
1000
,
0110
0100
1000
0100
0101
0001
0010
0100
,
0110
0010
0001
1000
1001
0001
0100
0010
,
1010
1000
0100
0010
0011
0001
1000
0010
,
1000
0010
1000
0010
0001
0010
0001
0010
1000
0100
0010
0001
,
0200
0000
0000
0301
0012
0000
0000
1003
,
1100
0000
0000
1001
0000
0000
1000
0010
0100
0001
0000
0000
,
0210
0000
0000
0301
0101
0000
0000
0010
,
1000
0100
0001
0100
1000
0010
0100
0001
0010
0100
1000
0010
,
0100
0001
0020
0000
0000
0000
0000
0000
,
0000
0000
0000
0000
,
0000
0000
0000
0000
,
0000
0000
0000
0000
,
0000
0000
0000
0000
,
0030
0000
0000
0000
;

//--------------- dance-double - t7r ----------------
#NOTES:
     dance-double:
     t7r:
     Easy:
     11:
     0.535,0.595,0.451,0.271,0:
00000000
00000000
00000000
00000000
,
00000000
00000000
00000000
00000000
,
00000000
00000000
00000000
00000000
,
00000000
00000000
00000000
00000000
,
00000000
00000000
00000000
00000000
,
00000000
00000000
00000000
00000000
,
00000000
00000000
00000000
00000000
,
00000000
00000000
00000000
00000000
,
00000000
00000000
00000000
00000000
,
00000000
00000000
00000000
00000000
,
00000000
00000000
00000000
00000000
,
00010000
00100000
01000000
10000000
,
11000000
00100000
00001000
00010000
,
00000010
00001000
00000001
00000100
,
00000101
00000001
00000010
00000100
,
00010000
00001000
00100000
00010000
,
01010000
00010000
01000000
00100000
,
10000000
01000000
00100000
00010000
,
00001000
00001000
00010000
00010000
,
00000010
00000000
00000100
00000010
,
00000200
00000000
00000301
00001000
,
00000020
00000000
00001030
00000100
,
00020000
00000000
00031000
00100000
,
00020000
00000000
01030000
00100000
,
20000000
00000000
30100000
01000000
,
00010000
00010000
10000000
10000000
,
01000000
00100000
00001000
00010000
,
00021000
00000000
00000000
00000000
00030010
00000000
00000000
00000200
,
00000000
00000000
00000301
00000000
00000010
00000000
00000000
00000002
,
00000000
00000000
00001003
00000000
00000100
00000000
00000000
00020000
,
00000000
00000000
00031000
00000000
00100000
00000000
00000000
00020000
,
00000000
01030000
00100000
01000000
,
10000000
00000000
01000000
00000000
00100000
00000000
00000000
20000000
,
00000000
31000000
00100000
01000000
,
00010000
01000000
00100000
00001000
,
00010000
00000000
00010000
00000000
00000010
00000000
00000000
00000200
,
00000000
00000000
00000310
00000000
00001000
00000000
00000000
00000002
,
00000000
00000000
00000013
00000000
00000100
00000000
00000000
00020000
,
00000000
00000000
00030100
00000000
00010000
00000000
00000000
00002000
,
00000000
01003000
01100000
01000000
,
01100000
00000000
00100000
00000000
10000000
00000000
00000000
00020000
,
00000000
10030000
01000000
00100000
,
00001000
00010000
00000010
00000100
,
00000001
00000001
00000101
00000001
,
00001000
00001000
00001100
00000100
,
00010000
00001000
00100000
00010000
,
01000000
00100000
10000000
10000000
,
11000000
10000000
00010000
00010000
,
10010000
00010000
01000000
00010000
,
00100000
00001000
00010000
00000010
,
00000100
00000100
00000110
00000010
,
00001000
00001000
00001010
00000010
,
00010000
00001000
00100000
00001000
,
00022000
00000000
00000000
00000000
,
00000000
00000000
00000000
00033000
,
00001000
01000000
00100000
10000000
,
11000000
01000000
00100000
00010000
,
00001000
00100000
00001000
00010000
,
00011000
00010000
00000010
00000100
,
00000001
00000010
00000100
00001000
,
00001100
00000100
00010000
00001000
,
00100000
00010000
01000000
00100000
,
10000000
00010000
00000000
00000000
00100000
00001000
00000000
00000000
,
00020000
00000000
00000010
00000000
00030100
00000000
00000000
00002000
,
00000000
00000000
00003010
00000000
00000100
00000000
00000000
00000002
,
00000000
00000000
00000013
00000000
00000100
00000000
00000000
00020000
,
00000000
00000000
00030100
00000000
00010000
00000000
00000000
00002000
,
00000000
01003000
01100000
01000000
,
01100000
00000000
00100000
00000000
10000000
00000000
00000000
02000000
,
00000000
03100000
00001000
00010000
,
00000010
00001000
00000001
00000100
,
00000001
00000000
00000010
00000000
00000100
00000000
00000000
00002100
,
00000000
00000000
00003001
00000000
00001000
00000000
00000000
00020010
,
00000000
00000000
00030010
00000000
00000100
00000000
00000000
00010200
,
00000000
00000000
00010300
00000000
00001000
00000000
00000000
01010000
,
00000000
00100000
01100000
00100000
,
01100000
00000000
00100000
00000000
10000000
00000000
00000000
20010000
,
00000000
31000000
00100000
00100000
,
00001000
00001000
00010000
00010000
,
00000010
00000100
00000010
00001000
,
00000010
00000001
00000010
00000100
,
00000001
00000000
00000010
00000000
00000000
00000010
00000000
00000000
,
00000100
00010000
00001000
00000000
,
00100000
00000000
00000000
00010000
00000000
00010000
00000000
00000000
,
01000000
00100000
10000000
00000000
,
01000000
00000000
00000000
01100000
00000000
00000000
00101000
00000000
,
00001000
00010000
00000010
00000100
,
00000001
00000010
00001000
00000010
,
00000001
00000100
00001000
00000100
,
00000010
00010000
00010100
00000000
,
00000100
00010000
00011000
00000000
,
00110000
00010000
01010000
01000000
,
01001000
00001000
00011000
00010000
,
00020020
00000000
00000000
00030030
,
00000010
00000100
00000001
00001000
,
00001001
00000000
00000101
00000001
,
00001000
00000100
00001100
00000000
,
00010010
00000000
00010100
00000100
,
00010000
00001000
00011000
00000000
,
00101000
00000000
01010000
00010000
,
01000000
00100000
01100000
00000000
,
10100000
00000000
11000000
01000000
,
00100000
00001000
00010000
00001000
,
00011000
00000000
00010010
00000010
,
00000100
00000001
00000101
00000000
,
00000011
00000000
00001001
00000001
,
00001000
00000100
00001100
00000100
,
00010100
00000000
00011000
00001000
,
00100000
00010000
01010000
00000000
,
00100000
10000000
01000000
00010000
,
01000000
00100000
00001000
00010000
,
00000010
00000000
00000100
00000000
00000010
00000000
00000000
00000010
,
00002000
00000100
00003001
00000000
,
00000100
00000000
00000010
00000000
00010000
00000000
00000000
00010000
,
00002000
01000000
00103000
00000000
,
00010000
00000000
01000000
00000000
00100000
00000000
00000000
00100000
,
20000000
01000000
30010000
00000000
,
01000000
00100000
01000000
00000000
,
00001000
00100000
00001000
00010000
,
00000010
00000100
00000010
00001000
,
00001010
00001000
00001100
00000000
,
00000100
00010000
00001000
00010000
,
00011000
00001000
01001000
01000000
,
01200000
00000000
10000000
00000000
,
00310000
00001000
00010000
00000010
,
00000210
00000000
00000001
00000000
,
00001000
00000301
00000010
00000100
,
00010000
00001000
00020000
00000000
00000000
00000000
00000000
00000000
,
00000000
00000000
00000000
00000000
,
00000000
00000000
00000000
00000000
,
00000000
00000000
00000000
00000000
,
00000000
00000000
00000000
00000000
,
00030000
00000000
00000000
00000000
;

//--------------- dance-double - t7r ----------------
#NOTES:
     dance-double:
     t7r:
     Medium:
     15:
     0.771,0.843,0.256,0.188,0.128:
00000000
00000000
00000000
00000000
,
00000000
00000000
00000000
00000000
,
00000000
00000000
00000000
00000000
,
00000000
00000000
00000000
00000000
,
00000000
00000000
00000000
00000000
,
00000000
00000000
00000000
00000000
,
00000000
00000000
00000000
00000000
,
00000000
00000000
00000000
00000000
,
00000000
00000000
00000000
00000000
,
00000000
00000000
00000000
00000000
,
00000000
00000000
00000000
00000000
,
00100000
10000000
00100000
10000000
00010000
00000000
00100000
00001000
,
00010000
00000010
00000100
00000001
,
00000010
00000001
00000010
00000001
00001000
00000000
00000010
00010000
,
00001000
00010000
00001000
00100000
,
00010000
01000000
00010000
01000000
00100000
00000000
10000000
01000000
,
00100000
01000000
10000000
00010000
,
01000000
00001000
01000000
00001000
00100000
00000000
00001000
00010000
,
00001000
00000000
00010000
00000000
00000010
00000100
00000010
00000000
,
00001001
00000000
00000000
00000000
00000001
00000010
00000100
00000010
,
00000001
00000000
00000000
00000000
00001000
00000100
00000010
00000100
,
00020000
00000000
00000000
00000000
00031000
01000000
00100000
01000000
,
00010000
00000000
00000000
00000000
10000000
01000000
00100000
01000000
,
10000000
00000000
00000000
00000000
00100000
01000000
00001000
01000000
,
00100000
00000000
00000000
00000000
01000000
00001000
00010000
00001000
,
00010000
00001000
00010000
00001000
00010000
00000010
00010000
00000010
,
00000100
00000010
00000100
00000010
00010000
00001000
00010000
00001000
,
00010000
00000000
00001000
00000000
01000000
00010000
00000000
01020000
,
00000000
00000000
10030000
00000000
01000000
10000000
00000000
21000000
,
00000000
00000000
31000000
00000000
00100000
00001000
00000000
00021000
,
00000000
00000000
00030010
00000000
00000100
00000010
00000000
00000110
,
00000000
00000010
00001000
00000000
00000100
00000000
00001100
00000000
,
00001000
00000000
00001001
00000000
00000001
00000100
00000010
00020000
,
00000000
00031000
00010000
00000000
00001000
01000000
00001000
00000000
,
01000000
00100000
01000000
00000000
00100000
10000000
00010000
00000000
,
10000000
01000000
00100000
00002000
00000000
00013000
00000000
00021000
,
00000000
00000000
00030010
00000000
00000100
00000010
00000000
00000120
,
00000000
00000000
00010030
00000000
00000010
00010000
00000000
00010200
,
00000000
00000000
00010300
00000000
00001000
00010000
00000000
00011000
,
00000000
00001000
01000000
00000000
01010000
00000000
01000000
00000000
,
11000000
00000000
01000000
00000000
00010000
00100000
00001000
00020000
,
00000000
00030010
00000100
00000000
00000001
00001000
00000100
00000000
,
00001000
00000010
00001000
00000010
00000100
00000001
00000100
00000001
,
00001000
00000000
00000100
00001000
00000000
00000100
00010000
00000000
00000000
00001000
00000000
01000000
,
00001000
00000000
01000000
00010000
00000000
00000000
10000000
00000000
00000000
01000000
00000000
00000000
,
00100000
00000000
00100000
01000000
00000000
01000000
10000000
00000000
10000000
00010000
00000000
00010000
,
01000000
00000000
01000000
00001000
00000000
00001000
00010000
00000000
00000010
00010000
00000000
00000010
,
00001000
00000000
00000000
00000010
00000000
00000100
00000010
00000000
00010000
00000010
00000000
00000000
,
00010000
00000000
00010000
00001000
00000000
00001000
01000000
00000000
01000000
00100000
00000000
00100000
,
10000000
00000000
10000000
01000000
00000000
01000000
00100000
00000000
00100000
00001000
00000000
00001000
,
00010000
00000000
00000010
00010000
00000000
00000010
00001000
00000000
00000000
00000001
00000000
00000010
,
00000001
00000000
00000000
00000000
00000010
00000000
00000100
00000000
00000000
00000000
00000000
00000000
00010000
00000000
00000000
00000000
00000000
00000000
00001000
00000000
00000000
01000000
00000000
00000000
,
00100000
10000000
01000000
00100000
,
00022000
00000000
00000000
00000000
,
00000000
00000000
00000000
00033000
,
00001000
01000000
00001000
01000000
00001000
01000000
00001000
01000000
,
00100000
00000000
10000000
01000000
00100000
01000000
10000000
00000000
,
00100000
10000000
00100000
10000000
00100000
10000000
00100000
10000000
,
00001000
00000000
00100000
00001000
01000000
00001000
00100000
00000000
,
00001000
00010000
00001000
00010000
00001000
00010000
00001000
00010000
,
00000010
00000000
00000100
00000001
00001000
00000001
00000100
00000000
,
00000001
00000010
00000001
00000010
00000001
00000010
00000100
00010000
,
00001000
00001000
00000000
00000000
00010000
00010000
00000000
00000000
,
00002000
00000000
01003000
00000000
00100000
10000000
00000000
20100000
,
00000000
00000000
31000000
00000000
00100000
00001000
00000000
00021000
,
00000000
00000000
00031000
00000000
00010000
00000010
00000000
00000120
,
00000000
00000000
00000130
00000000
00000010
00001000
00000001
00000200
,
00000000
00000301
00000010
00000000
00000110
00000000
00000010
00000000
,
00000011
00000000
00000001
00000000
00000100
00000010
00010000
00002000
,
00000000
00103000
00010000
00000000
01000000
00100000
10000000
00000000
,
00100000
10000000
01000000
00000000
00100000
00001000
00010000
00000000
,
00000010
00010000
00000100
00010000
00000000
00000010
00000000
00000210
,
00000000
00000000
00000301
00000010
00000100
00001000
00000010
00020000
,
00000000
00000000
00031000
01000000
00100000
10000000
00010000
20000000
,
00000000
00000000
31000000
00100000
00001000
00010000
00000010
00000100
,
00000000
00000100
00000010
00000000
00000110
00000000
00000010
00000000
,
00001010
00000000
00001000
00000000
00000100
00010000
00001000
00020000
,
00000000
00031000
01000000
00000000
00100000
10000000
01000000
00000000
,
00100000
00001000
00010000
00001000
00010000
00000010
00000100
00000001
,
00001000
00000100
00000010
00000100
00001000
00000100
00000010
00000100
,
00001000
00000100
00000010
00000001
00001000
00000000
00000001
00000000
,
00000100
00000010
00010000
00001000
00000000
00001000
00010000
00000000
,
00001000
01000000
00100000
00000000
10000000
01000000
00100000
00000000
,
01000000
10000000
00010000
10000000
00000000
10000000
00100000
00000000
,
10000000
00010000
01000000
00000000
00010000
00100000
00001000
00000000
,
00011000
00000000
00001000
01000000
00000000
01000000
00001000
00000000
,
00010000
00001000
00010000
00001000
00010000
00000010
00000100
00000001
,
00001000
00000100
00001000
00000100
00000010
00000001
00000010
00000001
,
00001000
00000010
00000100
00000001
00001000
00000000
00000001
00000000
,
00000010
00000100
00000010
00000100
00010000
00000100
00010000
00000100
,
00010000
00001000
01000000
00100000
10000000
00020000
00000000
00000000
,
10030000
00000000
10000000
01000000
00000000
01000000
00100000
00000000
00100000
00001000
00000000
00001000
,
00010000
00000000
00010000
00000010
00000000
00000010
00000100
00000000
00000100
00000001
00000000
00000001
,
00002000
00000000
00000000
00000000
,
00003001
00000010
00000001
00000010
00000001
00001000
00000001
00001000
,
00000010
00000000
00000000
00000010
00010000
00000000
00000100
00000000
,
00010000
00000100
00000000
00000100
00010000
00000000
00001000
00000000
,
00100000
00000000
00000000
00100000
00010000
00000000
01000000
00000000
,
00100000
10000000
00000000
10000000
00010000
00000000
10000000
00000000
,
00010000
00000000
00000000
00010000
10000000
00000000
01000000
00000000
,
00100000
01000000
00000000
01000000
10000000
00000000
00100000
00000000
,
01000000
00000000
00000000
01000000
00001000
00000000
00100000
00000000
,
00001000
00010000
00000010
00010000
00000100
00010000
00000010
00000100
,
00000001
00000000
00000000
00000001
00000010
00000000
00000100
00000000
,
00000010
00000001
00000000
00000001
00001000
00000000
00000001
00000000
,
00000100
00000000
00000000
00000100
00000010
00000000
00010000
00001000
,
00010000
00000100
00000000
00000100
00010000
00000000
00001000
01000000
,
00001000
00000000
00000000
00001000
01000000
00000000
00100000
00000000
,
10000000
00010000
00000000
00010000
01000000
00000000
00010000
00000000
,
10000000
01000000
00100000
00001000
00010000
00000000
00011000
00000000
,
00010000
00000010
00000100
00000001
00001000
00000000
00001001
00000000
,
00000001
00000010
00000100
00000010
00000001
00000010
00000100
00000000
,
00000110
00000000
00000010
00000001
00000100
00000000
00000010
00010000
,
00000100
00010000
00000010
00010000
00001000
00010000
00000100
00010000
,
00001000
00000000
00011000
00000000
00001000
01000000
00100000
00000000
,
10000000
00100000
01000000
00100000
10000000
00100000
01000000
00100000
,
10000000
00000000
10100000
00000000
10000000
01000000
00100000
00000000
,
00001000
00100000
00001000
00010000
00001000
00100000
00001000
01000000
,
00001000
00000000
00011000
00000000
00010000
00000010
00000100
00000000
,
00000010
00001000
00000100
00000000
00001100
00000000
00000100
00010000
,
00001000
00000000
00011000
00000000
00001000
01000000
00100000
00000000
,
10000000
00010000
01000000
00000000
01010000
00000000
00010000
01000000
,
00001000
00000000
00011000
00000000
00010000
00000010
00000100
00000010
,
00001000
00000000
00000000
00001000
00000100
00000000
00000000
00000100
,
00000010
00000000
00000001
00000100
00000001
00000000
00000101
00000000
,
00000010
00000000
00000000
00000010
00010000
00000000
00000000
00010000
,
00001000
01000000
00001000
00000000
00100000
00001000
00010000
00000000
,
00001000
00010000
00002000
00000000
00000000
00000000
00000000
00000000
,
00000000
00000000
00000000
00000000
,
00000000
00000000
00000000
00000000
,
00000000
00000000
00000000
00000000
,
00000000
00000000
00000000
00000000
,
00003000
00000000
00000000
00000000
;

//--------------- dance-double - t7r ----------------
#NOTES:
     dance-double:
     t7r:
     Hard:
     18:
     1,1,0.534,0.271,0.556:
00000000
00000000
00000000
00000000
,
00000000
00000000
00000000
00000000
,
00000000
00000000
00000000
00000000
,
00000000
00000000
00000000
00000000
,
00000000
00000000
00000000
00000000
,
00000000
00000000
00000000
00000000
,
00000000
00000000
00000000
00000000
,
00000000
00000000
00000000
00000000
,
00000000
00000000
00000000
00000000
,
00000000
00000000
00000000
00000000
,
00000000
00000000
00000000
00000000
,
00100000
10000000
00010000
01000000
00100000
10000000
00100000
01000000
,
00001000
00000000
00100000
00000000
00001000
00000000
00010000
00000000
00001000
00010000
00001000
00000000
00010000
00001000
00010000
00000000
,
00000010
00001000
00000001
00000100
00000010
00001000
00000010
00000100
,
00000001
00000000
00000010
00000000
00000100
00000000
00010000
00000000
00001000
00010000
00001000
00000000
00010000
00001000
00010000
00000000
,
00001000
01000000
00100000
10000000
00010000
00100000
01000000
00100000
,
00001000
00000000
00100000
00000000
00001000
00000000
00010000
00000000
00001000
01000000
00001000
00000000
01000000
00001000
01000000
00000000
,
00001000
00010000
00000010
00000100
00000001
00000010
00000100
00000010
,
00000001
00000100
00000001
00000000
00000010
00000000
00000100
00000000
00010000
00001000
00010000
00000000
00001000
01000000
00001000
00000000
,
01000000
00000000
00000000
00000000
00100000
10000000
01000000
10000000
,
00100000
00000000
00000000
00000000
01000000
00001000
00100000
00001000
,
00020000
00000000
00000000
00000000
00030010
00000100
00000001
00000100
,
00000010
00000000
00000000
00000000
00000100
00000100
00000100
00000100
,
00000020
00000000
00000000
00000000
00010030
00000100
00010000
00001000
,
00020000
00000000
00000000
00000000
00031000
01000000
00100000
10000000
,
00010000
00000000
00100000
00010000
00100000
00000000
00010000
00000000
01000000
00000000
00100000
00000000
10000000
00000000
00010000
00000000
,
10000000
00000000
01000000
10000000
01000000
00000000
00100000
00000000
00001000
00000000
00010000
00000000
00001000
00000000
00010000
00000000
,
00012000
00000000
00103000
00001000
01000000
00001000
00000000
02001000
,
00000000
03100000
01000000
00010000
10000000
01000000
00000000
21000000
,
00000000
30100000
01000000
00001000
00100000
00001000
00000000
00021000
,
00000000
00030010
00000100
00000001
00001000
00000001
00000010
00000200
,
00000000
00000310
00000001
00000100
00001000
00000100
00000001
00000010
,
00001000
00000000
00000010
00000000
00000001
00000000
00000100
00000000
00000010
00010000
00001000
00010000
00001000
00000000
00020000
00000000
,
00000000
00000000
00031000
00000000
01000000
00000000
00100000
00000000
10000000
01000000
10000000
01000000
00100000
00000000
00010000
00000000
,
00100000
00001000
00010000
00001000
00100000
00000000
00001000
00000000
00010000
00000010
00000100
00000010
00010000
00000000
00000001
00000000
,
00001000
00000100
00000010
00000001
00000000
00000101
00000000
00002010
,
00000000
00003010
00010000
00001000
00100000
00001000
01000000
00200000
,
00000000
00000000
10300000
00000000
00010000
00000000
00100000
01000000
10000000
00000000
01000000
00000000
00100000
00000000
00001000
00010000
,
00000010
00000000
00000100
00000000
00000010
00000000
00001000
00000001
00000100
00000000
00000001
00001000
00000001
00000000
00002000
00000000
,
00000000
00003010
00000100
00000000
00000110
00000000
00010010
00000000
,
00010100
00000000
00000100
00010000
00001000
01000000
00100000
20000000
,
00000000
31000000
00100000
00100000
00001000
00001000
00010000
00010000
,
00000010
00000000
00000000
00000010
00000000
00000000
00000100
00000000
00000000
00000100
00000000
00000000
00000001
00000000
00001000
00000000
00000001
00000000
00001000
00000000
00000000
00000000
00000000
00000000
,
00000001
00000100
00000001
00000100
00000001
00000100
00000010
00000000
00000000
00010000
00000100
00010000
,
00000100
00010000
00001000
00010000
00000000
00000000
00011000
00000000
00000000
01000000
00000000
00000000
,
00100000
10000000
00010000
10000000
01000000
00100000
00001000
00100000
00010000
00100000
00001000
00010000
,
00000010
00000100
00000010
00000100
00000010
00000100
00000001
00000010
00000001
00000010
00000001
00001000
,
00000001
00000000
00000000
00010000
00000010
00000100
00000010
00000000
00000000
00010000
00000000
00000000
,
00011000
00000000
00000000
00001000
00000000
00000000
01000000
00100000
10000000
00100000
01000000
00001000
,
00100000
00001000
00010000
00000010
00001000
00000001
00000010
00000100
00001000
00000100
00000010
00000001
,
00000100
00000010
00000100
00000010
00000100
00000010
00010000
00000000
00000000
00001000
00010000
00001000
,
00100000
00000000
00001000
00000000
01100000
00000000
00010000
10000000
,
01000000
00100000
00001000
00010000
,
00022000
00000000
00000000
00000000
,
00000000
00000000
00000000
00033000
,
00001000
01000000
00100000
01000000
00010000
00100000
01000000
10000000
,
01000000
00000000
00100000
00000000
00001000
00000000
00010000
00000000
00001000
00010000
00001000
00000000
00010000
00001000
00010000
00000000
,
00000010
00001000
00000001
00000100
00000001
00000010
00000100
00001000
,
00000100
00000000
00000010
00000000
00000001
00000000
00001000
00000000
00000010
00001000
00000010
00000000
00001000
00000100
00001000
00000000
,
00000100
00010000
00001000
00100000
00010000
01000000
00100000
10000000
,
00010000
00000000
10000000
00000000
01000000
00000000
00100000
00000000
00001000
00010000
00001000
00000000
00010000
00001000
00010000
00000000
,
00000010
00001000
00000001
00000100
00000010
00010000
00000100
00000010
,
00000100
00010100
00000000
00000000
00011000
00011000
00000000
00000000
,
02001000
00000000
03001000
01000000
00100000
10000000
00000000
21000000
,
00000000
31000000
00100000
00001000
00010000
00001000
00000000
00021000
,
00000000
00030010
00000100
00000001
00001000
00000100
00000000
00002100
,
00000000
00003100
00000010
00000001
00000100
00000010
00010000
00002000
,
00000000
01003000
00010000
01000000
10000000
01000000
00010000
01000000
,
10000000
01000000
00100000
10000000
00010000
00100000
01000000
20000000
,
00000000
00000000
31000000
00000000
00100000
00000000
00001000
00000000
00010000
00000010
00000100
00000010
00010000
00000000
00000001
00000000
,
00000010
00000100
00010000
00000100
00010000
00000000
00001000
00000000
00100000
00010000
01000000
00010000
00100000
00000000
00010000
00000000
,
10000000
00010000
10000000
00010000
10000000
00010000
10000000
00010000
10000000
00000000
00010000
00000000
00000000
00000000
02001000
00000000
,
00000000
03001000
00100000
00001000
00010000
00000010
00000100
00000102
,
00000000
00000013
00000100
00010000
00000100
00010000
00001000
00012000
,
00000000
01003000
00100000
10000000
01000000
11000000
00000000
00210000
,
00000000
00301000
00011000
00000000
00010100
00000000
00011000
00000000
,
00101000
00000000
00011000
00001000
01000000
00100000
10000000
20010000
,
00000000
31000000
00100000
00100000
00001000
00001000
00010000
00010000
,
00000010
00000000
00000000
00000010
00000000
00000000
00000100
00000000
00000000
00000100
00000000
00000000
00000001
00000000
00000010
00000000
00000001
00000000
00000010
00000000
00000100
00000000
00010000
00000000
,
00001000
01000000
10000000
01000000
00010000
01000000
10000000
01000000
,
00010000
00100000
01000000
10000000
00020000
00000000
10030000
00000000
,
01000000
00100000
00002000
00000000
00013000
00000100
00000000
00000100
,
00000001
00000100
00001000
00000010
00000100
00000001
00001000
00000000
,
00000001
00001000
00000001
00000000
00000100
00000000
00000001
00000000
00000000
00000000
00000001
00000000
00001000
00000000
00000000
00000000
,
00000001
00000010
00000100
00010000
00001000
00100000
00010000
00000000
,
11000000
00000000
01000000
00100000
00000000
00100000
00001000
00000000
,
00010000
00000010
00010000
00000010
00000100
00000010
00001000
00000100
00000010
00000001
00000010
00000100
,
00010000
00001000
00100000
00001000
00010000
00001000
00100000
00001000
,
00010000
00000000
00000000
00000010
00000000
00000000
00000100
00000000
00000000
00000001
00000000
00000000
00001000
00000000
00000100
00000000
00001000
00000000
00000001
00000000
00000000
00000010
00000000
00000000
,
00000100
00010000
00000100
00000100
00010000
00001000
00100000
00010000
,
01000000
00100000
10000000
01000000
00100000
00201000
00000000
00000000
,
00301000
00010000
00001000
00010000
00000010
00000100
00000001
00000010
00000100
00010000
00001000
00010000
,
00001000
00100000
00010000
00100000
00010000
01000000
00100000
10000000
01000000
00010000
01000000
00100000
,
00002000
00000000
00000000
00000000
,
00013000
00001000
00010000
00001000
00010000
00001000
00010000
00001000
,
00011000
00010000
00000010
00000100
00000110
00000010
00001000
00000100
,
00001100
00000100
00000000
00000100
00000110
00000010
00000001
00000100
,
00000110
00000010
00010000
00001000
00011000
00001000
01000000
00100000
,
01100000
00100000
00000000
00100000
10100000
10000000
01000000
10000000
,
10010000
00010000
01000000
00010000
00110000
00100000
00001000
00010000
,
00011000
00010000
00000000
00010000
00011000
00010000
00000010
00000100
,
00000110
00000010
00001000
00000001
00001001
00000001
00000010
00000100
,
00001000
00000100
00000001
00000100
00010000
00001000
00100000
00010000
,
01010000
00010000
01000000
00100000
10100000
10000000
01000000
00100000
,
01100000
01000000
00000000
01000000
11000000
10000000
00010000
01000000
,
01001000
00000000
00000000
00001000
00000000
00000000
00100000
00000000
00000000
00001000
00000000
00000000
00011000
00000000
00000000
00001000
00000000
00000000
00010000
00000000
00000010
00000000
00000100
00000000
,
00000010
00000100
00000000
00000100
00000110
00000010
00010000
00001000
,
00011000
00000000
00000000
00001000
00000000
00000000
01000000
00000000
00000000
00100000
00000000
00000000
10100000
00000000
00000000
10000000
00000000
00000000
00010000
00000000
10000000
00000000
00010000
00000000
,
01000000
00001000
00000000
00001000
00101000
00001000
00010000
00001000
,
01000000
10000000
01000000
00010000
01000000
00010000
00100000
01000000
,
10000000
01000000
10000000
01000000
00100000
00001000
00100000
00001000
00010000
00000010
00010000
00000010
,
00000100
00000010
00001000
00000000
00001100
00000100
00000000
00000100
,
00010100
00000000
00000000
00000100
00000000
00000000
00010000
00000000
00000000
00001000
00000000
00000000
00100000
00000000
00010000
00000000
01000000
00000000
00010000
00000000
00000000
00000000
00000000
00000000
,
10000000
01000000
00100000
00000000
00101000
00001000
00000000
00001000
,
00021000
00000000
00030010
00000200
00000000
00000301
00002000
00000000
,
00003100
00010000
00001000
00000000
00101000
00001000
00000000
00001000
,
00011000
00000000
00001000
01000000
00100000
10000000
00010000
00000000
,
11000000
01000000
00100000
00000000
00101000
00001000
00000000
00001000
,
00011000
00010000
00000010
00000100
00000001
00000010
00001000
00010000
,
00011000
00001000
01000000
00000000
01100000
00100000
00000000
00100000
,
10100000
00000000
10000000
01000000
00010000
00001000
00000100
00000000
,
00000110
00000010
00010000
00000000
00011000
00001000
00000000
00001000
,
01000000
00010000
10000000
01000000
10000000
00010000
00100000
00001000
00010000
00001000
00010000
00000010
,
00000200
00000000
00000000
00000001
00001000
00000000
00000000
00001000
,
00000301
00000000
00000000
00000010
00000000
00000000
00000100
00010000
00001000
00010000
00000000
00000000
,
02000000
00000000
00000000
10000000
00010000
00000000
00000000
00010000
,
13000000
00100000
10000000
00100000
01000000
00001000
00100000
00001000
00010000
00000010
00000100
00000001
,
00000010
00000100
00020000
00000000
00000000
00000000
00000000
00000000
,
00000000
00000000
00000000
00000000
,
00000000
00000000
00000000
00000000
,
00000000
00000000
00000000
00000000
,
00000000
00000000
00000000
00000000
,
00030000
00000000
00000000
00000000
;

//--------------- dance-double - t7r ----------------
#NOTES:
     dance-double:
     t7r:
     Challenge:
     19:
     1,1,0.737,0.271,0.744:
00000000
00000000
00000000
00000000
,
00000000
00000000
00000000
00000000
,
00000000
00000000
00000000
00000000
,
00000000
00000000
00000000
00000000
,
00000000
00000000
00000000
00000000
,
00000000
00000000
00000000
00000000
,
00000000
00000000
00000000
00000000
,
00000000
00000000
00000000
00000000
,
00000000
00000000
00000000
00000000
,
00000000
00000000
00000000
00000000
,
00000000
00000000
00000000
00000000
,
00001000
00100000
00001000
01000000
00001000
00100000
00001000
00010000
,
00001000
00000000
00010000
00000000
00000010
00000000
00000100
00000000
00000010
00001000
00000001
00000000
00000010
00000001
00001000
00000000
,
00000001
00000010
00000100
00000010
00000001
00000100
00000010
00010000
,
00001000
00000000
00100000
00000000
00010000
00000000
01000000
00000000
00100000
10000000
00010000
00000000
00100000
00010000
10000000
00000000
,
01000000
00100000
00001000
00100000
01000000
00100000
00001000
00010000
,
00000010
00000000
00000100
00000000
00000010
00000000
00001000
00000000
00000001
00001000
00000100
00000000
00001000
00000001
00000100
00000000
,
00000001
00000010
00000100
00010000
00001000
00100000
00010000
01000000
,
00010000
00100000
00010000
00000000
10000000
00000000
00100000
00000000
01000000
00001000
01000000
00001000
01000000
00000000
00001000
00000000
,
00011000
00000000
00000000
00000000
00000010
00000010
00000010
00000010
,
00000200
00000000
00000000
00000000
00000301
00000001
00000001
00000001
,
00000020
00000000
00000000
00000000
00000130
00000100
00000100
00000100
,
00020000
00000000
00000000
00000000
00031000
00001000
00001000
00001000
,
00200000
00000000
00000000
00000000
00310000
00010000
00010000
00010000
,
02000000
00000000
00000000
00000000
03100000
00100000
00100000
00100000
,
10000000
00000000
00010000
01000000
00010000
00000000
10000000
01000000
10000000
00000000
00010000
00100000
00001000
00000000
00010000
00000010
,
00010000
00000000
00000010
00000100
00000010
00000000
00001000
00000001
00001000
00000000
00000001
00000000
00001000
00000000
00000001
00000000
,
00001002
00000000
00001003
00000010
00000100
00000010
00010000
00020010
,
00000000
00030010
00010000
00001000
00100000
00010000
01000000
01020000
,
00000000
10030000
00100000
01000000
00010000
10000000
01000000
02100000
,
00000000
03100000
00001000
00010000
00000010
00001000
00000001
00001002
,
00000000
00000000
00001003
00000000
00000010
00000000
00000100
00000010
00001000
00000000
00000010
00000100
00000001
00000000
00000100
00000010
,
00010000
00000000
00000010
00010000
00001000
00000000
00100000
00001000
00010000
00000000
00001000
00000000
01000000
00000000
01200000
00000000
,
00000000
00000000
10300000
00000000
00100000
00000000
01000000
00000000
00010000
00100000
01000000
10000000
00010000
00000000
10000000
00000000
,
00100000
01000000
00001000
00010000
00001000
00000000
00010000
00000000
00000010
00000100
00000001
00001000
00000001
00000000
00000010
00000000
,
00000001
00000100
00000001
00001001
00000000
00001100
00000000
00020100
,
00000000
00030100
00010000
00001000
00100000
00010000
01000000
01020000
,
00000000
00000000
10030000
00000000
00100000
00000000
01000000
00010000
01000000
00000000
00001000
00000000
00010000
00000000
00000010
00001000
,
00000010
00000000
00001000
00000000
00000001
00000000
00000010
00000000
00000100
00001000
00000100
00000000
00010000
00000000
00012000
00000000
,
00000000
00013000
00010100
00000000
00011000
00000000
01001000
00000000
,
00101000
00000000
00110000
00010000
01000000
00100000
10000000
20010000
,
00000000
30010000
01000000
01000000
00010000
00010000
00001000
00001000
,
00000010
00000000
00000000
00000010
00000000
00000000
00000001
00000000
00000000
00000001
00000000
00000000
00001000
00000000
00000100
00000000
00000010
00000000
00000001
00000000
00000010
00000000
00000100
00000000
,
00010000
00000100
00010000
00001000
00010000
00001000
00010000
00000000
00000000
00001000
01000000
00001000
,
01000000
00100000
01000000
00010000
00000000
00000000
10010000
00000000
00000000
01010000
00000000
00000000
,
10000000
01000000
10000000
01000000
00010000
01000000
00001000
01000000
00100000
00001000
00010000
00000010
,
00000100
00000001
00000010
00000001
00000010
00000100
00001000
00000010
00001000
00000010
00001000
00000010
,
00000100
00000000
00000000
00000010
00010000
00001000
00010000
00000000
00000000
00011000
00000000
00000000
,
00001100
00000000
00000000
00000001
00000010
00000001
00000010
00001000
00000010
00010000
00000010
00000100
,
00010000
00001000
01000000
00100000
10000000
01000000
10000000
01000000
00100000
00010000
01000000
00010000
,
01000000
00010000
01000000
00100000
10000000
00010000
10000000
00000000
00000000
00010000
01000000
00001000
,
00010000
00000000
00011000
00000000
00010100
00000000
00000010
00000001
,
00000101
00000110
00010010
00010100
,
00022000
00000000
00000000
00000000
,
00000000
00000000
00000000
00033000
,
01001000
00000000
00001000
01000000
00001000
00000000
00100000
00010000
00100000
00000000
00010000
10000000
00010000
00000000
10000000
01000000
,
00100000
00000000
00001000
00010000
00000010
00000000
00000100
00000001
00001000
00000100
00001000
00000000
00000001
00000100
00000001
00000000
,
00001000
00000000
00000001
00000010
00000001
00000000
00001000
00000010
00001000
00000000
00000010
00000100
00000010
00000000
00010000
00000010
,
00000100
00000000
00000010
00010000
00001000
00000000
00010000
00001000
01000000
00010000
01000000
00000000
00100000
10000000
00100000
00000000
,
10000000
00000000
01000000
00100000
00001000
00000000
00100000
00001000
00010000
00000000
00001000
00010000
00000010
00000000
00000100
00000001
,
00001000
00000000
00000001
00000010
00000100
00000000
00000010
00000001
00001000
00000100
00001000
00000000
00000100
00010000
00000100
00000000
,
00010000
00000000
00001000
01000000
00100000
00000000
10000000
00010000
00100000
00000000
00001000
00010000
00000010
00000000
00000100
00000000
,
00000110
00000110
00000000
00000000
00011000
00011000
00000000
00000000
,
00102000
00000000
00103000
00001000
01000000
00100000
10000000
20010000
,
00000000
30010000
00100000
01000000
00100000
00001000
00010000
00021000
,
00000000
00030010
00000100
00000001
00001000
00000001
00000010
00000210
,
00000000
00000310
00000001
00000100
00000010
00000010
00000010
00002010
,
00000000
00003100
00001000
00000100
00000001
00000100
00001000
00010000
,
00100000
10000000
00100000
01000000
00100000
10000000
00010000
10020000
,
00000000
00000000
10030000
00000000
01000000
00000000
00100000
00000000
00001000
00010000
00000010
00000100
00000010
00000000
00001000
00000000
,
00000001
00000010
00000100
00010000
00001000
00000000
00100000
00000000
00010000
01000000
00100000
10000000
00010000
00000000
10000000
00000000
,
00010000
00100000
00010000
00100000
00010000
00100000
00010000
00100000
00010000
00000000
01000000
00000000
00000000
00000000
02001000
00000000
,
00000000
00000000
03001000
00000000
00100000
00000000
00001000
00000000
00010000
00000000
00000010
00000000
00000100
00000000
00000001
00000010
,
00000001
00000010
00000001
00000010
00000001
00000000
00001000
00000000
00000100
00000000
00010000
00000000
00001000
00000000
01000000
00010000
,
01000000
00010000
01000000
00010000
01000000
00000000
00100000
00000000
10000000
00000000
10010000
00000000
00000000
00000000
11000000
00000000
,
00000000
01000000
01100000
00000000
00101000
00000000
00011000
00000000
,
00010010
00000000
00000110
00000010
00001000
00001000
00001000
00002001
,
00000000
00003001
00000010
00000010
00000100
00000100
00010000
00010000
,
00001000
00100000
00001000
01000000
00100000
10000000
00010000
00100000
01000000
00100000
00001000
00010000
,
00000010
00001000
00000010
00000100
00000010
00000001
00000010
00001000
,
00000100
00000000
00000010
00000000
00000001
00001000
00000100
00001000
00000001
00000000
00000010
00000000
00000100
00000000
00010000
00000000
,
00001000
01000000
01200000
00000000
10300000
21000000
00000000
30010000
,
10000000
01000000
00010000
01000000
10000000
00100000
01000000
00001000
,
00010000
00001000
00010000
00000000
00000010
00000000
00000100
00000000
00000000
00000000
00000100
00000000
00000010
00000000
00000000
00000000
,
00010000
00000000
00000100
00000000
00010000
00001000
00010000
00000000
00000010
00000000
00000100
00000000
00000001
00000000
00000010
00000000
,
00000011
00000001
00000100
00000110
00000010
00010000
00011000
00001000
,
01000000
00100000
01000000
00100000
10000000
00010000
10000000
01000000
00100000
00001000
00010000
00000010
,
00000100
00000001
00000100
00001000
00000100
00000001
00000010
00000100
,
00010000
00000000
00000000
00000100
00000000
00000000
00010000
00000000
00000000
00001000
00000000
00000000
00100000
00000000
00010000
00000000
01000000
00000000
00010000
00000000
00000000
10000000
00000000
00000000
,
00010000
00100000
00001000
00001000
00010000
00000010
00000100
00000001
,
00000011
00000001
00000100
00000010
00010000
00012000
00000000
00000000
,
01003000
00010000
01000000
10000000
01000000
00100000
10000000
00010000
00100000
00001000
00010000
00000010
,
00000100
00001000
00000100
00000001
00000100
00000010
00001000
00000001
00000010
00000100
00010000
00001000
,
00020000
00000000
00000000
00000000
,
00031000
00010000
00001000
00010000
00001000
00010000
00001000
00010000
,
00011000
00001000
01000000
00001000
01001000
00001000
01000000
00100000
,
10100000
00100000
10000000
01000000
01100000
00100000
00001000
00010000
,
00011000
00010000
00000010
00000100
00000110
00000010
00001000
00000001
,
00001001
00000001
00000010
00000100
00010100
00000100
00010000
00001000
,
00011000
00001000
01000000
00100000
01100000
00100000
10000000
00010000
,
10010000
10000000
01000000
00100000
00101000
00001000
00010000
00001000
,
00011000
00010000
00000010
00000100
00000110
00000010
00001000
00000001
,
00001000
00000100
00000001
00000100
00001000
00010000
00100000
10000000
,
01100000
00100000
10000000
01000000
01100000
00100000
00001000
00010000
,
00011000
00010000
00000010
00000100
00000110
00000010
00001000
00000001
,
00001001
00000000
00000000
00000001
00000000
00000000
00000010
00000000
00000000
00000100
00000000
00000000
00010100
00000000
00000000
00000100
00000000
00000000
00010000
00000000
00001000
00000000
00100000
00000000
,
00010000
01000000
00100000
10000000
10100000
10000000
01000000
00100000
,
00101000
00000000
00000000
00001000
00000000
00000000
00010000
00000000
00000000
00000100
00000000
00000000
00010000
00000000
00000000
00000010
00000000
00000000
00000100
00000000
00000010
00000000
00001000
00000000
,
00000001
00000010
00000100
00010000
00010100
00000100
00010000
00001000
,
00011000
01000000
00010000
00001000
00000100
00000010
00000000
00000010
,
00000001
00000100
00000001
00000100
00000010
00010000
00001000
00010000
00001000
00100000
00010000
01000000
,
00100000
10000000
01000000
00010000
01000000
00100000
00001000
00010000
00000010
00000100
00000001
00001000
,
00000100
00000000
00000000
00010100
00000000
00000000
00000100
00010000
00001000
00010000
00000000
00000000
,
00101000
00001000
01000000
00010000
01010000
00010000
01000000
00100000
,
20100000
00000000
31000000
12000000
00000000
03100000
00102000
00000000
,
00013000
00000010
00000100
00000010
00001010
00000010
00001000
00000001
,
00001001
00000001
00000010
00000100
00010100
00000100
00010000
00001000
,
00011000
00001000
01000000
00100000
01100000
00100000
10000000
00010000
,
10000000
01000000
00010000
01000000
00100000
00001000
00000010
00000001
,
00000110
00000001
00000000
00000001
00000110
00000000
00000100
00000010
,
00020010
00000000
00030010
00010000
00000100
00010000
00001000
00000000
,
01100000
10000000
00000000
10000000
01100000
00000000
01000000
00100000
,
00001000
00010000
00000010
00000100
00000010
00010000
00001000
00100000
01000000
00100000
00001000
00010000
,
00002000
01000000
00000000
01003000
00110000
00000000
10000000
01000000
,
00100000
00001000
00010000
00000000
00000010
00010000
00000100
00000000
,
00020000
00000100
00000000
00030100
00001010
00000000
00000001
00000000
,
00000100
00000010
00010000
00000100
00010000
00001000
00100000
00010000
01000000
00100000
10000000
00010000
,
01000000
00001000
00020000
00000000
00000000
00000000
00000000
00000000
,
00000000
00000000
00000000
00000000
,
00000000
00000000
00000000
00000000
,
00000000
00000000
00000000
00000000
,
00000000
00000000
00000000
00000000
,
00030000
00000000
00000000
00000000
;
