#TITLE:幸せの代償;
#SUBTITLE:;
#ARTIST:BEMANI Sound Team "あさき";
#TITLETRANSLIT:Shiawase no daishou;
#SUBTITLETRANSLIT:;
#ARTISTTRANSLIT:Asaki;
#GENRE:;
#CREDIT:;
#MENUCOLOR:;
#METERTYPE:DDR;
#BANNER:Shiawase no daishou.png;
#BACKGROUND:Shiawase no daishou-bg.png;
#LYRICSPATH:;
#CDTITLE:./CDTITLES/GUITAR FREAKS & DRUMMANIA.PNG;
#MUSIC:Shiawase no daishou.ogg;
#OFFSET:0.000;
#SAMPLESTART:62.687;
#SAMPLELENGTH:15.000;
#SELECTABLE:YES;
#LISTSORT:;
#BPMS:0.000=134.000,204.000=67.000,208.000=134.000,240.000=67.000;
#STOPS:;
#BGCHANGES:;
#ATTACKS:;

//---------------dance-single - ----------------
#NOTES:
     dance-single:
     :
     Beginner:
     1:
     0.098,0.179,0.025,0.000,0.000:
0000
0000
0000
0000
,
0000
0000
0000
0000
,
0000
0000
0000
0000
,
0000
0000
0000
0000
,
0000
0000
0000
0000
,
1000
0000
0000
0000
,
0001
0000
0000
0000
,
0100
0000
0000
0000
,
0010
0000
0010
0000
,
1000
0000
0000
0000
,
0001
0000
0000
0000
,
0010
0000
0000
0000
,
0100
0000
0100
0000
,
0100
0000
0000
0000
,
1001
0000
0000
0000
,
1000
0000
0000
0000
,
0001
0000
0000
0000
,
0100
0000
0000
0000
,
0010
0000
0000
0000
,
1000
0000
1000
0000
,
1000
0000
0000
0000
,
0001
0000
0001
0000
,
0001
0000
0000
0000
,
0100
0000
0000
0000
,
0010
0000
0000
0000
,
1000
0000
0000
0000
,
0001
0000
0000
0000
,
1000
0000
1000
0000
,
1000
0000
1000
0000
,
0001
0000
0001
0000
,
0001
0000
0001
0000
,
0010
0000
0010
0000
,
0010
0000
0010
0000
,
0100
0000
0100
0000
,
0100
0000
0100
0000
,
0110
0000
0000
0000
,
0001
0000
0000
0000
,
1000
0000
0000
0000
,
0010
0000
0000
0000
,
1000
0000
0000
0000
,
0100
0000
0000
0000
,
1000
0000
0000
0000
,
0001
0000
0000
0000
,
0100
0000
0000
0000
,
0010
0000
0000
0000
,
1000
0000
0000
0000
,
0001
0000
0000
0000
,
1000
0000
0000
0000
,
0100
0000
0000
0000
,
0010
0000
0000
0000
,
0001
0000
0000
0000
,
1001
0000
0000
0000
,
1000
0000
1000
0000
,
0001
0000
0001
0000
,
0100
0000
0100
0000
,
0010
0000
0010
0000
,
1000
0000
1000
0000
,
1000
0000
0001
0000
,
0100
0000
0100
0000
,
0010
0010
0010
0010
,
0010
0000
0000
0000
,
0000
0100
0000
0000
0000
0000
0000
0000
;

//---------------dance-single - ----------------
#NOTES:
     dance-single:
     :
     Easy:
     6:
     0.326,0.442,0.176,0.386,0.000:
0000
0000
0000
0000
,
0000
0000
0000
0000
,
0000
0000
0000
0000
,
0000
0000
0000
0000
,
0000
0000
0000
0000
,
0001
0100
0010
1000
,
0001
0100
0010
1000
,
0001
0010
0100
1000
,
0001
1000
2002
3003
,
1000
0010
0100
0001
,
1000
0100
0010
0001
,
1000
1000
0100
0100
0010
0010
0001
0001
,
2000
3001
0200
0310
,
0110
0000
0100
0000
,
0120
0000
1000
0031
,
2000
0100
0001
3010
,
1000
0100
0010
0001
,
0100
0000
0000
0120
0000
0000
1030
0000
,
0001
0010
0100
1000
,
0001
0010
1000
0010
,
0001
0100
1000
0100
,
0001
0000
0000
1002
0000
0000
1003
0000
,
0100
0100
0010
0010
,
1000
2000
0000
3010
,
0001
0002
0000
0013
,
1000
2000
0000
3100
,
0001
0100
0220
0330
,
1000
1000
1000
0000
1000
0000
0001
0000
,
0001
0001
0001
0000
0001
0000
1000
0000
,
0010
0010
0010
0000
0100
0000
0010
0000
,
0100
0100
0100
0000
0010
0000
0100
0000
,
0010
1000
2010
3001
,
0100
0001
0102
1003
,
0001
0010
2100
3001
,
0100
0010
2002
3003
,
0010
0000
2020
3030
,
0100
0000
0202
0303
,
1000
0000
2200
3300
,
0010
0000
0022
0033
,
0001
0000
2002
3003
,
0100
0000
0220
0330
,
0010
0000
2020
3030
,
1000
0000
2200
3300
,
0010
0001
0012
0000
,
1000
0100
1000
0013
,
1000
0100
2100
0000
,
0001
0010
0001
3100
,
0010
0100
0210
0000
,
0001
1000
0010
1300
,
0002
0000
0000
0003
,
2000
0000
0000
3000
,
0020
0000
0000
0030
,
0100
0000
0000
0010
0020
0000
1030
0000
,
0001
0000
0000
0010
0020
0000
0031
0000
,
1000
0000
0000
0100
0200
0000
1300
0000
,
0001
0000
0000
0100
0200
0000
0301
0000
,
1000
1000
0100
0100
0010
0010
0001
0001
,
1000
1000
0010
0010
0100
0000
0001
0000
,
0001
0001
0010
0010
0100
0100
1000
1000
,
0001
0001
0100
0100
0010
0010
1000
1000
,
0002
0000
0000
0003
,
0000
2000
0000
0000
0000
0000
0000
0000
,
3000
0000
0000
0000
;

//---------------dance-single - ----------------
#NOTES:
     dance-single:
     :
     Medium:
     9:
     0.423,0.442,0.050,0.344,0.230:
0000
0000
0000
0000
,
0000
0000
0000
0000
,
0000
0000
0000
0000
,
0000
0000
0000
0000
,
0000
0000
0000
0000
,
1000
0010
1000
0010
0200
0000
0300
0000
,
0001
0010
0001
0010
0200
0000
0300
0000
,
1000
0001
1000
0001
0020
0000
0030
0000
,
0001
0000
0000
1000
0000
0000
0001
0000
0020
0000
0000
0000
0031
0000
0000
0000
,
1000
0100
0010
0001
2000
0000
3010
0000
,
0001
0010
0100
1000
0002
0000
0103
0000
,
0010
0010
1000
1000
0001
0001
0100
0100
,
0001
0000
0000
1000
0000
0000
0010
0000
0200
0000
0000
0000
0310
0000
0000
0000
,
1000
0000
0000
0100
0000
0000
0001
0000
0000
0100
0000
0000
1000
0000
0001
0000
,
2000
0000
0000
0000
3010
0100
0001
0100
,
0010
1000
0010
1000
0010
0100
0001
1000
,
0001
0010
0001
0010
0100
1000
0001
0100
,
0010
0000
0000
0110
0000
0000
2001
0000
0000
0000
3001
0000
0010
0000
0000
0000
,
0001
0100
0010
1000
0001
0100
0001
0000
,
1000
0100
0010
0001
1000
0100
0010
0001
,
1000
0010
0100
0010
1000
0010
0100
0001
,
1000
0000
0000
0110
0000
0000
1002
0000
0000
0000
1003
0000
0010
0000
0000
0000
,
0100
0000
0000
0100
0000
0000
0100
0000
0020
0000
0000
0000
1030
0000
0000
0000
,
0001
0100
1000
0000
0100
0000
0001
0000
,
1000
0100
0001
0000
0100
0000
1000
0000
,
0001
0010
1000
0000
0010
0000
0001
0000
,
1000
0000
0000
0010
0000
0000
0100
0000
0020
0000
0000
0000
1030
0000
0000
0000
,
0001
0000
0000
0100
0000
0001
0000
0000
0100
0000
0000
0000
0010
0000
0000
0000
,
1000
0000
0000
0100
0000
1000
0000
0000
0100
0000
0000
0010
0000
0010
0000
0000
,
0001
0000
0000
1000
0000
0010
0000
0000
0100
0000
0000
0010
2000
0000
0000
0000
,
3001
0000
0000
1000
0000
0001
0000
0000
0100
0000
0000
0010
0000
0100
0000
0000
,
0010
0000
0000
1000
0000
0000
0010
0000
1000
0200
0000
0000
0310
0000
0000
0000
,
0001
0000
0000
0100
0000
0000
0001
0000
0010
0002
0000
0000
1003
0000
0000
0000
,
0001
0200
0000
0000
0310
0000
0000
0000
1000
0200
0000
0000
0310
0000
0000
0000
,
0001
0000
0000
1000
0000
0001
0000
0000
0010
0100
0010
0100
0000
0000
0000
0000
,
0010
0000
0000
0001
0000
0000
1000
0000
0020
0000
0000
0000
1030
0000
0000
0000
,
0001
0000
0000
0100
0000
0000
0001
0000
2000
0000
0000
0000
3100
0000
0000
0000
,
0010
0000
0000
0100
0000
0000
1000
0000
0020
0000
0000
0000
1030
0000
0000
0000
,
0001
0000
0000
0100
0000
0000
0010
0000
0200
0000
0000
0000
0301
0000
0000
0000
,
1000
0000
0000
0100
0000
0000
0010
0000
0200
0000
0000
0000
1300
0000
0000
0000
,
0001
0000
0000
0100
0000
0000
0010
0000
0200
0000
0000
0000
0301
0000
0000
0000
,
1000
0000
0000
0010
0000
0000
0001
0000
0020
0000
0000
0000
1030
0000
0000
0000
,
0001
0000
0000
0010
0000
0000
1000
0000
0020
0000
0000
0000
0031
0000
0000
0000
,
1000
0000
0000
0100
0000
0000
0010
0000
0200
0000
0000
0000
1300
0000
0000
0000
,
0001
0000
0000
0100
0000
0000
0100
0000
0020
0000
0000
0000
1030
0000
0000
0000
,
0001
0000
0000
0010
0000
0000
0100
0000
0020
0000
0000
0000
0031
0000
0000
0000
,
1000
0000
0000
0010
0000
0000
0010
0000
0200
0000
0000
0000
0310
0000
0000
0000
,
1000
0000
0000
0001
0000
0000
1000
0000
0200
0000
0000
0000
1300
0000
0000
0000
,
0001
0000
0000
1000
0000
0000
0001
0000
0200
0000
0000
0000
0301
0000
0000
0000
,
0220
0000
0000
0330
,
2002
0000
0000
3003
,
0020
0000
0000
0030
,
1000
0000
0000
0100
1000
0000
0000
0000
0020
0000
0000
0000
0130
0000
0000
0000
,
0001
0000
0000
0100
0001
0000
0000
0000
0020
0000
0000
0000
0130
0000
0000
0000
,
0010
0000
0000
0001
1000
0000
0000
0000
0002
0000
0000
0000
0103
0000
0000
0000
,
0010
0000
0000
1000
0001
0000
0000
0000
1000
0000
0000
0100
0000
1000
0000
0000
,
0001
0001
0100
0100
0010
0010
1000
1000
,
0001
0000
0001
0000
0010
0000
0010
0000
0100
0000
0000
1000
0000
0100
0000
1000
,
0001
0001
0001
0001
1000
1000
1000
1000
,
0010
0000
0010
0000
0100
0000
0100
0000
0001
0000
0001
0000
1000
0000
0001
2000
,
0000
0000
0000
3000
,
0000
0002
0000
0000
0000
0000
0000
0000
,
0003
0000
0000
0000
;

//---------------dance-single - ----------------
#NOTES:
     dance-single:
     :
     Hard:
     13:
     0.605,0.779,0.503,0.310,0.478: // measure 1
0000
0000
0000
0000
,  // measure 2
0000
0000
0000
0000
,  // measure 3
0000
0000
0000
0000
,  // measure 4
0000
0000
0000
0000
,  // measure 5
0000
0000
0000
0000
,  // measure 6
1000
0000
0010
0000
0100
0000
0010
0000
1000
0100
0000
0100
0010
0000
0001
0000
,  // measure 7
0010
0000
0001
0000
0100
0000
0010
0000
0100
0001
0000
0001
1000
0000
0001
0000
,  // measure 8
1000
0000
0010
0100
0000
0100
0010
0000
1000
0000
0100
0000
0010
0000
0001
0000
,  // measure 9
1001
0000
0000
0101
0000
0000
1001
0000
0020
0000
0000
0000
0130
0020
0000
0000
,  // measure 10
1030
0000
0100
0000
1000
0000
0001
0010
0002
0000
0000
0000
0000
0000
1003
0000
,  // measure 11
0001
0100
0000
0020
0000
0000
0130
0000
0001
0000
0100
0000
0010
0000
1000
0000
,  // measure 12
0001
0010
0001
0010
0100
1000
0100
1000
0001
1000
0001
1000
0010
0100
0010
0100
,  // measure 13
0001
0000
0000
1001
0000
0000
0110
0000
0010
0000
1000
0000
0100
2000
0000
0000
,  // measure 14
3001
0000
0000
0011
0000
0000
1001
0000
0000
1100
0000
0000
0010
0000
0100
0000
,  // measure 15
0001
2000
0000
0000
0000
0000
0000
0000
3001
0000
0100
0001
0100
0000
0001
0000
,  // measure 16
1001
0000
0100
0010
0000
0010
0001
0000
1000
0000
0100
0000
0010
0000
0100
0000
,  // measure 17
1000
0000
0010
0100
0000
0100
0001
0000
0100
0000
0010
0000
1000
0000
0001
0000
,  // measure 18
1000
0000
0010
1000
0000
0010
0200
0000
0000
0000
0001
0000
0010
0000
1300
0000
,  // measure 19
0001
0000
0010
0100
0000
0100
1000
0000
0100
0000
0010
0001
1000
0000
0001
0000
,  // measure 20
1000
0000
0100
0000
0010
0000
0100
1000
0000
1000
0001
0000
0100
0000
0010
0000
,  // measure 21
0100
0000
0001
0010
0000
0001
0000
1000
0000
0001
0100
0000
0010
0000
1000
0000
,  // measure 22
0010
0000
0100
0010
0000
1000
0020
0000
0000
0000
1000
0000
0100
0000
0031
0000
,  // measure 23
1001
0000
0000
0110
0000
0000
1001
0000
0010
0000
1000
0010
0100
0000
0001
0000
,  // measure 24
1000
0000
0000
0101
0000
0000
0201
0000
0000
0000
0010
0000
1000
0000
0301
0000
,  // measure 25
1000
0000
0100
0010
0000
0001
0000
1000
0100
1000
0000
1000
0010
0000
1000
0000
,  // measure 26
0010
0000
0000
0110
0000
0000
2001
0000
0000
0000
0010
0000
0100
0000
3001
0000
,  // measure 27
0100
0000
0000
0110
0000
0000
1002
0000
0000
0000
0010
0000
0100
0000
1003
0000
,  // measure 28
0001
0000
0010
0100
0000
0100
0000
0100
1000
0000
0100
0010
0000
0010
0000
0010
,  // measure 29
0001
0000
0100
0010
0000
0010
0000
0010
1000
0000
0001
0100
0000
0101
0000
1000
,  // measure 30
0001
0000
1000
0100
0000
0100
0000
0100
0010
0000
0001
0100
0020
0000
0000
0000
,  // measure 31
0130
0000
0010
1000
0000
1000
0000
1000
0001
0000
0010
0001
0100
0000
0001
0000
,  // measure 32
1000
0000
0000
0100
1000
0000
0100
0000
0011
0000
0000
0100
0001
0000
0100
0000
,  // measure 33
1010
0000
0000
0100
0001
0000
0100
0000
0110
0000
0000
0010
1000
0000
0001
0000
,  // measure 34
1000
0000
0100
1000
0000
0100
1000
0000
0001
0000
0010
0001
0000
0010
0001
0000
,  // measure 35
1000
0000
0100
0010
0000
0010
0001
0000
1000
0001
0100
0020
0000
0000
0000
0000
,  // measure 36
1030
0000
0000
0010
0000
0000
1000
0000
2010
0000
0000
0000
3001
0000
0000
0000
,  // measure 37
0010
0000
0000
0001
0000
0000
0010
0000
0012
0000
0000
0000
1003
0000
0000
0000
,  // measure 38
0001
0000
0000
0100
0000
0000
0010
0000
0210
0000
0000
0000
1300
0000
0000
0000
,  // measure 39
0100
0000
0000
0010
0000
0000
1000
0000
2001
0000
0000
0000
3010
0000
0000
0000
,  // measure 40
1000
0000
0000
0100
0000
0000
0010
0000
0012
0000
0000
0000
0103
0000
0000
0000
,  // measure 41
0001
0000
0000
0100
0000
0000
0010
0000
2010
0000
0000
0000
3001
0000
0000
0000
,  // measure 42
1000
0000
0000
0001
0000
0000
0100
0000
0102
0000
0000
0000
1003
0000
0000
0000
,  // measure 43
0001
0000
0000
1000
0000
0000
0100
0000
2100
0000
0000
0000
3001
0000
0000
0000
,  // measure 44
1010
0000
0000
0100
0010
0000
0100
0000
2010
0000
0000
0000
3001
0000
0000
0000
,  // measure 45
0011
0000
0000
0100
0010
0000
0100
0000
1000
0000
0001
0000
0100
0000
0010
0000
,  // measure 46
0110
0000
0000
0100
0001
0000
0100
0000
1020
0000
0000
0000
1030
0000
0000
0000
,  // measure 47
1100
0000
0000
0100
1000
0000
0100
0000
1000
0000
0001
0000
0100
0000
0010
0000
,  // measure 48
0100
0000
0000
0001
0100
0000
0010
0000
2000
0000
0000
0000
3100
0000
0000
0000
,  // measure 49
1000
0000
0000
0100
0010
0000
0001
0000
0020
0000
0000
0000
0031
0000
0000
0000
,  // measure 50
2002
0000
0000
3003
,  // measure 51
0220
0000
0000
0330
,  // measure 52
2020
0000
0000
3030
,  // measure 53
1100
0000
0000
0100
1000
0000
0100
0000
0010
0001
0000
0001
0100
0000
0001
0000
,  // measure 54
0101
0000
0000
0001
0100
0000
0001
0000
0010
0001
0000
0001
1000
0000
0010
0000
,  // measure 55
1000
0010
0100
0020
0000
0000
1030
0000
0001
1000
0000
1000
0001
0000
1000
0000
,  // measure 56
0200
0000
0000
0000
0310
0000
0000
0000
0002
0000
0000
0000
0103
0002
0000
0000
,  // measure 57
1003
0100
1100
1100
1000
0001
0101
0101
,  // measure 58
0001
0000
0100
0000
0110
0000
0110
0000
0010
0000
1000
0001
0000
1001
0000
0010
,  // measure 59
0100
0110
0110
0110
0101
0110
1010
1010
,  // measure 60
1000
0000
1100
0000
1100
0000
1100
0000
0110
0000
0011
0000
0001
0010
0100
2000
,  // measure 61
0000
0000
0000
3000
,  // measure 62
0000
0002
0000
0000
0000
0000
0000
0000
,  // measure 63
0003
0000
0000
0000
;

//---------------dance-single - ----------------
#NOTES:
     dance-single:
     :
     Challenge:
     17:
     0.800,0.857,0.545,0.168,1.000: // measure 1
0000
0000
0000
0000
,  // measure 2
0000
0000
0000
0000
,  // measure 3
0000
0000
0000
0000
,  // measure 4
0000
0000
0000
0000
,  // measure 5
0000
0000
0000
0000
,  // measure 6
0001
0000
0010
0100
0000
0100
0010
0001
1000
0001
0100
0001
1000
0000
0001
0000
,  // measure 7
1000
0000
0010
0100
0000
0100
0010
1000
0001
0010
0100
0010
0001
0000
0100
0000
,  // measure 8
0110
0000
0100
0010
0000
0010
1000
0001
1000
0100
0010
0100
1000
0000
0001
0000
,  // measure 9
1100
0000
0100
1000
0000
0010
0001
0000
0110
0000
0001
0100
0010
2000
0000
0000
,  // measure 10
3001
0000
0010
0100
0000
0100
0010
0001
2000
0000
3010
0100
0000
0100
0010
1000
,  // measure 11
0001
0010
0000
0012
0000
1003
0100
1000
0010
0100
0010
0100
0001
0100
0001
0100
,  // measure 12
0001
0010
0100
1000
0001
0010
0100
1000
0001
0010
0001
1000
0001
0010
0001
1000
,  // measure 13
0010
1000
0001
1000
0000
1000
0001
0000
1001
0000
1000
0100
0010
0001
1000
0001
,  // measure 14
1000
0000
0000
0000
0000
0000
1100
0000
0000
0000
0000
0000
0101
0000
0000
0000
1000
0100
0010
0000
0001
0000
1000
0000
0001
0000
0100
0000
0001
0000
0000
0000
,  // measure 15
0010
0020
0000
0000
0000
0000
0030
0000
1001
0000
0010
0100
0001
0100
0010
0000
,  // measure 16
1010
1100
1000
1100
1000
1001
1010
1100
,  // measure 17
1001
0000
0000
0000
0010
0000
0100
0000
0000
0000
0100
0000
0010
0000
0000
0000
1000
0000
0001
0000
0100
0000
0000
0000
0001
1000
0001
0000
0010
0000
0000
0000
,  // measure 18
0100
0000
0010
0100
0000
0010
0002
0000
0000
0013
0100
0000
1000
0010
0100
0000
,  // measure 19
0010
0000
1000
0001
0100
0001
0010
0000
0001
0000
1000
0100
0010
0100
1000
0001
,  // measure 20
1000
0010
0100
0001
1000
0010
0100
0001
1000
0010
0000
0010
1000
0001
1000
0100
,  // measure 21
0010
0000
0001
0000
1000
0000
0100
0000
0010
0000
0001
0000
1000
0000
0100
0000
0010
0000
0001
0000
0000
0000
0001
0000
0100
0010
0100
0000
0001
0000
1000
0000
,  // measure 22
0001
0000
0010
0100
0000
1000
0020
0000
0000
1030
0001
0000
1000
0100
0010
0000
,  // measure 23
0110
0000
0000
0000
0000
0000
0101
0000
0000
0000
0000
0000
1100
0000
0000
0000
0001
0000
0000
0000
0010
0000
0001
0000
1000
0100
1000
0000
0001
0000
1000
0000
,  // measure 24
0001
0000
0010
0100
0000
1000
0100
0010
0000
0110
0000
1000
0001
0100
0010
1000
,  // measure 25
0001
0000
0100
0001
0000
0101
0000
0001
1000
0100
1000
0001
0100
0010
1000
0001
,  // measure 26
0100
0000
0100
0000
0000
0000
0100
0000
0000
0000
0100
0000
0010
0000
0100
0000
0010
0100
0010
0100
0010
0000
1000
0000
0001
0000
0010
0000
0100
0000
1000
0000
,  // measure 27
0001
0000
0010
0000
0010
0000
0001
0000
0100
0000
0100
0000
0001
0000
1000
0000
0001
0010
0001
0010
0001
0000
1000
0000
0001
0000
0100
0000
0010
0000
1000
0000
,  // measure 28
0001
0000
1000
0001
0000
1001
0000
0001
0100
0001
0000
0010
0001
0000
1000
0001
,  // measure 29
0100
0000
0001
1000
0000
1001
0000
1000
0100
0000
1000
0010
0000
0110
0000
0010
,  // measure 30
1000
0000
0100
0010
0000
0110
0000
0100
1000
0001
0100
0010
2000
0000
0000
3001
,  // measure 31
0100
0000
0001
0010
0000
0011
0000
1000
0100
0000
1000
0001
0100
0010
0100
0010
,  // measure 32
0100
0001
0001
0010
0100
0100
0010
0001
1000
0010
0100
0001
1000
0000
1001
0000
,  // measure 33
1000
0100
0100
0010
0100
0100
1000
0001
0100
0010
1000
0001
0100
0001
0010
0001
,  // measure 34
1000
0100
0000
0100
0010
0100
0000
0100
0001
0100
0000
0100
0010
0100
0000
0100
,  // measure 35
1000
0001
0100
0010
1000
0010
0100
0001
1000
1000
0001
0002
0000
0000
0003
0000
,  // measure 36
1001
0000
0000
0000
0000
0000
0000
0000
0000
0100
0000
0000
0010
0000
0000
0000
0000
0000
0100
0000
0000
0000
0000
0000
0101
0000
0000
0000
0000
0000
0000
0000
0000
0000
0000
0000
0001
0000
0000
0000
0000
0000
0100
0000
0001
0000
0100
0000
,  // measure 37
0001
0000
0000
0001
0010
0000
0001
0000
1001
0000
0000
0000
0100
0000
0000
0000
,  // measure 38
1100
0000
0000
0000
0000
0000
0000
0000
0000
0100
0000
0000
1000
0000
0000
0000
0000
0000
0100
0000
0000
0000
0000
0000
0011
0000
0000
0000
0000
0000
0000
0000
0000
0000
0000
0000
0001
0000
0000
0000
0000
0000
1000
0000
0001
0000
1000
0000
,  // measure 39
0001
0000
0000
0001
0010
0000
0100
0000
0110
0000
0000
0000
1000
0000
0000
0000
,  // measure 40
0101
0000
0000
0000
0000
0000
0000
0000
0000
1000
0000
0000
0010
0000
0000
0000
0000
0000
0100
0000
0000
0000
0000
0000
0110
0000
0000
0000
0000
0000
0000
0000
0000
0000
0000
0000
0001
0000
0000
0000
0000
0000
0100
0000
0010
0000
0100
0000
,  // measure 41
0010
0000
0000
0010
0100
0000
0010
0000
1010
0000
0000
0000
0001
0000
0000
0000
,  // measure 42
0101
0000
0000
0001
0010
0000
0001
0000
0011
0000
0000
0000
0001
0000
0000
0000
,  // measure 43
1100
0000
0000
0000
0000
0000
0000
0000
0000
0110
0000
0000
0000
0000
0000
0000
0000
0000
0011
0000
0000
0000
0000
0000
1001
0000
0000
0000
0000
0000
0001
0000
0000
1000
0000
0000
0100
0000
1000
0000
0010
0000
1000
0000
0000
0000
0000
0000
,  // measure 44
0110
0000
0000
0000
0000
0000
0000
0000
0000
0010
0000
0000
0100
0000
0000
0000
0000
0000
0010
0000
0000
0000
0000
0000
2010
0000
0000
0000
0000
0000
0000
0000
0000
0000
0000
0000
3001
0000
0000
0000
0000
0000
1000
0000
0100
0000
0010
0000
,  // measure 45
0100
0000
0000
0100
0010
0000
0100
0000
1100
0000
0001
1000
0100
1000
0001
0000
,  // measure 46
0101
0000
0000
0000
0000
0000
0000
0000
0000
0001
0000
0000
0100
0000
0000
0000
0000
0000
0001
0000
0000
0000
0000
0000
0021
0000
0000
0000
0000
0000
0000
0000
0000
0000
0000
0000
0031
0000
0000
0000
0000
0000
0010
0000
0001
0000
0010
0000
,  // measure 47
0001
0000
0000
0001
0010
0000
0001
0000
0100
0010
1000
0010
0100
0001
1000
0000
,  // measure 48
1001
0000
0000
0000
0000
0000
0000
0000
0000
0010
0000
0000
0100
0000
0000
0000
0000
0000
0010
0000
0000
0000
0000
0000
0012
0000
0000
0000
0000
0000
0000
0000
0000
0000
0000
0000
0103
0000
0000
0000
0000
0000
1000
0000
0010
0000
1000
0000
,  // measure 49
0010
0000
0000
0000
0000
0000
0000
0000
0000
0010
0000
0000
0100
0000
0000
0000
0000
0000
0010
0000
0000
0000
0000
0000
1010
0000
0000
0000
0000
0000
0000
0000
0101
0000
0000
0000
0000
0000
0000
0000
1100
0000
0000
0000
0000
0000
0000
0000
,  // measure 50
0022
0000
0000
0033
,  // measure 51
2020
0000
0000
3030
,  // measure 52
2002
0000
0000
3003
,  // measure 53
1100
0000
0000
0000
0000
0000
0000
0000
0000
0100
0000
0000
0010
0000
0000
0000
0000
0000
0100
0000
0000
1000
0000
0000
0010
0000
0000
0100
0000
0000
0000
0000
0000
0100
0000
0000
0010
0000
0000
0000
0000
0000
1000
0000
0010
0000
1000
0000
,  // measure 54
0100
0000
0000
0100
0010
0000
0100
1000
0001
0010
0000
0010
0001
0000
1000
0000
,  // measure 55
0001
0000
0100
0000
0010
0000
1000
0000
0000
0000
1000
0000
0010
0000
0000
0000
1000
0000
0100
0000
0000
0000
0100
0000
0010
0000
0000
0000
0100
0000
0100
1000
,  // measure 56
0100
0000
0000
1100
0000
0000
0011
0000
1001
0000
0010
0000
0100
0020
0000
0000
,  // measure 57
1030
0100
1000
0100
1000
0100
1000
0100
0010
0001
0010
0001
0010
0001
0100
0010
,  // measure 58
0100
0010
0100
0010
0100
0000
0010
0000
1000
0001
0000
0100
0000
0010
0000
1000
,  // measure 59
1001
1000
1001
1000
1100
1100
1100
1001
,  // measure 60
0101
0000
0010
0100
0000
1000
0010
0000
0100
0001
1000
0100
0001
0100
1000
0001
,  // measure 61
2000
0000
0000
3000
,  // measure 62
0000
0002
0000
0000
0000
0000
0000
0000
,  // measure 63
0003
0000
0000
0000
;
