#TITLE:蛹 再;
#SUBTITLE:;
#ARTIST:あさき;
#TITLETRANSLIT:SANAGI SAI;
#SUBTITLETRANSLIT:;
#ARTISTTRANSLIT:Asaki;
#GENRE:;
#CREDIT:;
#MENUCOLOR:;
#METERTYPE:DDR;
#BANNER:SANAGI SAI.png;
#BACKGROUND:SANAGI SAI-bg.png;
#LYRICSPATH:;
#CDTITLE:./CDTITLES/REFLEC BEAT.PNG;
#MUSIC:SANAGI SAI.ogg;
#OFFSET:0.000;
#SAMPLESTART:52.560;
#SAMPLELENGTH:15.000;
#SELECTABLE:YES;
#LISTSORT:;
#BPMS:0.000=192.000;
#STOPS:;
#BGCHANGES:;
#ATTACKS:;

//---------------dance-single - ----------------
#NOTES:
     dance-single:
     :
     Beginner:
     4:
     0.143,0.235,0.000,0.000,0.000:
0000
0000
0000
0000
,
0000
0000
0000
0000
,
0000
0000
0000
0000
,
0000
0000
0000
0000
,
0000
0000
0000
0000
,
1000
0000
0000
0000
,
0000
0000
0000
0000
,
0000
0001
0000
0000
,
1000
0000
0000
0000
,
1000
0000
0000
0000
,
0001
0000
0000
0000
,
0001
0000
0000
0000
,
0100
0000
0000
0000
,
0100
0000
0000
0000
,
0010
0000
0000
0000
,
0010
0000
0000
0000
,
1000
0000
1000
0000
,
1000
0000
0000
0000
,
0001
0000
0001
0000
,
0001
0000
0000
0000
,
0010
0000
0010
0000
,
0010
0000
0000
0000
,
0100
0000
0100
0000
,
0100
0000
0000
0000
,
0010
0000
0000
0000
,
0001
0000
0000
0000
,
1000
0000
0000
0000
,
0010
0000
0000
0000
,
1000
0000
1000
0000
,
1000
0000
0000
0000
,
0001
0000
0001
0000
,
0001
0000
0000
0000
,
0000
0100
0000
0000
,
0000
0100
0000
0000
,
0000
0000
0000
0000
,
0010
0000
0000
0000
,
0000
0010
0000
0000
,
0000
1000
0000
0000
,
0000
0001
0000
0000
,
0000
0000
0000
0100
,
0000
0000
0010
0000
,
0000
0000
1000
0000
,
0000
0000
0001
0000
,
0001
0000
0001
0000
,
0000
0000
1000
0000
,
1000
0000
1000
0000
,
0000
0000
0010
0000
,
0000
0000
0010
0000
,
0000
0000
0100
0000
,
0100
0000
0100
0000
,
0000
0000
0010
0000
,
0010
0000
1000
0000
,
1000
0000
0001
0000
,
0001
0000
0100
0000
,
0000
0000
0001
0000
,
0001
0000
0010
0000
,
0010
0000
0100
0000
,
0100
0000
1000
0000
,
0000
0000
1000
0000
,
1000
1000
1000
0000
,
0000
0000
0001
0000
,
0001
0001
0001
0000
,
0000
0000
0100
0000
,
0100
0100
0100
0000
,
0000
0000
0010
0000
,
0010
0010
0010
0000
,
0000
0000
1000
0000
,
1000
0000
1000
0000
,
1000
0000
0001
0001
,
0000
1000
1000
1000
,
0000
0010
0010
0010
,
0010
0000
0000
0000
,
0000
0000
0000
0000
,
0000
0000
0000
0000
,
0000
0000
0000
0000
,
0000
0000
0100
0000
;

//---------------dance-single - ----------------
#NOTES:
     dance-single:
     :
     Easy:
     8:
     0.468,0.510,0.135,0.135,0.016:
0000
0000
0000
0000
,
0000
0000
0000
0000
,
0000
0000
0000
0000
,
0000
0000
0000
0000
,
0000
0000
0000
0000
,
1000
0000
0000
1001
0000
0000
0001
0000
,
0000
1001
0000
0000
0010
0000
0000
0110
,
0000
0100
0010
1000
,
0001
0000
0010
0000
0001
0100
0001
0000
,
1000
0000
0010
0000
1000
0100
1000
0000
,
0010
0000
0100
0000
0010
1000
0010
0000
,
0100
0000
0010
0000
0100
0001
0100
0000
,
0002
0000
0013
0000
1000
0100
1000
0000
,
2000
0000
3010
0000
0001
0100
0001
0000
,
0200
0000
0310
0000
1000
0001
1000
0000
,
0010
0100
0010
0100
0000
0000
0000
0000
,
0010
0000
0010
1000
0000
1000
0001
0000
,
0001
0010
0000
0010
0001
0000
1000
0000
,
0001
0000
0001
0100
0000
0100
0001
0000
,
1000
0100
0000
0001
0000
0100
0000
1000
,
0010
0000
0010
0100
0000
0100
0001
0000
,
0001
0010
0000
0010
0001
0000
1000
0000
,
0100
0000
0100
1000
0000
1000
0001
1000
,
0001
0100
0000
1000
0000
0100
0000
0001
,
2000
0000
0000
0000
,
3000
0000
0010
1000
,
0002
0000
0000
0003
,
0020
0000
0000
0030
,
0100
0000
1000
0100
0000
0010
0100
0000
,
1000
0100
0000
1000
0001
0000
1000
0000
,
0001
0100
0001
0000
1000
0100
1000
0000
,
0001
0000
0000
0000
0010
0000
0000
0000
0001
0000
0000
1000
0000
0000
0001
0000
,
0000
0000
1000
0000
0010
0000
0100
0010
,
0000
0000
1000
0000
0001
0000
0010
0100
,
0000
0010
0001
1000
,
0010
0000
1000
0001
0100
0000
0100
0000
,
0010
1000
0001
1000
,
0001
0000
0010
0100
0000
0000
1000
0000
,
0010
0000
1000
0000
0010
0100
0000
0000
,
0010
0000
1000
0000
0001
0010
0000
0000
,
0001
0000
0000
0000
1000
0000
0000
0000
0010
0000
0000
0100
0000
0000
0020
0000
,
0000
0000
0000
0000
1030
0000
0000
0000
0100
0000
0000
0010
0000
0000
0200
0000
,
0000
0000
1300
0001
,
1000
0100
0000
1000
0001
0000
0100
0000
,
0001
1000
0000
0001
0010
0000
0001
0000
,
1000
0010
0000
0100
0010
0000
1000
0000
,
0001
0100
0001
0000
1000
0000
0100
0000
,
0010
0100
0000
1000
0001
0000
0100
0000
,
0010
0100
0000
0001
0010
0000
0010
0000
,
0010
0000
0000
0000
0001
0000
0000
1001
,
0000
0110
0010
1000
,
0100
1000
0000
0001
1000
0000
0001
0000
,
0100
0001
0000
1000
0001
0000
0010
0000
,
1000
0010
0001
0100
,
1000
0100
0001
1000
,
0010
0100
0000
0010
1000
0000
0001
0000
,
0010
0100
0000
0010
0001
0000
0001
0000
,
0001
0000
2002
0000
,
0000
3003
1000
0010
,
0100
0110
0001
0010
,
0100
0110
1000
0100
,
0010
0011
0001
0100
,
0010
1000
0000
0001
1000
0000
0100
1000
,
0100
0000
1100
0000
0001
0000
0100
0001
,
0100
0000
0101
0000
0010
0000
0100
0010
,
0100
0000
0110
0000
0010
1000
0001
0000
,
1000
0001
1000
0001
1000
0000
0100
0000
,
1000
0010
1000
0000
0001
0000
0100
0000
,
0001
0010
0001
0000
1000
0001
2000
0000
,
0000
3010
0100
0000
0001
1000
0002
0000
,
0000
0013
0100
0000
1000
0001
1000
0001
,
0020
0000
0000
0000
,
0000
0000
0000
0000
,
0000
0000
0000
0000
,
0000
0000
0000
0000
,
0000
0030
0110
0000
;

//---------------dance-single - ----------------
#NOTES:
     dance-single:
     :
     Medium:
     12:
     0.704,0.667,0.333,0.187,0.042:
0000
0000
0000
0000
,
0000
0000
0000
0000
,
0000
0000
0000
0000
,
0000
0000
0000
0000
,
0000
0000
0000
0000
,
0001
0100
0010
1000
0000
1000
0010
0100
,
0001
0010
0000
0010
0001
0100
0001
1000
,
0000
1000
0100
1000
0001
0010
0100
1000
,
0001
0000
0011
0000
0001
0100
0010
0000
,
1000
0000
1010
0000
1000
0100
0010
0000
,
0100
0000
1100
0000
1000
0001
0100
0000
,
0010
0000
1010
0000
1000
0001
0010
0001
,
2000
0000
0100
0000
3001
1000
0100
1000
,
0002
0000
0010
0000
1003
0001
0100
0001
,
1000
0001
0010
0000
0001
1000
0010
0000
,
1000
0001
1000
0001
0200
0000
0300
0000
,
0001
0010
0001
0010
0001
1000
0001
1000
,
0001
0100
0001
0100
0001
0010
0100
1000
,
0010
1000
0010
1000
0010
0100
0010
0100
,
0010
1000
0000
1010
0000
1001
0000
0001
,
1000
0100
1000
0100
1000
0001
1000
0001
,
1000
0010
1000
0010
1000
0100
0010
0001
,
0100
0001
0100
0001
0100
0010
0100
0010
,
0100
0001
0000
0101
0000
1001
0000
0001
,
1000
0100
0001
0100
1000
0001
1000
0010
,
1000
0002
0000
0023
0000
0032
0000
1003
,
0001
0100
1000
0100
0001
1000
0001
0010
,
0001
0100
0010
1000
0002
0000
1003
0000
,
0001
0000
0100
0001
0000
0100
1000
0000
,
0100
0010
0000
1000
0001
0100
0002
0000
,
1003
0100
1000
0100
0001
0100
0001
0100
,
1000
0000
0020
0000
0000
0000
0130
0000
0001
0000
0000
1001
0000
0000
1000
0000
,
0010
1000
0100
0000
0010
0001
0100
0010
,
0000
0010
0100
0000
0001
0010
0100
1000
,
0001
0100
0001
1000
0010
0100
0001
0000
,
0010
0001
1000
0010
1000
0000
1100
0000
,
1000
0000
0000
0010
0000
0000
0001
0000
0000
0010
0000
0000
1000
0000
0000
0001
,
0000
1000
0100
0000
1000
0000
1100
0000
,
1000
0010
0100
0000
0001
0010
0100
1000
,
0001
0010
0001
1000
0010
0000
0110
0000
,
0010
0000
1000
0000
0001
0000
0000
0000
1000
0000
0000
0100
0000
0000
2100
0000
,
0000
0000
3001
0000
1000
0000
0000
0000
0001
0000
0000
0101
0000
0000
0120
0000
,
0000
0000
0000
0000
1030
0010
0100
0010
,
1000
0100
0010
0100
1000
0010
0100
0010
,
1000
0010
0001
0010
1000
0100
0010
0100
,
1000
0100
0001
0100
1000
0001
0000
0101
,
0000
0001
1000
0000
0001
0010
0100
0010
,
0001
0100
0010
0100
0001
0010
0100
0010
,
0001
0010
1000
0010
0001
0000
0100
0000
,
0100
0000
0100
0000
0110
0000
1000
0001
,
0000
1000
0010
1000
0001
1000
0100
0001
,
0100
0010
0100
1000
0010
0100
0010
1000
,
0010
0100
0010
0001
0010
1000
0100
0001
,
0100
0010
0001
0010
0100
1000
0100
0001
,
0100
1000
0100
0010
0001
0100
1000
0000
,
0100
0010
1000
0001
1000
0100
0001
0000
,
0100
0010
0001
1000
0010
0000
0010
0000
,
0010
0010
1001
0110
,
0010
1000
0001
0100
0001
0000
0101
0000
,
1100
0101
1000
1010
,
0011
1010
1000
1100
,
0101
0000
1100
0000
0110
0000
0001
1000
,
0010
2000
0000
3001
1000
0000
0001
0010
,
1000
0010
0100
0000
0010
0000
0001
0100
,
1000
0100
0010
0000
1000
0100
0001
0100
,
0010
0001
1000
0000
0001
0100
1000
0100
,
0010
1000
0001
0000
1000
0100
1000
0100
,
0010
0100
0010
0100
0010
0001
0010
0001
,
0010
0100
0010
0001
1000
0001
0102
0000
,
0000
1003
0020
0000
0130
0001
2001
0000
,
0000
0000
3001
0000
0020
0000
0000
0000
0130
0010
0100
0000
0010
0000
0001
0000
,
2002
0000
0000
0000
,
0000
0000
0000
0000
,
0000
0000
0000
0000
,
0000
0000
0000
0000
,
0000
0000
0000
0000
3003
0000
0000
0010
0100
0000
0000
0000
0000
0000
0000
0000
;

//---------------dance-single - ----------------
#NOTES:
     dance-single:
     :
     Hard:
     16:
     0.950,1.000,0.197,0.166,0.582: // measure 1
0000
0000
0000
0000
,  // measure 2
0000
0000
0000
0000
,  // measure 3
0000
0000
0000
0000
,  // measure 4
0000
0000
0000
0000
,  // measure 5
0000
0000
0000
0000
,  // measure 6
0001
0100
0010
1000
0001
1000
0001
0010
,  // measure 7
0100
1000
0001
1000
0001
0100
0010
1000
,  // measure 8
0001
0000
0010
0000
0100
0000
1000
0010
0100
0000
0010
0000
1000
0000
0001
0000
,  // measure 9
1000
0100
0010
0001
0100
0100
0010
1000
,  // measure 10
0001
0010
0100
1000
0010
0010
0100
0010
,  // measure 11
1000
0010
0100
0001
0100
0100
0010
1000
,  // measure 12
0001
0100
0010
1000
0010
0010
0100
0010
,  // measure 13
1000
0100
0002
0000
0103
0100
0010
0100
,  // measure 14
1000
0010
0002
0000
0013
0010
0100
0001
,  // measure 15
1000
0010
0200
0000
0301
0010
0200
0000
,  // measure 16
1300
0001
1000
1001
0020
0000
0030
0000
,  // measure 17
0100
0000
0001
0000
0010
0000
0001
0100
0001
0000
0010
0000
0100
0000
1000
0000
,  // measure 18
0010
0000
1000
0000
0100
0000
1000
0010
1000
0000
0010
0000
0100
0000
0001
0000
,  // measure 19
1000
0000
0001
0000
0010
0000
0001
1000
0001
0000
0100
0000
0001
0000
1000
0000
,  // measure 20
0001
0101
0000
1100
0000
0101
0000
1000
,  // measure 21
1010
0000
0010
0000
0100
0000
0010
1000
0010
0000
0100
0000
0001
0000
1000
0000
,  // measure 22
0001
0000
0010
0000
0100
0000
0010
0001
0010
0000
0001
0000
1000
0000
0100
0000
,  // measure 23
1000
0000
0010
0000
0100
0000
0001
1000
0001
0000
1000
0000
0100
0000
0010
0000
,  // measure 24
0100
0000
1100
0000
0000
0000
1000
0001
0100
0001
0100
0001
0010
0001
1000
0001
,  // measure 25
1000
0000
0100
0000
0001
0000
0100
0000
1000
0010
1000
0000
0001
0000
0100
0000
,  // measure 26
0001
0000
0010
0000
1000
0000
0010
0000
0001
0100
0001
0000
1000
0000
0100
0000
,  // measure 27
1000
0000
0010
0000
0001
0000
0010
0000
0100
0001
0100
0000
0001
0000
1000
0000
,  // measure 28
0001
0000
0010
0000
1000
0000
0010
0000
0100
1000
0100
1000
0001
0000
0100
0000
,  // measure 29
0010
0100
0100
0001
0100
0100
1000
0100
,  // measure 30
0100
0000
0001
0010
0001
0000
1000
0000
0001
0100
0001
0100
0002
0000
0000
0000
,  // measure 31
1003
0010
1000
0010
1000
0010
1000
0010
1000
0001
1000
0001
1000
0001
1000
0001
,  // measure 32
0100
0000
0102
0000
0000
0000
1003
0001
0100
0000
0000
0110
0000
0000
1010
0000
,  // measure 33
1000
0100
0010
0000
0100
0000
1000
0000
0001
0000
0100
0000
0010
0000
0100
0001
,  // measure 34
1000
0001
0010
1000
0010
0001
0100
1000
,  // measure 35
0100
0000
0010
0000
1000
0100
0010
0001
1000
0000
0100
0000
0010
0000
0100
0000
,  // measure 36
1000
0000
0010
0000
0100
0000
0001
0000
0011
0000
0000
0000
1001
0000
0001
0100
,  // measure 37
0010
0000
0100
0001
0000
0100
1000
0000
0100
0010
1000
0001
1000
0001
1000
0001
,  // measure 38
0010
0001
0100
1000
0100
0010
1000
0010
,  // measure 39
0001
0010
0100
0001
0010
1000
0010
0001
,  // measure 40
0100
0000
1000
0000
0100
0000
0010
1000
0001
0000
1000
0100
0010
0000
0100
0000
,  // measure 41
1000
0000
0001
0100
0001
0010
0001
0000
0100
0000
0010
0100
0000
0010
2000
0000
,  // measure 42
0000
0000
3001
0010
0100
0000
0000
0000
0010
0000
0000
0001
0000
0000
0012
0000
,  // measure 43
0000
0000
0000
0000
0000
0000
0000
0000
1003
0000
0010
0000
0100
0010
0100
0000
,  // measure 44
0010
0000
1000
0000
0001
0000
0100
0000
0001
0000
0010
0000
0100
0010
0100
0000
,  // measure 45
0010
0000
0001
0000
1000
0000
0010
0000
0100
0000
0001
0000
1000
0100
1000
0000
,  // measure 46
0001
0000
0010
0000
0100
0000
1000
0000
0010
0000
0100
0001
0100
0000
0001
1000
,  // measure 47
0001
0000
1000
0100
1000
0100
1000
0000
0001
0000
0100
0000
1000
0000
0100
0000
,  // measure 48
0010
0000
1000
0000
0001
0010
0001
0000
1000
0000
0100
0000
0001
0000
0100
0000
,  // measure 49
0010
0000
0001
0000
1000
0010
1000
0000
0010
0000
1000
0000
0100
0000
0000
0000
,  // measure 50
0010
0000
0001
0000
0100
0010
0100
0000
0110
0000
0000
1000
0001
0000
0010
0001
,  // measure 51
1000
0000
0001
1000
0001
1000
0010
0100
0001
0000
0010
0000
0100
0010
0001
0000
,  // measure 52
0100
0000
0010
0000
1000
0000
0001
0000
1000
0000
0010
0000
0100
0010
1000
0000
,  // measure 53
0010
0000
0100
0000
0001
0000
1000
0000
0001
0000
0010
0000
0001
1000
0100
0000
,  // measure 54
1000
0000
0010
0000
1000
0000
0001
0000
1000
0000
0100
0000
1000
0001
0010
0000
,  // measure 55
0001
0000
0100
0000
0010
0000
1000
0000
0010
0000
0100
0000
0010
1000
0010
0000
,  // measure 56
1000
0001
0100
0000
0001
1000
0010
0000
0100
0000
0001
0000
0100
1000
0100
0000
,  // measure 57
0001
1000
0100
0000
1000
0001
0010
0000
0001
0000
0010
0000
1000
0000
0010
0000
,  // measure 58
0100
0000
1000
0000
0010
0000
0001
0000
0010
0100
0010
0000
1000
0001
0100
0001
,  // measure 59
1000
0001
0010
0100
1100
0000
1000
0001
,  // measure 60
0100
0000
0001
1000
0010
0000
1000
0001
0100
0000
0000
0000
0001
0000
1000
0000
,  // measure 61
0010
0000
1000
0001
0010
0000
0001
1000
0100
0000
0000
0000
0010
0000
0100
0000
,  // measure 62
1000
0000
0010
0100
0001
0000
0100
0010
1000
0100
1000
0100
0010
0001
0010
0001
,  // measure 63
1000
0000
1020
0000
0000
0000
0130
0000
0101
0000
0001
0000
0010
0000
0001
0100
,  // measure 64
0010
0000
1000
0000
0100
0000
0001
0000
0100
0000
1000
0000
0010
0000
1000
0010
,  // measure 65
0100
0000
0001
0000
0010
0000
0100
0000
0010
0001
0010
0001
0010
0001
1000
0000
,  // measure 66
0010
1000
0010
1000
0010
1000
0001
0000
0101
0000
0000
0000
1001
0000
0000
0000
,  // measure 67
0001
0100
0010
1000
0010
1000
0010
1000
0001
0000
0010
0000
0100
0010
0001
0000
,  // measure 68
1000
0000
0010
0000
0100
0010
1000
0000
0010
0000
0100
0000
0001
1000
0010
0000
,  // measure 69
1000
0000
0001
0000
0100
0001
1000
0000
0001
0010
0001
0010
0002
0000
0000
0000
,  // measure 70
1003
0000
0010
0100
0020
0000
0000
0000
1030
0100
1000
0100
2000
0000
0000
0000
,  // measure 71
3001
0000
0100
0010
0200
0000
0000
0000
0301
1000
0001
1000
0001
0000
1000
0000
,  // measure 72
2002
0000
0000
0000
,  // measure 73
0000
0000
0000
0000
,  // measure 74
0000
0000
0000
0000
,  // measure 75
0000
0000
0000
0000
,  // measure 76
0000
0000
0000
0000
3003
0000
0010
0100
0001
0000
0000
0000
0000
0000
0000
0000
;

//---------------dance-single - ----------------
#NOTES:
     dance-single:
     :
     Challenge:
     18:
     1.000,1.000,0.800,0.177,0.998: // measure 1
0000
0000
0000
0000
,  // measure 2
0000
0000
0000
0000
,  // measure 3
0000
0000
0000
0000
,  // measure 4
0000
0000
0000
0000
,  // measure 5
0000
0000
0000
0000
,  // measure 6
1001
0000
0001
0000
0100
0000
0101
0000
0001
0000
1000
0000
1100
0000
1000
0001
,  // measure 7
0010
0011
0001
0100
0110
0010
1000
1001
,  // measure 8
1000
0000
0100
0000
0010
0000
0001
1000
0010
0000
1000
0001
0100
0000
0001
0000
,  // measure 9
1000
0100
0110
0100
1000
0010
1010
0010
,  // measure 10
0100
0001
0011
0001
0100
0010
0110
0010
,  // measure 11
1000
0001
0011
0001
1000
0010
1010
0010
,  // measure 12
0100
0001
0101
0001
0010
0110
1001
0000
,  // measure 13
0001
0100
0110
0100
0001
0010
0011
0001
,  // measure 14
1000
0010
0110
0010
1000
0001
1001
0001
,  // measure 15
1000
0000
0100
0000
0101
0000
0100
0010
0001
0000
1000
0001
0100
0000
0001
1000
,  // measure 16
0001
1000
0001
1001
0020
0000
0030
0000
,  // measure 17
1100
0000
0100
1000
0010
0000
0110
0000
0010
0100
0001
0000
0101
0000
0001
0100
,  // measure 18
0010
0000
0110
0000
0010
1000
0001
0000
1000
0000
0100
0000
0010
0000
0110
0000
,  // measure 19
0011
0000
0001
0100
0010
0000
1010
0000
1000
0010
0100
0000
0110
0000
0010
1000
,  // measure 20
0001
0000
1001
0000
0000
0000
0101
0000
0000
0000
1100
0000
0100
1000
0010
0000
,  // measure 21
1010
0000
1000
0001
0010
0000
0011
0000
0001
1000
0010
0000
1010
0000
0010
1000
,  // measure 22
0100
0000
1100
0000
0100
0010
0001
0000
0100
0000
0110
0000
1010
0000
1000
0000
,  // measure 23
1001
0000
0001
0010
0100
0000
0110
0000
0010
0001
1000
0000
1001
0000
1000
0010
,  // measure 24
0100
0000
0110
0000
0000
0000
0101
0000
0001
1000
0001
0010
0100
1000
0100
0010
,  // measure 25
0001
0100
0001
0100
0001
1000
0001
1000
0001
0010
0001
0010
0001
0010
0001
1000
,  // measure 26
0002
0000
0000
0000
1003
0100
0020
0000
0000
0000
0032
0000
0000
0000
1003
0010
,  // measure 27
1000
0100
1000
0100
1000
0001
1000
0001
1000
0010
1000
0010
1000
0000
0010
0100
,  // measure 28
0001
0010
1000
0010
0002
0000
0103
0010
,  // measure 29
1000
0100
0010
0100
1000
0000
0001
0100
0010
0100
0001
0000
1000
0010
0100
0010
,  // measure 30
1000
0000
0001
0010
0001
1000
0001
1000
0001
0010
1000
0010
0002
0000
0000
0000
,  // measure 31
1003
0100
1000
0100
0001
0100
0001
0100
1000
0010
1000
0010
0100
0010
0100
0010
,  // measure 32
1000
0000
1020
0000
0000
0000
0130
0010
1000
0000
0001
0010
0000
1000
0010
0000
,  // measure 33
0001
1000
0100
0000
1000
0000
0100
0000
1000
0000
0010
0000
0100
0000
0001
1000
,  // measure 34
0100
1000
0010
0100
0001
0100
1000
0100
,  // measure 35
0001
0000
0010
0000
0100
1000
0001
0010
0001
0000
1000
0000
1010
0000
0000
0000
,  // measure 36
0100
0000
0001
0000
0011
0000
0000
0000
1001
0000
0000
0000
1000
0100
1000
0100
,  // measure 37
1000
0010
1000
0010
1000
0001
0100
0000
0001
0010
0000
1000
0010
0000
0001
1000
,  // measure 38
0001
0000
0100
0001
0010
0000
0100
0000
0010
0000
0001
0000
0101
0000
0001
1000
,  // measure 39
0100
0001
0100
1000
0010
0001
0010
1000
,  // measure 40
0001
0000
0010
0000
1000
0000
0010
0100
1000
0000
0010
0100
0001
0000
0100
0010
,  // measure 41
1000
0000
0001
1000
0100
1000
0001
0000
1001
0000
1000
0100
0000
0001
0200
0000
,  // measure 42
0000
0000
1300
0010
0100
0000
0000
0000
0110
0000
0000
1001
0000
0000
0120
0000
,  // measure 43
0000
0000
1030
0000
0001
0000
0100
0000
0101
0000
0001
0000
1000
0100
0010
0000
,  // measure 44
0001
0100
0010
0000
1000
0001
0010
0000
0011
0000
0001
0000
1000
0010
0100
0000
,  // measure 45
0001
0010
0100
0000
1000
0010
0100
0000
0110
0000
0010
0000
1000
0001
0100
0000
,  // measure 46
0001
1000
0100
0000
1000
0001
0010
0000
0110
0000
0001
1000
0100
0000
1000
0001
,  // measure 47
0010
0000
0001
1000
0001
1000
0001
1000
0001
0000
0100
0000
0001
0010
0100
0000
,  // measure 48
1000
0010
0100
0000
0010
1000
0001
0000
0101
0000
0001
0000
0010
1000
0010
0000
,  // measure 49
0001
0010
0001
0000
1000
0100
1000
0000
1100
0000
0100
0000
0001
0100
0001
0000
,  // measure 50
0100
1000
0100
0000
1000
0001
1000
0000
0110
0000
0010
0100
0001
0100
0010
0000
,  // measure 51
1000
0001
0100
0001
1000
0000
0001
1000
0010
0000
1010
0000
1000
0100
0010
0000
,  // measure 52
0100
1000
0001
0000
0100
0001
1000
0000
1001
0000
0001
0000
0010
0001
0100
0000
,  // measure 53
0001
0100
0010
0000
0100
0001
1000
0000
1100
0000
0100
0000
1000
0010
0100
0000
,  // measure 54
0010
1000
0100
0000
0010
0001
1000
0000
1001
0000
0001
0000
0100
0001
0010
0000
,  // measure 55
0001
0100
0010
0000
0100
0001
1000
0001
0010
0000
0001
0000
1000
0100
1000
0000
,  // measure 56
0100
0001
0100
0000
0001
0010
0001
0000
0100
0000
1000
0000
0010
0001
0010
1000
,  // measure 57
0010
0100
0010
0000
1000
0100
0010
0000
0110
0000
0010
0001
0100
0000
0010
1000
,  // measure 58
0100
0000
0010
0001
0100
0000
0010
1000
0001
1000
0001
1000
0001
1000
0100
0010
,  // measure 59
0001
0100
0010
1000
0001
0010
0100
1000
0001
0000
0100
0001
0010
0000
0100
0000
,  // measure 60
0110
0000
0010
0000
0011
0000
0001
0000
1001
0000
0100
1000
0010
0000
0100
0000
,  // measure 61
0110
0000
0010
0000
1010
0000
0010
1000
0100
0000
1000
0000
1100
0000
0100
0000
,  // measure 62
0110
0000
0010
0000
0011
0000
0001
0100
0010
0100
0010
0100
0010
0000
0100
0001
,  // measure 63
1000
0000
1002
0000
0000
0000
1003
0001
0010
0000
0001
0100
1000
0000
0100
0010
,  // measure 64
1000
0000
0100
0001
0100
0000
1000
0001
1000
0000
0001
0010
1000
0000
0010
0001
,  // measure 65
0010
0000
0001
1000
0001
0000
1000
0010
1000
0100
1000
0100
0001
0100
0001
0100
,  // measure 66
1000
0010
0100
0001
1000
0001
0100
0001
1000
0000
0000
0000
1001
0000
0000
0000
,  // measure 67
0001
0010
0001
0010
0001
0100
1000
0100
0001
0000
0011
0000
0001
0100
0010
0000
,  // measure 68
1000
0000
1010
0000
1000
0100
0010
0000
0100
0010
0001
0000
0100
0010
1000
0000
,  // measure 69
0010
1000
0001
1000
0002
0000
0000
0000
1003
0010
0001
0010
2000
0000
0000
0000
,  // measure 70
3001
0010
0100
1000
0002
0000
0000
0000
1003
0100
0001
0100
2000
0000
0000
0000
,  // measure 71
3010
0100
0001
0100
0020
0000
0000
0000
1030
0001
0100
1000
0010
0000
0100
0000
,  // measure 72
0220
0000
0000
0000
,  // measure 73
0000
0000
0000
0000
,  // measure 74
0000
0000
0000
0000
,  // measure 75
0000
0000
0000
0000
,  // measure 76
0000
0000
0000
0000
0330
0000
0001
0100
1000
0000
0000
0000
0000
0000
0000
0000
;
