#TITLE:Ready To Rockit Blues;
#SUBTITLE:;
#ARTIST:SLAKE;
#TITLETRANSLIT:;
#SUBTITLETRANSLIT:;
#ARTISTTRANSLIT:;
#GENRE:;
#CREDIT:;
#MENUCOLOR:;
#METERTYPE:DDR;
#BANNER:Ready To Rockit Blues.png;
#BACKGROUND:Ready To Rockit Blues-bg.png;
#LYRICSPATH:;
#CDTITLE:./CDTITLES/BEATMANIA IIDX.PNG;
#MUSIC:Ready To Rockit Blues.ogg;
#OFFSET:0.000;
#SAMPLESTART:33.600;
#SAMPLELENGTH:15.000;
#SELECTABLE:YES;
#LISTSORT:;
#BPMS:0.000=150.000;
#STOPS:;
#BGCHANGES:;
#ATTACKS:;

//---------------dance-single - ----------------
#NOTES:
     dance-single:
     :
     Beginner:
     2:
     0.121,0.153,0.000,0.088,0.000:
0000
0000
0000
0000
,
0000
0000
0000
0000
,
0000
0000
0000
0000
,
0000
0000
0000
0000
,
0000
0000
0000
0000
,
0001
0000
0001
0000
,
0001
0000
0000
0000
,
1000
0000
1000
0000
,
1000
0000
0000
0000
,
0010
0000
0010
0000
,
0010
0000
0000
0000
,
0100
0000
0100
0000
,
0100
0000
0000
0000
,
0020
0000
0030
0000
,
0000
0000
1000
0000
,
2000
0000
3000
0000
,
0000
0000
0001
0000
,
0002
0000
0003
0000
,
0000
0000
0010
0000
,
0020
0000
0030
0000
,
0000
0000
0100
0000
,
0100
0000
0100
0000
,
0010
0000
0000
0000
,
0001
0000
0001
0000
,
1000
0000
0000
0000
,
0010
0000
0010
0000
,
0100
0000
0000
0000
,
0001
0000
0001
0000
,
1000
0000
0000
0000
,
0001
0000
1000
0000
,
0001
0000
0000
0000
,
1000
0000
0001
0000
,
1000
0000
0000
0000
,
0010
0000
0100
0000
,
0010
0000
0000
0000
,
0100
0000
0001
0000
,
1000
0000
0000
0000
,
0001
0000
0001
0000
,
0001
0000
0001
0000
,
1000
0000
0020
0000
,
0030
0000
1000
0000
,
0001
0000
0020
0000
,
0030
0000
0001
0000
,
0100
0000
0000
0000
,
0000
0000
0010
0010
,
0020
0000
0000
0000
,
0030
0000
0000
0000
,
2000
0000
0000
0000
,
3000
0000
0000
0000
,
0002
0000
0000
0000
,
0003
0000
0000
0000
,
0200
0000
0000
0000
,
0300
0000
0000
0000
,
0001
0000
0000
0000
,
1000
0000
0000
0000
,
0010
0000
0000
0000
,
0100
0000
0000
0000
,
0001
0000
0001
0000
,
0001
0000
0000
0000
,
1000
0000
1000
0000
,
1000
0000
0000
0000
,
0000
0100
0000
0100
,
0000
0100
0000
0000
,
0000
0010
0000
0010
,
0000
0010
0000
0000
,
0001
0000
0001
0000
,
1000
0000
1000
0000
,
0010
0000
0010
0000
,
0100
0000
0100
0000
,
0001
0000
0000
0000
;

//---------------dance-single - ----------------
#NOTES:
     dance-single:
     :
     Easy:
     5:
     0.277,0.275,0.000,0.168,0.000:
0000
0000
0000
0000
,
0000
0000
0000
0000
,
0000
0000
0000
0000
,
0000
0000
0000
0000
,
0000
0000
0000
0000
,
0001
0100
0100
0100
,
0010
1000
1000
1000
,
0001
0100
0100
0100
,
0010
1000
1000
1000
,
0001
0010
0010
0010
,
0100
1000
1000
1000
,
0100
0010
0001
1000
,
0010
0100
0001
0000
,
0000
1000
0020
0000
,
1000
0000
0130
0000
,
0001
0010
0002
0000
,
0100
0000
1003
0000
,
1000
0100
2000
0000
,
0010
0000
3001
0000
,
0010
0100
0200
0000
,
0001
0000
0310
0000
,
0100
0010
0010
0010
,
1000
0100
0100
0100
,
0010
0001
2000
0000
,
0001
0000
3100
0000
,
0001
0010
0010
0010
,
0100
1000
1000
1000
,
0010
0100
0002
0000
,
1000
0000
0013
0000
,
1000
0100
0100
0100
,
0010
0001
0001
0001
,
1000
0010
0200
0000
,
0010
0000
1300
0000
,
0010
0100
0100
0100
,
0001
0010
0010
0010
,
0100
1000
0020
0000
,
1000
0000
0130
0000
,
1000
0001
0100
0010
,
1000
0000
0001
0000
,
1000
0100
0020
0000
,
0001
0000
0031
0000
,
0001
0010
0100
1000
,
0010
0000
0100
0000
,
0010
1000
0002
0000
,
0003
0000
1000
1000
,
0020
1000
0000
1030
,
0002
0100
0000
0103
,
2000
0100
0000
3100
,
0002
0010
0000
0013
,
1000
0010
0100
0001
,
2000
0000
3100
0000
,
0001
0010
0100
1000
,
0002
0000
0103
0000
,
1000
0010
0100
0010
,
2000
0000
3010
0000
,
0001
0010
0100
0010
,
0002
0000
0013
0000
,
1000
0100
0010
0001
,
2000
0000
3001
0000
,
0100
0010
0010
1000
,
0001
0001
0010
0100
,
1000
0100
0000
0100
,
0000
1000
0000
1000
,
0000
0010
0000
0010
,
0000
0100
0000
0100
,
0001
0010
0010
0010
,
0100
1000
1000
1000
,
0001
0100
0100
0100
,
1000
0100
0100
0100
,
0001
0000
0000
0000
;

//---------------dance-single - ----------------
#NOTES:
     dance-single:
     :
     Medium:
     8:
     0.429,0.397,0.133,0.274,0.000:
0000
0000
0000
0000
,
0000
0000
0000
0000
,
0000
0000
0000
0000
,
0000
0000
0000
0000
,
0000
0000
0000
0000
,
0010
1000
0010
0000
1000
0000
0100
0000
,
1000
0000
0100
0000
0010
0001
0010
0000
,
0001
0100
0001
0000
1000
0000
0010
0000
,
0100
0000
0010
0000
1000
0100
1000
0000
,
0001
1000
0001
0000
0100
0000
0010
0000
,
1000
0000
0001
0000
0010
0100
0010
0000
,
0001
0010
0100
0000
0010
0000
0001
0000
,
1000
0010
0100
0000
0010
0000
1000
0000
,
0001
0100
0001
0000
0102
0000
0010
0000
,
1000
0000
0103
0000
1000
0001
1000
0000
,
0010
1000
0010
0000
0120
0000
1000
0000
,
0100
0000
0031
0000
1000
0001
1000
0000
,
0001
0010
0100
0000
0012
0000
1000
0000
,
0100
0000
1003
0000
0010
0100
0001
0000
,
1000
0010
0100
0000
0020
0000
0000
0000
,
1000
0000
0000
0000
0130
0010
1000
0000
,
0001
0100
0001
0000
0020
0000
0031
0000
,
1000
0000
0100
0000
1000
0001
1000
0000
,
0010
1000
0010
0000
0200
0000
0310
0000
,
1000
0000
0100
0000
0010
0001
1000
0000
,
0001
0100
0010
0000
0200
0000
0301
0000
,
1000
0000
0100
0000
0010
0100
1000
0000
,
0001
0010
0100
0000
0020
0000
0031
0000
,
1000
0000
0010
0000
1000
0001
1000
0000
,
0001
0010
0100
0000
2000
0000
3100
0000
,
1000
0000
0010
0000
0100
0001
1000
0000
,
0010
1000
0001
0000
0200
0000
0310
0000
,
0100
0000
0001
0000
0010
0001
0100
0000
,
0001
0100
1000
0000
0200
0000
0301
0000
,
1000
0000
0100
0000
0010
0001
1000
0000
,
1000
0100
0001
0000
0200
0000
1300
0000
,
0001
0000
0010
0000
0100
0010
0001
0000
,
0100
0010
0100
0000
0210
0000
0001
0000
,
0010
1000
0301
0000
,
1000
0100
0010
0000
2100
0000
0000
0000
,
0010
0000
3100
0000
,
0001
0010
0100
0000
0020
0000
0001
0000
,
0100
1030
0002
0000
,
1003
0010
0200
0000
,
0300
0000
0010
0100
,
0120
0000
1030
0000
0001
0100
0001
0000
,
0020
0001
0100
1030
,
0210
0000
0301
0000
1000
0100
1000
0000
,
0020
0000
1030
0000
0001
1000
0200
0000
,
0320
0001
0100
1000
,
0100
0000
0001
0000
1000
0000
0031
1000
,
0200
1000
0010
0001
,
0010
0000
1000
0000
0301
1000
0010
0100
,
0002
0010
1000
0103
,
2000
0100
0001
3010
,
0200
0010
1000
0301
,
0020
0000
0001
0000
0130
0010
0002
0000
,
1003
0100
1000
0000
0001
0000
0100
0000
,
0001
0010
0001
0000
1000
0000
0010
0000
,
1000
0100
0010
0001
2000
0000
3001
0000
,
0001
0010
0100
1000
0002
0000
1003
0000
,
0100
0110
0000
0110
,
0000
0101
0000
0101
,
0000
0110
0000
0110
,
0000
1010
0000
1010
,
1000
0100
0100
0000
0010
0000
0001
0000
,
0100
0010
0010
0000
1000
0000
0001
1000
,
0010
1000
0001
0000
1000
0000
0100
0000
,
0010
0001
0100
0000
0010
0000
1000
0000
,
0001
0000
0000
0000
;

//---------------dance-single - ----------------
#NOTES:
     dance-single:
     :
     Hard:
     12:
     0.570,0.611,0.416,0.265,0.642: // measure 1
0000
0000
0000
0000
,  // measure 2
0000
0000
0000
0000
,  // measure 3
0000
0000
0000
0000
,  // measure 4
0000
0000
0000
0000
,  // measure 5
0000
0000
0000
0000
,  // measure 6
1000
0000
0010
0000
0100
0000
0000
0010
0000
0000
0000
1000
0000
1000
0000
0000
,  // measure 7
0001
0000
0000
0000
1001
0000
0000
0001
0000
0000
0010
0000
0000
0010
0000
0000
,  // measure 8
0001
0000
0100
0000
0010
0000
0000
0100
0000
0000
0000
0001
0000
0001
0000
0000
,  // measure 9
1000
0000
0000
0000
1001
0000
0000
0100
0000
0000
0010
0000
0000
0010
0000
0000
,  // measure 10
1000
0000
0010
0000
0100
0000
0000
0001
0000
0000
0000
1000
0000
1000
0000
0000
,  // measure 11
0001
0000
0000
0000
0011
0000
0000
0100
0000
0000
0010
0000
0000
0010
0000
0000
,  // measure 12
0001
0000
1000
0000
0100
0000
0000
1000
0001
0000
0000
1000
0000
1000
0000
0000
,  // measure 13
0010
0000
0000
0000
0110
0000
0000
0100
0001
0000
0010
0000
0000
0010
0000
0000
,  // measure 14
0100
0000
1000
0000
0001
0000
0100
0020
0000
0000
0000
1000
0000
1030
0000
0000
,  // measure 15
0100
0000
0000
0000
1100
0000
0000
0010
0000
0010
0000
0010
0001
0000
0000
0000
,  // measure 16
0100
0000
0010
0000
1000
0000
0010
0200
0000
0000
0000
0001
0000
0301
0000
0000
,  // measure 17
0010
0000
0000
0000
0011
0000
0000
1000
0000
1000
0000
1000
0010
0000
0000
0000
,  // measure 18
1000
0000
0001
0000
0100
0000
0001
0020
0000
0000
0000
0001
0000
0031
0000
0000
,  // measure 19
1000
0000
0000
0000
1100
0000
0000
0010
0000
0010
0000
0010
0100
0000
0001
0000
,  // measure 20
1000
0000
0010
0000
0100
0000
0000
0020
0000
0000
0000
0000
1000
0000
0000
0000
,  // measure 21
0000
0000
0000
0000
0031
0000
0000
1000
0000
1000
0000
1000
0001
0000
0000
0000
,  // measure 22
1000
0000
0100
0000
0010
0000
0100
2000
0000
0000
0000
0001
0000
3001
0000
0000
,  // measure 23
0010
0000
0000
0000
0110
0000
0000
0001
0000
0100
0000
0001
0010
0000
0000
0000
,  // measure 24
0001
0000
0100
0000
0010
0000
0100
0002
0000
0000
0000
1000
0000
1003
0000
0000
,  // measure 25
0100
0000
0000
0000
1100
0000
0000
1000
0000
0010
0000
1000
0001
0000
0000
0000
,  // measure 26
1000
0000
0100
0000
0010
0000
0100
2000
0000
0000
0000
0010
0000
3010
0000
0000
,  // measure 27
0100
0000
0000
0000
0110
0000
0000
0001
0000
1000
0000
0001
0010
0000
0001
0000
,  // measure 28
1000
0000
0100
0000
1000
0000
0010
0200
0000
0000
0000
0010
0000
0310
0000
0000
,  // measure 29
1000
0000
0000
0000
1100
0000
0000
1000
0000
0001
0000
0010
0001
0000
0000
0000
,  // measure 30
0100
0000
0010
0000
1000
0000
0010
0200
0000
0000
0000
0001
0000
0310
0000
0000
,  // measure 31
0001
0000
0000
0000
0101
0000
0000
0001
0000
0010
0000
0100
1000
0000
0010
0000
,  // measure 32
0100
0000
0010
0000
1000
0000
0100
0020
0000
0000
0000
0100
0000
1030
0000
0000
,  // measure 33
0100
0000
0000
0000
0110
0000
0000
0100
0000
1000
0000
0001
1000
0000
0000
0000
,  // measure 34
0010
0000
0100
0000
0001
0000
0010
0002
0000
0000
0000
1000
0000
0013
0000
0000
,  // measure 35
0100
0000
0000
0000
0110
0000
0000
0001
0000
0100
0000
1000
0100
0000
0001
0000
,  // measure 36
1000
0000
0001
0000
0010
0000
0001
0200
0000
0000
0000
0010
0000
1300
0000
0000
,  // measure 37
0010
0000
0000
0000
0110
0000
0000
1000
0000
0100
0000
0001
0100
0000
1000
0000
,  // measure 38
0001
0011
0001
1001
,  // measure 39
0101
0000
0202
0303
,  // measure 40
1000
0010
0200
0000
,  // measure 41
1300
0000
2200
3300
,  // measure 42
0010
0110
0100
0101
,  // measure 43
0011
0000
0220
0330
,  // measure 44
0010
0000
0000
0000
0100
0000
0000
2000
0000
0000
0000
0000
3000
0000
0000
0000
,  // measure 45
0000
0000
1001
0110
,  // measure 46
0102
0000
0010
0000
0010
0000
0000
1000
0000
0000
0000
0100
0000
0103
0000
0000
,  // measure 47
2000
0000
0000
0000
3100
0000
0000
0010
0000
0000
0000
0001
1000
0001
0000
0000
,  // measure 48
0210
0000
1000
0000
1000
0000
0000
0010
0000
0000
0000
0001
0000
0301
0000
0000
,  // measure 49
1100
0000
0000
0000
0101
0000
0000
1000
0100
0000
0010
0000
0100
2000
0000
0000
,  // measure 50
3020
0000
0100
0000
0100
0000
0000
0001
0000
0000
0000
1000
0000
1000
0000
0000
,  // measure 51
0001
0000
0000
0000
0100
0000
0000
1000
0000
0000
0000
0001
0000
0031
0000
0000
,  // measure 52
2000
0000
0100
0000
0100
0000
0000
0010
0000
0000
0000
0001
0000
3001
0000
0000
,  // measure 53
0200
0000
0000
0000
0010
0000
0000
1000
0000
0000
0010
0000
0000
0010
0000
0000
,  // measure 54
1000
0000
1000
0000
1000
0000
0000
0001
0000
0000
0000
1000
0000
1300
0000
0000
,  // measure 55
0002
0000
0000
0000
0010
0000
0000
1000
0000
0000
0000
0100
0000
0103
0000
0000
,  // measure 56
0020
0000
0100
0000
0100
0000
0000
1000
0000
0000
0000
0001
0000
0031
0000
0000
,  // measure 57
2000
0000
0000
0000
0100
0000
0000
0001
0000
0000
0000
0100
0000
3100
0000
0000
,  // measure 58
0010
0000
0001
0000
0100
0000
0001
0010
0000
0000
0000
0001
1000
0001
0000
0000
,  // measure 59
1000
0000
0000
0000
1100
0000
0000
1010
0000
0000
0000
1000
0010
1000
0000
0000
,  // measure 60
0010
0000
0100
0000
0001
0000
1000
0100
0000
0100
1000
0000
0001
0000
0010
0000
,  // measure 61
0001
0000
0100
0000
0010
0000
1000
0001
0000
0001
0010
0000
0001
0000
0100
0000
,  // measure 62
0001
1001
0001
1001
,  // measure 63
1000
1001
1000
1001
,  // measure 64
0010
0110
0010
0110
,  // measure 65
0100
0101
0100
0101
,  // measure 66
0001
0000
0010
0000
0011
0000
0000
0010
0001
0000
0000
0010
0001
0010
0000
0000
,  // measure 67
0011
0000
0000
0000
1001
0000
0000
1000
0010
0000
1000
0000
0010
0000
0110
0000
,  // measure 68
0000
0000
0101
0000
0010
0000
1000
0100
0000
0000
0000
1000
0100
1000
0000
0000
,  // measure 69
1100
0000
0000
0000
0101
0000
0000
1000
0001
0000
1000
0000
0010
0100
0000
0000
,  // measure 70
0010
0010
0000
0000
0000
0000
0000
0000
0000
0000
0000
0000
0000
0000
0000
0000
;

//---------------dance-single - ----------------
#NOTES:
     dance-single:
     :
     Challenge:
     14:
     0.689,0.703,0.425,0.106,0.894: // measure 1
0000
0000
0000
0000
,  // measure 2
0000
0000
0000
0000
,  // measure 3
0000
0000
0000
0000
,  // measure 4
0000
0000
0000
0000
,  // measure 5
0000
0000
0000
0000
,  // measure 6
0001
0000
0010
0000
0100
0000
0000
0010
0001
0010
0000
0001
0000
0100
0000
0000
,  // measure 7
0001
0000
0000
0000
1001
0000
0000
1000
0010
1000
0000
1000
0010
0000
0110
0000
,  // measure 8
0001
0000
0010
0000
0100
0000
0000
0010
0001
0010
0000
0001
0000
1000
0000
0000
,  // measure 9
0110
0000
0000
0000
0101
0000
0000
0010
1000
0010
0000
1000
0000
0001
0000
0000
,  // measure 10
1000
1000
0100
0000
0010
0000
0000
0001
1000
0001
0000
1000
0000
0010
0000
0000
,  // measure 11
0110
0000
0000
0000
1001
0000
0000
0100
0001
0100
0000
0010
1000
0000
1001
0000
,  // measure 12
0010
0000
0100
0000
1000
0000
0000
0010
1000
0010
0000
1000
0000
0001
0000
0000
,  // measure 13
0110
0000
0000
0000
0101
0000
0000
0001
0010
0001
0000
1000
0000
0001
0000
0000
,  // measure 14
1000
0000
0100
0000
0010
0000
0000
0100
1000
0010
0000
1000
0000
0100
0000
0000
,  // measure 15
0110
0000
0000
0000
1100
0000
0000
0001
0010
0100
0000
0100
0010
0000
0000
0000
,  // measure 16
0001
0000
0100
0000
0010
0000
0000
0100
0001
0010
0000
0001
0000
1000
0000
0000
,  // measure 17
0110
0000
0000
0000
0101
0000
0000
1000
0010
0100
0000
0100
0010
0000
0000
0000
,  // measure 18
1000
0000
0010
0000
0100
0000
0000
0010
1000
0001
0000
1000
0000
0100
0000
0000
,  // measure 19
0110
0000
0000
0000
1010
0000
0000
0001
1000
0100
0000
1000
0010
0000
1001
0000
,  // measure 20
0010
0000
0100
0000
0001
0000
1000
0020
0000
0000
0000
0000
1000
0000
0000
0000
,  // measure 21
0000
0000
0000
0000
0130
0000
0000
0010
0000
1000
0000
0001
1000
0000
0000
0000
,  // measure 22
1001
0000
0010
0000
0100
0000
0000
0010
0001
0010
0000
0010
0001
0000
1000
0000
,  // measure 23
0010
0000
0100
0000
0010
0000
0000
1000
0010
1000
0000
1000
0010
0000
1000
0000
,  // measure 24
0001
0000
0010
0000
0100
0000
0000
1000
0100
1000
0000
1000
0001
0000
1000
0000
,  // measure 25
0010
0000
0100
0000
0001
0000
1000
0001
0010
0001
0000
0001
1000
0000
0000
0000
,  // measure 26
0001
0000
1000
0000
0100
0000
0000
1000
0010
1000
0000
1000
0010
0000
0100
0000
,  // measure 27
0010
0000
0000
0000
1010
0000
0000
1000
0100
1000
0000
1000
0001
0000
0011
0000
,  // measure 28
0001
0000
0100
0000
0010
0000
0000
0100
0001
0100
0000
0100
0010
0000
0100
0000
,  // measure 29
0001
0000
1000
0000
0010
0000
1000
0100
0010
0100
0000
0100
1000
0000
0000
0000
,  // measure 30
0001
0000
0010
0000
0100
0000
0010
0001
0100
0001
0000
0001
1000
0000
0010
0000
,  // measure 31
0100
0000
0010
0000
1000
0000
0100
0010
0100
1000
0000
1000
0010
0000
0100
0000
,  // measure 32
0010
0000
1000
0000
0100
0000
0010
0100
1000
0001
0000
0001
0100
0000
0010
0000
,  // measure 33
0100
0000
0001
0000
0010
0000
0001
1000
0010
1000
0000
1000
0001
0000
0000
0000
,  // measure 34
1000
0000
0010
0000
0100
0000
0001
0010
0100
1000
0000
1000
0001
0000
1000
0000
,  // measure 35
0010
0000
0100
0000
0001
0000
1000
0010
0100
0001
0000
0001
1000
0000
0110
0000
,  // measure 36
0001
0000
0100
0000
1000
0000
0100
0001
0010
0001
0000
0001
1000
0000
0001
0000
,  // measure 37
1000
0000
0010
0000
0001
0000
0010
1000
0100
1000
0000
1000
0001
0000
1000
0000
,  // measure 38
0010
0000
0000
1000
0100
0000
0000
0001
0100
0000
0000
1000
0010
0000
0000
0001
,  // measure 39
0010
0000
0000
1000
0100
0000
0000
0000
0010
0000
0000
0001
0100
0000
0000
0000
,  // measure 40
1000
0000
0000
0100
0001
0000
0000
0000
2000
0000
0000
0000
3000
0000
0000
0000
,  // measure 41
0001
0000
1000
0100
1000
0000
0000
0000
0001
0000
1000
0010
1000
0000
0001
0000
,  // measure 42
1000
0000
0000
0100
0001
0000
0000
0100
1000
0000
0000
0100
0001
0000
0000
0100
,  // measure 43
0010
0001
0100
0000
0010
1000
0001
0000
,  // measure 44
0100
0000
0000
0000
0010
0000
0000
0220
0000
0000
0000
0000
0330
0000
0000
0000
,  // measure 45
0000
0000
1010
1001
,  // measure 46
1000
0000
0100
0000
0110
0000
0000
0100
1000
0100
0000
1000
0000
0010
0000
0000
,  // measure 47
1010
0000
0000
0000
1001
0000
0000
0001
0010
0001
0000
1000
0000
0001
0000
0000
,  // measure 48
0100
0000
0001
0000
0011
0000
0000
0001
1000
0001
0000
0100
0000
0010
0000
0000
,  // measure 49
0110
0000
0000
0000
0101
0000
0000
1000
0100
0000
1100
0000
0000
0011
0000
0000
,  // measure 50
2001
0000
0010
0000
0010
0000
0000
0001
0000
0001
0000
0100
0000
3100
0000
0000
,  // measure 51
0012
0000
0000
0000
1000
0000
0000
0100
0000
0100
0000
1000
0000
1003
0010
0000
,  // measure 52
0210
0000
0001
0000
0001
0000
0000
1000
0000
1000
0000
0001
0000
0301
0000
0000
,  // measure 53
0021
0000
0000
0000
1000
0000
0000
0100
0000
0100
0000
0001
0000
0001
0000
0000
,  // measure 54
0100
0000
1000
0000
0100
0000
0000
1000
0000
1000
0000
0001
0000
0031
0000
0000
,  // measure 55
2100
0000
0000
0000
0010
0000
0000
0001
0000
0001
0000
0100
0000
3100
0000
0000
,  // measure 56
0012
0000
1000
0000
0100
0000
0000
1000
0000
1000
0000
0010
0000
0013
0000
0000
,  // measure 57
0210
0000
0000
0000
0001
0000
0000
0000
1300
0000
0010
0000
1000
0100
0000
0000
,  // measure 58
0210
0000
1000
0000
0010
0000
0000
0001
0000
0010
0000
1000
0000
0001
0000
0000
,  // measure 59
1000
0000
0000
0000
0010
0000
0000
0001
0000
1000
0000
0010
0000
0301
0000
0000
,  // measure 60
1000
0100
0010
0001
1000
0100
0010
0001
1000
0010
0100
0001
1000
0010
0100
0001
,  // measure 61
1000
0100
1000
0100
0010
0100
0010
0100
1000
0010
0100
0001
1000
0001
0100
0001
,  // measure 62
1000
MMMM
1000
MMMM
,  // measure 63
1000
MMMM
1000
MMMM
,  // measure 64
0001
MMMM
0001
MMMM
,  // measure 65
0001
MMMM
0001
MMMM
,  // measure 66
0100
0000
0001
0000
0011
0000
0000
0001
0100
0001
0000
1000
0000
1010
0000
0000
,  // measure 67
0110
0000
0000
0000
0101
0000
0000
1000
0100
1000
0000
0001
0000
1000
0010
0000
,  // measure 68
0110
0000
0001
0000
0101
0000
0000
1000
0100
1000
0000
0001
0000
0011
0000
0000
,  // measure 69
1001
0000
0000
0000
0110
0000
0000
0001
1000
0100
0000
0100
1000
0001
0000
0000
,  // measure 70
0010
0010
0000
0000
0000
0000
0000
0000
0000
0000
0000
0000
0000
0000
0000
0000
;
