#TITLE:六花美人;
#SUBTITLE:;
#ARTIST:BEMANI Sound Team "DJ TOTTO×TATSUYA" feat. *spiLa*&moimoi;
#TITLETRANSLIT:RIKKA BIJIN;
#SUBTITLETRANSLIT:;
#ARTISTTRANSLIT:DJ TOTTO×TATSUYA feat. *spiLa*&moimoi;
#GENRE:;
#CREDIT:;
#MENUCOLOR:;
#METERTYPE:DDR;
#BANNER:RIKKA BIJIN.png;
#BACKGROUND:RIKKA BIJIN-bg.png;
#LYRICSPATH:;
#CDTITLE:./CDTITLES/POP'N MUSIC.PNG;
#MUSIC:RIKKA BIJIN.ogg;
#OFFSET:0.000;
#SAMPLESTART:46.509;
#SAMPLELENGTH:15.000;
#SELECTABLE:YES;
#LISTSORT:;
#BPMS:0.000=169.000;
#STOPS:;
#BGCHANGES:;
#ATTACKS:;

//---------------dance-single - ----------------
#NOTES:
     dance-single:
     t7r:
     Beginner:
     2:
     0.118,0.168,0.008,0.000,0.000:
0000
0000
0000
0000
,
0000
0000
0000
0000
,
0000
0000
0000
0000
,
0000
0000
0000
0000
,
0000
0000
0000
0000
,
0001
0000
0001
0000
,
0001
0000
0000
0000
,
1000
0000
1000
0000
,
1000
0000
0000
0000
,
0010
0000
0010
0000
,
0010
0000
0000
0000
,
0100
0000
0100
0000
,
0100
0000
0000
0000
,
0010
0000
0000
0000
,
1000
0000
0000
0000
,
0001
0000
0000
0000
,
1000
0000
0000
0000
,
0100
0000
0000
0000
,
0010
0000
0000
0000
,
0100
0000
0000
0000
,
1000
0000
0000
0000
,
0001
0000
0000
0000
,
0100
0000
0000
0000
,
0010
0000
0010
0000
,
0010
0000
0000
0000
,
1000
0000
1000
0000
,
1000
0000
0000
0000
,
0001
0000
0001
0000
,
0001
0000
0000
0000
,
0100
0000
0000
0000
,
0010
0000
0000
0000
,
1000
0000
0000
0000
,
0001
0000
1000
0000
,
0001
0000
0001
0000
,
1000
0000
0000
0000
,
1000
0000
1000
0000
,
0001
0000
0000
0000
,
0100
0000
0100
0000
,
0010
0000
0000
0000
,
0010
0000
0010
0000
,
0100
0000
0000
0000
,
0000
0001
0000
0001
,
0000
0000
0000
0000
,
0000
1000
0000
1000
,
0000
0000
0000
0000
,
0000
0010
0000
0010
,
0000
0000
0000
0000
,
0000
0100
0000
0100
,
0000
0000
0000
0000
,
0001
0000
1000
0000
,
0001
0000
0000
0000
,
1000
0000
0001
0000
,
1000
0000
0000
0000
,
0010
0000
0100
0000
,
0010
0000
0000
0000
,
0100
0000
0000
0000
,
0001
0000
0000
0000
,
1000
0000
0000
0000
,
0010
0000
0000
0000
,
1000
0000
0000
0000
,
0000
0000
0000
0000
,
0000
0000
0000
0000
,
0000
0000
0000
0000
,
0010
0000
0000
0000
,
0100
0000
0000
0000
,
0001
0000
1000
0000
,
0001
0000
0000
0000
,
1000
0000
1000
0000
,
0100
0000
0000
0000
,
0010
0000
0010
0000
,
0001
0000
0000
0000
,
0100
0000
0100
0000
,
0010
0000
0000
0000
,
1000
0000
0001
0000
,
1000
0000
0000
0000
,
0001
0000
0001
0000
,
0001
0000
0001
0000
,
1000
0000
0000
0000
,
1000
0000
0000
0000
,
0010
0000
0010
0000
,
0010
0000
0010
0000
,
0100
0000
0000
0000
,
0010
0000
0000
0000
,
1000
0000
0001
0000
,
1000
0000
0001
0000
,
1001
0000
0000
0000
;

//---------------dance-single - ----------------
#NOTES:
     dance-single:
     t7r:
     Easy:
     6:
     0.279,0.309,0.047,0.182,0.000: // measure 1
0000
0000
0000
0000
,  // measure 2
0000
0000
0000
0000
,  // measure 3
0000
0000
0000
0000
,  // measure 4
0000
0000
0000
0000
,  // measure 5
0000
0000
0000
0000
,  // measure 6
0010
0000
1000
0000
,  // measure 7
0001
0000
0100
0100
,  // measure 8
0100
0000
0001
0000
,  // measure 9
1000
0000
0010
0010
,  // measure 10
0010
0000
1000
0000
,  // measure 11
0100
0000
0010
0010
,  // measure 12
0010
0000
0001
0000
,  // measure 13
0100
0000
0001
0000
,  // measure 14
1000
0000
0001
0000
,  // measure 15
1000
0000
1001
0000
,  // measure 16
0020
0000
0000
0000
,  // measure 17
0130
0000
0001
0000
,  // measure 18
2000
0000
0000
0000
,  // measure 19
3100
0000
0010
0000
,  // measure 20
0002
0000
0000
0000
,  // measure 21
0103
0000
0010
0000
,  // measure 22
2000
0000
0000
0000
,  // measure 23
3001
0000
0100
0000
,  // measure 24
0001
0000
0001
0000
,  // measure 25
1000
0000
1000
0000
,  // measure 26
0010
0010
0010
0010
,  // measure 27
0100
0000
0001
0000
,  // measure 28
1000
0100
0000
1000
,  // measure 29
0001
0010
0000
0001
,  // measure 30
1000
0000
0010
0000
,  // measure 31
0100
0000
0001
0000
,  // measure 32
2000
0100
0000
3100
,  // measure 33
0001
0000
1001
0000
,  // measure 34
0010
0010
0100
0100
,  // measure 35
0001
0001
0010
0010
,  // measure 36
0001
0000
1000
0000
,  // measure 37
0010
1000
0100
0000
,  // measure 38
1000
1000
0010
0010
,  // measure 39
0100
0100
0001
0001
,  // measure 40
1000
0000
0001
0000
,  // measure 41
1000
0010
0100
0001
,  // measure 42
1000
1000
0100
0100
,  // measure 43
1000
1000
0010
0100
,  // measure 44
0001
0001
0010
0010
,  // measure 45
0100
0100
0010
0001
,  // measure 46
0100
0100
0010
0010
,  // measure 47
1000
1000
0001
1000
,  // measure 48
0010
0000
0100
0000
,  // measure 49
0001
0000
1000
0000
,  // measure 50
0002
0000
0013
0000
,  // measure 51
2000
0000
3010
0000
,  // measure 52
0001
0100
0010
1000
,  // measure 53
0001
1000
0200
0300
,  // measure 54
1000
1000
0100
0100
,  // measure 55
0010
0010
0001
0001
,  // measure 56
2000
0000
3010
0000
,  // measure 57
0002
0000
0013
0000
,  // measure 58
1000
0000
0001
0000
,  // measure 59
0100
0000
0110
0000
,  // measure 60
0020
0000
0000
0030
,  // measure 61
0200
0000
0000
0300
,  // measure 62
0002
0000
0000
0003
,  // measure 63
2000
0000
0000
3000
,  // measure 64
2002
0000
0000
3003
,  // measure 65
0020
0000
0000
0030
,  // measure 66
0200
0300
0020
0030
,  // measure 67
1000
0000
1001
0000
,  // measure 68
0001
0001
0010
0010
,  // measure 69
0100
0010
0001
1000
,  // measure 70
0010
0010
1000
1000
,  // measure 71
0001
0100
0010
0100
,  // measure 72
0002
0010
0000
0013
,  // measure 73
2000
0100
0000
3100
,  // measure 74
1000
0001
0100
0000
,  // measure 75
0001
1000
0010
0100
,  // measure 76
0010
0010
1000
1000
,  // measure 77
0001
0100
0001
0100
,  // measure 78
0010
0010
0100
0100
,  // measure 79
0001
0010
0100
1000
,  // measure 80
0100
0100
0010
0010
,  // measure 81
0001
1000
0100
1000
,  // measure 82
0001
0001
0100
0100
,  // measure 83
0010
1000
0001
0100
,  // measure 84
0001
0000
0010
0000
,  // measure 85
1000
0000
0100
0000
,  // measure 86
2002
0000
0000
0000
,  // measure 87
0000
0000
0000
0000
,  // measure 88
3003
0000
0000
0000
;

//---------------dance-single - ----------------
#NOTES:
     dance-single:
     t7r:
     Medium:
     9:
     0.502,0.481,0.182,0.237,0.024: // measure 1
0000
0000
0000
0000
,  // measure 2
0000
0000
0000
0000
,  // measure 3
0000
0000
0000
0000
,  // measure 4
0000
0000
0000
0000
,  // measure 5
0000
0000
0000
0000
,  // measure 6
1000
0000
0010
0000
0100
0001
0100
0000
,  // measure 7
0001
0000
0010
0000
0100
1000
0100
0000
,  // measure 8
1000
0000
0100
0000
0010
0001
0010
0000
,  // measure 9
0001
0000
0100
0000
0010
1000
0001
0000
,  // measure 10
1000
0000
0010
0000
0100
0010
0100
0000
,  // measure 11
0001
0000
0010
0000
0100
0010
0100
0000
,  // measure 12
0010
0001
0010
0000
0001
1000
0001
0000
,  // measure 13
0100
0001
0100
0000
0001
1000
0100
0000
,  // measure 14
1000
1000
0000
0001
0001
0000
0100
0100
,  // measure 15
0000
0010
0010
0000
1000
2000
0000
0000
,  // measure 16
3010
0010
0100
0000
0100
0000
0100
0000
,  // measure 17
0001
0001
0010
0000
0010
0000
0010
0000
,  // measure 18
0100
0100
1000
0000
1000
0000
1000
0000
,  // measure 19
0010
0010
0100
0000
0001
1000
0001
0000
,  // measure 20
1000
1000
0100
0000
0100
2000
0000
0000
,  // measure 21
3010
0010
1000
0000
0001
0020
0000
0000
,  // measure 22
0031
0001
0010
0000
0010
0000
0010
0000
,  // measure 23
0100
0100
1000
0000
0001
1000
0001
1000
,  // measure 24
0100
1000
0000
0001
0100
0001
0000
1000
,  // measure 25
0010
1000
0000
0001
0010
0001
0000
1000
,  // measure 26
0100
0000
0100
1000
0001
0000
0100
0000
,  // measure 27
0001
0000
0010
0000
0200
0000
0300
0010
,  // measure 28
0001
0010
0001
0000
1000
0010
1000
0000
,  // measure 29
0001
0100
0001
0000
1000
0100
1000
0000
,  // measure 30
0001
0000
0000
1000
0000
0000
0001
0000
0200
0000
0000
0000
0301
0000
0000
0000
,  // measure 31
1000
0000
0000
0001
0000
0000
1000
0000
0200
0000
0000
0000
1300
0000
0000
0000
,  // measure 32
0020
1030
0002
0103
,  // measure 33
0001
1000
0000
1000
0002
0000
0003
0000
,  // measure 34
1000
0000
1100
0000
1000
0100
0010
0000
,  // measure 35
0001
0000
0101
0000
0001
0100
0010
0000
,  // measure 36
1001
0000
0010
0000
1000
0001
0100
0000
,  // measure 37
0010
0000
0100
0000
0001
1000
0100
0000
,  // measure 38
1010
0010
1010
0010
,  // measure 39
1100
0100
1100
0100
,  // measure 40
0010
0011
0100
1100
,  // measure 41
0001
0000
0000
1000
0000
0000
0001
0000
0100
0000
0000
0000
0001
0000
0000
0000
,  // measure 42
1000
0010
1000
0001
1000
0000
0001
0000
,  // measure 43
1000
0100
1000
0010
1000
0000
0001
0000
,  // measure 44
0100
0010
0100
0001
0100
0000
0010
0000
,  // measure 45
0100
0001
1000
0001
0100
0000
0001
0000
,  // measure 46
0010
0100
1000
0100
0010
0000
0001
0000
,  // measure 47
0010
0001
0100
0001
0010
0000
0001
0000
,  // measure 48
1000
0001
0100
0000
0001
1000
0100
0000
,  // measure 49
0010
0001
0000
1000
0010
0000
0100
0010
,  // measure 50
1000
0010
0000
1000
0100
1000
0000
0001
,  // measure 51
0010
0001
0000
1000
0001
1000
0000
0001
,  // measure 52
0100
0000
0100
0010
1000
0000
0001
1000
,  // measure 53
0100
0000
0010
0000
0002
0000
0003
1000
,  // measure 54
0100
1000
0100
0000
1000
0001
0100
0000
,  // measure 55
0001
0100
0001
0000
0010
0001
0100
0000
,  // measure 56
0010
0000
0000
1000
0000
0000
0001
0000
0200
0000
0000
0000
0301
0000
0000
0000
,  // measure 57
1000
0000
0000
0100
0000
0000
0010
0000
0002
0000
0000
0000
1003
0000
0000
0000
,  // measure 58
0002
0103
2000
3010
,  // measure 59
1000
1000
0000
0001
0001
0000
0000
0000
,  // measure 60
2000
0000
0100
3000
,  // measure 61
0002
0000
0100
0003
,  // measure 62
2000
0000
0010
3000
,  // measure 63
0002
0000
0010
0003
,  // measure 64
2002
0000
0000
3003
,  // measure 65
0220
0000
0000
0330
,  // measure 66
0200
0300
0020
0030
,  // measure 67
2001
0000
3001
0000
,  // measure 68
1000
0000
0100
0010
0001
0000
0101
0000
,  // measure 69
0001
0000
0100
0010
1000
0000
1010
0000
,  // measure 70
1000
1001
0001
1001
,  // measure 71
0010
0000
0010
0100
0002
0000
1003
0000
,  // measure 72
0100
1100
0100
1100
,  // measure 73
0010
0011
0010
0011
,  // measure 74
1001
0100
1001
0010
,  // measure 75
0100
0000
0000
0010
0000
0000
1000
0000
0002
0000
0000
0000
0103
0000
0000
0000
,  // measure 76
0001
0000
0001
0010
0100
0010
0001
0000
,  // measure 77
0001
0000
0001
0010
0100
1000
0001
0000
,  // measure 78
1000
0000
1000
0010
0100
0010
1000
0000
,  // measure 79
1000
0000
1000
0010
0100
0001
1000
0000
,  // measure 80
0010
0000
0010
1000
0100
0001
0100
0000
,  // measure 81
0100
0000
0100
1000
0010
0001
0010
0000
,  // measure 82
0010
0000
1000
0001
0100
0001
1000
0000
,  // measure 83
0010
0000
0100
0001
1000
0001
0100
0000
,  // measure 84
0001
0001
0000
1000
1000
0000
0010
0010
,  // measure 85
0000
0100
0100
0000
0001
0002
0000
0003
,  // measure 86
2002
0000
0000
0000
,  // measure 87
0000
0000
0000
0000
,  // measure 88
3003
0000
0000
0000
;

//---------------dance-single - ----------------
#NOTES:
     dance-single:
     t7r:
     Hard:
     14:
     0.663,0.687,0.158,0.205,0.146: // measure 1
0000
0000
0000
0000
,  // measure 2
0000
0000
0000
0000
,  // measure 3
0000
0000
0000
0000
,  // measure 4
0000
0000
0000
0000
,  // measure 5
0000
0000
0000
0000
,  // measure 6
0001
0000
0100
0000
0001
0010
0100
0010
,  // measure 7
0001
0000
1000
0000
0100
1000
0010
0100
,  // measure 8
0010
0000
1000
0000
0010
0100
0001
0100
,  // measure 9
0010
0000
1000
0000
0001
1000
0100
1000
,  // measure 10
0001
0000
0010
0000
0100
0010
0001
0010
,  // measure 11
0100
0000
0010
0000
0001
0100
1000
0100
,  // measure 12
0001
0010
0001
0010
0100
1000
0100
1000
,  // measure 13
0010
0100
0010
0100
0001
1000
0100
1000
,  // measure 14
0001
0100
0001
0000
0000
0000
1000
0100
1000
0000
0000
0000
0001
0010
0001
0000
,  // measure 15
0000
0000
1000
0010
1000
0000
0000
0000
0010
0100
0010
0000
0100
0000
0001
0000
,  // measure 16
0011
0001
2000
0000
0100
0000
3001
0000
,  // measure 17
0110
0010
0200
0000
0001
0000
0310
0000
,  // measure 18
0101
0100
0002
0000
0010
0000
1003
0000
,  // measure 19
0001
0010
0100
1000
0001
0010
0100
0010
,  // measure 20
0011
0001
0200
0000
0010
0000
1300
0000
,  // measure 21
1010
0010
2000
0000
0100
0000
3001
0000
,  // measure 22
0110
0010
0002
0000
0100
0000
1003
0000
,  // measure 23
0110
0000
0010
0000
2000
0000
0000
0000
3001
1000
0001
1000
0001
0000
1000
0000
,  // measure 24
0100
0100
1000
0001
0100
0100
0001
1000
,  // measure 25
0010
0010
1000
0001
0010
0010
0001
1000
,  // measure 26
0001
0010
0100
0000
0010
0001
0100
0000
,  // measure 27
0010
0000
1010
0000
0001
0100
0010
0100
,  // measure 28
0001
0001
1000
0100
1000
1000
0001
0100
,  // measure 29
0001
0001
0010
0001
1000
1000
0010
0100
,  // measure 30
0010
0000
0000
0010
1000
0000
0010
0000
1000
0000
0100
0000
0010
0000
0000
0000
,  // measure 31
0001
0000
0000
0001
0100
0000
0001
0000
1000
0000
0001
0000
0100
0000
0000
0000
,  // measure 32
0010
0100
0002
0000
0013
0100
2000
0000
,  // measure 33
3001
1000
0001
0000
0000
0000
0100
0010
0200
0000
0000
0000
0300
0000
0000
0000
,  // measure 34
0010
0000
0000
0000
1000
0000
0000
0010
1000
0000
0100
0000
0010
0000
0100
0000
,  // measure 35
1000
0000
0000
0000
0001
0000
0000
0010
0001
0000
0100
0000
0010
0000
0100
0000
,  // measure 36
0001
0000
0000
0000
0100
0000
0000
0010
1000
0000
0010
0000
0100
0000
0001
0000
,  // measure 37
1000
0000
0100
0000
0010
0000
0001
0000
1000
0000
0100
0000
0010
0000
0000
0010
,  // measure 38
0100
1000
0010
1000
0100
0100
0010
0100
,  // measure 39
1000
0010
0100
0001
0010
0010
0001
1000
,  // measure 40
0010
1000
0100
0000
0010
0001
0100
0000
,  // measure 41
0010
0000
0000
0010
1000
0000
0001
0000
0100
0000
0010
0000
1000
0000
0001
0000
,  // measure 42
1000
0010
0010
1000
0100
0100
1000
0001
,  // measure 43
1000
0010
0010
1000
0100
0010
0001
0100
,  // measure 44
0001
0010
0010
0001
0100
0100
0001
0010
,  // measure 45
0001
1000
1000
0001
0010
0001
0100
0001
,  // measure 46
1000
0100
0010
0001
0010
0100
0010
0100
,  // measure 47
1000
0010
0100
1000
0100
0001
0100
1000
,  // measure 48
0100
0100
0010
0100
0100
0001
0100
0100
,  // measure 49
0010
0110
0000
1000
0100
0010
0001
1000
,  // measure 50
1001
1000
0100
1000
1010
0010
0100
0001
,  // measure 51
0011
0010
0001
0100
0101
0100
0001
1000
,  // measure 52
0001
0001
0010
0100
1000
0000
0010
0100
,  // measure 53
0002
0000
1003
0000
0001
0010
0110
0000
,  // measure 54
0001
0001
0010
0001
0001
0100
0010
1000
,  // measure 55
0100
0100
0010
0100
0100
1000
0010
0100
,  // measure 56
0010
0000
0000
0010
1000
0000
0001
0000
1000
0000
0001
0000
0100
0000
0000
0000
,  // measure 57
0001
0000
0000
0001
1000
0000
0001
0000
1000
0000
0100
0000
0010
0000
0001
0000
,  // measure 58
0100
0100
0010
0100
0001
0001
1000
0001
,  // measure 59
0010
0001
0010
0000
0000
0000
0100
1000
0200
0000
0000
0000
0000
0000
0000
0000
,  // measure 60
2300
0000
0010
0000
,  // measure 61
3002
0000
0010
0000
,  // measure 62
2003
0000
0100
0000
,  // measure 63
3002
0000
0100
0003
,  // measure 64
0012
0000
1000
0003
,  // measure 65
2100
0000
0001
3000
,  // measure 66
0220
0330
2002
3003
,  // measure 67
2100
0000
3001
0000
,  // measure 68
1000
0000
0100
0000
1000
0000
0000
0001
0100
0000
0001
0000
0010
0000
0001
0000
,  // measure 69
1000
0000
0010
0000
0100
0000
0000
0010
1000
0000
0001
0000
1000
0000
0100
0000
,  // measure 70
0010
0100
1000
0000
0010
0100
0001
0000
,  // measure 71
1000
0000
0010
0000
0100
0000
0001
0000
1000
0000
0100
0000
0010
0000
0000
0010
,  // measure 72
0001
0100
0001
0010
0001
0001
1000
0001
,  // measure 73
1000
0100
1000
0010
1000
1000
0001
1000
,  // measure 74
0100
0010
0001
0000
0100
0010
1000
0000
,  // measure 75
0010
0000
0000
0010
0100
0000
0001
0000
1000
0000
0100
0000
1000
0000
0010
0000
,  // measure 76
1000
0100
0001
0100
1000
0100
0010
0100
,  // measure 77
1000
0000
0100
0000
0001
0000
0100
0000
1000
0100
1000
0100
1000
0000
0000
0000
,  // measure 78
0001
0100
1000
0100
0001
0100
0010
0100
,  // measure 79
0001
0000
0100
0000
1000
0000
0100
0000
0001
0010
0001
0010
0001
0000
0000
0000
,  // measure 80
1000
0100
0010
0100
1000
0100
0001
0100
,  // measure 81
1000
0000
0100
0000
0010
0000
0100
0000
1000
0001
1000
0001
1000
0000
0000
0000
,  // measure 82
0010
0100
0001
0100
0010
0100
1000
0100
,  // measure 83
0010
0000
0100
0000
0001
0000
0010
0000
0100
0010
0100
0010
0100
0000
0010
0000
,  // measure 84
0001
1000
0001
0000
0000
0000
0100
0010
0100
0000
0000
0000
0010
1000
0010
0000
,  // measure 85
0000
0000
1000
0100
1000
0000
0000
0000
0001
0010
0002
0000
0000
0000
0003
0000
,  // measure 86
2002
0000
0000
0000
,  // measure 87
0000
0000
0000
0000
,  // measure 88
3003
0000
0000
0000
;

//---------------dance-single - ----------------
#NOTES:
     dance-single:
     t7r:
     Challenge:
     17:
     1.000,1.000,0.758,0.103,0.857: // measure 1
0000
0000
0000
0000
,  // measure 2
0000
0000
0000
0000
,  // measure 3
0000
0000
0000
0000
,  // measure 4
0000
0000
0000
0000
,  // measure 5
0000
0000
0000
0000
0000
0000
0000
0000
0000
0000
0000
0000
0000
0000
0001
0100
,  // measure 6
0010
0000
1000
0100
0010
0000
0100
1000
0010
0100
0010
0000
1000
0000
0001
0010
,  // measure 7
0100
0000
0010
0001
0100
0010
1000
0000
0001
0010
0100
0010
0001
0000
1000
0001
,  // measure 8
0100
0000
0010
1000
0100
0000
0010
0001
0100
0010
0100
0000
0001
0000
1000
0100
,  // measure 9
0010
0000
0001
0010
0100
0000
1000
0010
0100
0001
0010
0001
1000
0000
0001
1000
,  // measure 10
0100
0000
1000
0001
0010
0000
0001
0100
0010
1000
0100
0000
0010
0000
0100
1000
,  // measure 11
0010
0000
0100
0001
0010
0100
0010
0000
0001
0010
0100
1000
0001
0000
1000
0100
,  // measure 12
0010
0100
0010
0100
1000
0010
0100
0000
0010
0100
0010
0100
0001
0010
0100
0000
,  // measure 13
0010
0000
0001
1000
0010
0000
1000
0001
0100
0001
1000
0000
0001
1000
0100
1000
,  // measure 14
0001
0010
0001
0000
0000
0000
1000
0100
1000
0000
0000
0000
0001
0100
0001
0000
,  // measure 15
0000
0000
1000
0010
1000
0000
0001
1000
0001
1000
0001
0000
0010
0100
1000
0000
,  // measure 16
0011
0001
0100
0001
0010
1000
0010
0001
,  // measure 17
0101
0001
1000
0100
0001
0100
1000
0010
,  // measure 18
0110
0010
1000
0100
0010
0100
1000
0001
,  // measure 19
1001
0001
0100
1000
0100
0001
0010
1000
,  // measure 20
0110
0010
0001
0100
0010
1000
0100
0010
,  // measure 21
1100
0100
1000
0010
0100
0001
0010
0100
,  // measure 22
0011
0001
1000
0010
0100
0001
1000
0100
,  // measure 23
1100
0000
0100
0000
1000
0000
0010
0000
0100
0001
0100
0001
0100
0000
0001
0000
,  // measure 24
1001
1001
0001
0100
0101
0101
0001
1000
,  // measure 25
1001
1001
1000
0100
1100
1100
1000
0100
,  // measure 26
1100
0000
0100
0010
0001
0000
0010
0100
1000
0000
0100
0010
0001
0000
0100
0010
,  // measure 27
1000
0000
0010
0000
0110
0000
0000
0000
0001
0000
0100
0000
0110
0000
0100
0001
,  // measure 28
0010
0000
0100
0000
0011
0000
0001
0000
1000
0000
0010
0000
1100
0000
1000
0001
,  // measure 29
0010
0000
0100
0000
0110
0000
0001
0000
1000
0000
0001
0000
0110
0000
0010
0001
,  // measure 30
0100
0000
0001
0000
0010
0000
0100
0010
0001
0000
0001
0000
0010
0000
0001
0010
,  // measure 31
0100
0000
0100
0000
1000
0000
0010
0100
0001
0000
0001
0000
0100
0000
0010
1000
,  // measure 32
0010
0000
0100
0000
0110
0000
0010
1000
0100
0000
1000
0000
1001
0000
0001
1000
,  // measure 33
0001
0010
0001
0000
0000
0000
1000
0100
1000
0000
0000
0000
0100
0000
1000
0000
,  // measure 34
1010
0000
0010
0000
0100
0000
0010
1000
0100
0000
0100
0000
1100
0000
1000
0000
,  // measure 35
1001
0000
0001
0000
0010
0000
0001
1000
0010
0000
0100
0000
0110
0000
0010
1000
,  // measure 36
0100
0000
0010
0000
0011
0000
0001
1000
0010
0000
1000
0000
1010
0000
0010
1000
,  // measure 37
0100
0000
0010
0001
0100
0000
0010
0000
0100
0000
0100
0000
1010
0000
0001
1000
,  // measure 38
1010
0000
0010
0000
1000
0000
0010
1000
0100
1000
0010
0000
1000
0000
0001
0010
,  // measure 39
0100
0000
0010
0000
0001
0000
0100
0001
0010
0001
0100
0000
0001
0000
1000
0001
,  // measure 40
0101
0000
0001
0000
1000
0000
0001
1000
0100
0000
1000
0000
1001
0000
1000
0001
,  // measure 41
0100
0001
0100
0001
1000
0010
1000
0010
1000
0100
0010
0001
1000
0100
0010
0001
,  // measure 42
1000
0000
0100
1000
0100
0000
1000
0100
0010
0001
1000
0000
0001
0000
0010
0100
,  // measure 43
0010
0001
0100
0000
0010
0000
0100
0010
1000
0100
0010
0000
0100
0000
1000
0010
,  // measure 44
1000
0001
0100
0001
1000
0000
0001
1000
0100
1000
0001
0000
1000
0010
0100
0010
,  // measure 45
1000
0100
0010
0001
1000
0000
0001
0010
0100
1000
0001
0000
1000
0010
0100
0010
,  // measure 46
1000
0000
0001
0000
0101
0000
0001
0010
0100
0000
0010
0000
0011
0000
0001
0000
,  // measure 47
1000
0000
0010
0000
1010
0000
0010
1000
0100
0000
1000
0000
1001
0000
0001
0000
,  // measure 48
0100
0001
0010
0100
0010
0000
0001
0100
0010
1000
0001
0000
1000
0010
0100
0010
,  // measure 49
1000
0100
0010
0001
1000
0100
0010
0001
1000
0100
0001
0100
1000
0100
0001
0100
,  // measure 50
1000
0000
0010
0000
0110
0000
0010
1000
0100
0000
0010
0000
0011
0000
0001
0100
,  // measure 51
0010
0000
0100
0000
0101
0000
0001
1000
0100
0000
1000
0000
1001
0000
1000
0001
,  // measure 52
0010
0000
0010
0001
0100
0000
0100
0010
1000
0000
1000
0010
0100
0000
0010
0000
,  // measure 53
1000
0000
0100
0000
0011
0000
0001
0000
1001
0000
0001
1000
0100
1000
0001
0000
,  // measure 54
0010
0000
0001
0000
1100
0000
0001
0010
0100
0000
0010
0000
0101
0000
1000
0010
,  // measure 55
0100
0000
0010
0000
1001
0000
0100
0001
1000
0000
0001
0000
0011
0000
0001
1000
,  // measure 56
1100
0000
0100
0000
1001
0000
1000
0010
0100
0001
1000
0000
1001
0000
0001
0010
,  // measure 57
0011
0000
0001
0000
1001
0000
0001
0100
0010
1000
0001
0000
1001
0000
1000
0010
,  // measure 58
0110
0000
0010
0000
1000
0000
0001
0100
0010
0000
0100
0000
0001
0000
1000
0001
,  // measure 59
1000
0100
1000
0000
0000
0000
0001
0010
0002
0000
0000
0000
0000
0000
0000
0000
,  // measure 60
2003
0100
0001
3100
,  // measure 61
0002
0010
1000
0013
,  // measure 62
2000
3010
0002
0103
,  // measure 63
1000
0100
0010
0001
0200
0000
0310
0000
,  // measure 64
2010
0000
0001
0001
0001
0000
3100
0000
,  // measure 65
0012
0000
1000
1000
1000
0000
0103
0000
,  // measure 66
0210
0301
0120
1030
,  // measure 67
1001
0000
0110
0000
2001
0000
3001
0010
,  // measure 68
0110
0000
0010
0000
0011
0000
0001
0100
0110
0000
0100
0000
0101
0000
0001
1000
,  // measure 69
1001
0000
1000
0000
1010
0000
1000
0010
0110
0000
0010
0000
1010
0000
1000
0001
,  // measure 70
1001
0000
1000
0000
1100
0000
1000
0100
1100
0000
0100
0000
0110
0000
0010
0001
,  // measure 71
0101
0000
0100
0000
0110
0000
0010
1000
1010
0000
1000
0000
1001
0000
0001
1000
,  // measure 72
1010
0000
0010
0000
0110
0000
0010
1000
0100
1000
0010
0000
1010
0000
0010
1000
,  // measure 73
1001
0000
1000
0000
1001
0000
1000
0001
0100
0001
1000
0000
1001
0000
0001
0010
,  // measure 74
0110
0000
0010
0000
0011
0000
0001
0100
0010
0000
0100
0000
0101
0000
1000
0001
,  // measure 75
0100
0000
0001
1000
0100
0000
0001
1000
0001
0010
0100
1000
0001
0010
0100
1000
,  // measure 76
1010
0000
0010
1000
0100
0000
0010
0001
0100
0001
0010
0001
1000
0000
0001
0010
,  // measure 77
0100
0000
0010
0001
0100
0000
0010
1000
0100
1000
0010
1000
0001
0000
1000
0010
,  // measure 78
0100
0000
0010
1000
0100
0000
0010
0001
0100
0010
0100
0001
1000
0000
0001
0010
,  // measure 79
0100
0000
1000
0010
0100
0000
0001
0010
1000
0010
0001
0010
1000
0000
0010
0001
,  // measure 80
0101
0000
0001
1000
0010
0000
1000
0100
0001
0100
1000
0010
0100
0000
0010
1000
,  // measure 81
0100
0000
0010
0001
0100
0000
0001
0010
1000
0010
0001
0100
0010
0000
0100
0001
,  // measure 82
1001
0000
1000
0100
0010
0000
0001
0100
1000
0100
0001
0010
0100
0000
0010
0001
,  // measure 83
0101
0000
0001
1000
0100
0000
1000
0010
0100
0010
1000
0001
0100
0000
0001
0010
,  // measure 84
0001
1000
1001
0000
0000
0000
1000
0001
1001
0000
0000
0000
0100
0010
0110
0000
,  // measure 85
0000
0000
0010
0100
0001
0100
0001
1000
0001
0010
0100
1000
0001
0010
0100
1000
,  // measure 86
2002
0000
0000
0000
,  // measure 87
0000
0000
0000
0000
,  // measure 88
3003
0000
0000
0000
;
