#TITLE:Покинула Чат;
#SUBTITLE:;
#ARTIST:Клава Кока;
#TITLETRANSLIT:Pokinula Chat;
#SUBTITLETRANSLIT:;
#ARTISTTRANSLIT:Klava Koka;
#GENRE:;
#CREDIT:;
#MENUCOLOR:;
#METERTYPE:DDR;
#BANNER:Pokinula Chat.png;
#BACKGROUND:Pokinula Chat-bg.png;
#LYRICSPATH:;
#CDTITLE:./CDTITLES/NONE.PNG;
#MUSIC:Pokinula Chat.ogg;
#OFFSET:0.000;
#SAMPLESTART:73.958;
#SAMPLELENGTH:15.000;
#SELECTABLE:YES;
#LISTSORT:;
#BPMS:0.000=144.000;
#STOPS:;
#BGCHANGES:0.000=Pokinula Chat.avi=1.000=0=0=0,
99999=-nosongbg-=1.000=0=0=0 // don't automatically add -songbackground-
;
#ATTACKS:;

//---------------dance-single - ----------------
#NOTES:
     dance-single:
     :
     Beginner:
     2:
     0.117,0.139,0.000,0.000,0.000: // measure 1
0000
0000
0000
0000
,  // measure 2
0000
0000
0000
0000
,  // measure 3
0000
0000
0000
0000
,  // measure 4
0000
0000
0000
0000
,  // measure 5
0000
0000
0000
0000
,  // measure 6
1000
0000
0000
0000
,  // measure 7
0001
0000
0000
0000
,  // measure 8
1000
0000
0000
0000
,  // measure 9
0001
0000
0000
0000
,  // measure 10
0100
0000
0000
0000
,  // measure 11
0010
0000
0000
0000
,  // measure 12
0100
0000
0000
0000
,  // measure 13
0010
0000
0000
0000
,  // measure 14
1000
0000
0000
1000
,  // measure 15
1000
0000
0000
0000
,  // measure 16
0001
0000
0000
0001
,  // measure 17
0001
0000
0000
0000
,  // measure 18
0010
0000
0000
0010
,  // measure 19
0010
0000
0000
0000
,  // measure 20
0100
0000
0000
0100
,  // measure 21
0100
0000
0000
0000
,  // measure 22
0010
0000
0010
0000
,  // measure 23
0010
0000
0000
0000
,  // measure 24
0001
0000
0001
0000
,  // measure 25
0001
0000
0000
0000
,  // measure 26
1000
0000
1000
0000
,  // measure 27
1000
0000
0000
0000
,  // measure 28
0010
0000
0010
0000
,  // measure 29
0010
0000
0000
0000
,  // measure 30
0100
0000
0000
0100
,  // measure 31
0100
0000
0000
0010
,  // measure 32
0010
0000
0000
1000
,  // measure 33
1000
0000
0000
0000
,  // measure 34
0001
0000
0000
0010
,  // measure 35
0010
0000
0000
0100
,  // measure 36
0100
0000
0000
0010
,  // measure 37
0010
0000
0000
0000
,  // measure 38
0000
0001
0000
0001
,  // measure 39
0001
0000
0000
0000
,  // measure 40
0000
1000
0000
1000
,  // measure 41
1000
0000
0000
0000
,  // measure 42
0000
0010
0000
0010
,  // measure 43
0010
0000
0000
0000
,  // measure 44
0000
0100
0000
0100
,  // measure 45
0100
0000
0000
0000
,  // measure 46
0010
0010
0000
0010
,  // measure 47
0010
0000
0000
0000
,  // measure 48
1000
1000
0000
1000
,  // measure 49
1000
0000
0000
0000
,  // measure 50
0001
0001
0000
0001
,  // measure 51
0001
0000
0000
0000
,  // measure 52
0100
0100
0000
0100
,  // measure 53
0100
0000
0000
0000
,  // measure 54
0010
0000
0010
0010
,  // measure 55
0010
0000
0000
0000
,  // measure 56
1000
0000
1000
1000
,  // measure 57
1000
0000
0000
0000
,  // measure 58
0001
0000
0001
0001
,  // measure 59
0001
0000
0000
0000
,  // measure 60
0100
0000
0100
0100
,  // measure 61
0100
0000
0000
0000
,  // measure 62
0010
0000
0000
0000
,  // measure 63
1000
0000
0000
0000
,  // measure 64
0001
0000
0000
0000
,  // measure 65
0010
0000
0000
0000
;

//---------------dance-single - ----------------
#NOTES:
     dance-single:
     :
     Easy:
     5:
     0.248,0.253,0.000,0.191,0.000: // measure 1
0000
0000
0000
0000
,  // measure 2
0000
0000
0000
0000
,  // measure 3
0000
0000
0000
0000
,  // measure 4
0000
0000
0000
0000
,  // measure 5
0000
0000
0000
0000
,  // measure 6
0001
0000
0000
0001
,  // measure 7
0001
0000
1000
0000
,  // measure 8
0010
0000
0000
0010
,  // measure 9
0010
0000
0100
0000
,  // measure 10
0010
0000
0000
1000
,  // measure 11
1000
0000
0001
0000
,  // measure 12
1000
0000
0000
0001
,  // measure 13
0002
0000
2000
3003
,  // measure 14
0001
0001
0100
0010
,  // measure 15
1000
1000
0100
0010
,  // measure 16
0001
0001
0010
0100
,  // measure 17
1000
1000
0010
0100
,  // measure 18
0001
0001
0100
0010
,  // measure 19
1000
1000
0100
0010
,  // measure 20
0001
0001
0010
0100
,  // measure 21
1000
1000
0010
0100
,  // measure 22
0020
0000
1030
0000
,  // measure 23
0002
0000
0013
0000
,  // measure 24
0200
0000
0310
0000
,  // measure 25
0002
0000
1003
0000
,  // measure 26
0020
0000
0130
0000
,  // measure 27
0002
0000
0013
0000
,  // measure 28
0002
0000
1003
0000
,  // measure 29
0020
0000
0000
0030
,  // measure 30
1000
0100
0001
0100
,  // measure 31
1000
0020
0000
1030
,  // measure 32
0001
0020
0000
0031
,  // measure 33
1000
0020
0000
0030
,  // measure 34
1000
0010
0001
0010
,  // measure 35
1000
0200
0000
0310
,  // measure 36
0001
0200
0000
0310
,  // measure 37
1000
0200
0000
0300
,  // measure 38
0010
0000
0001
0000
,  // measure 39
1000
0000
0010
0010
,  // measure 40
0100
0000
0010
0000
,  // measure 41
1000
0000
0001
0001
,  // measure 42
0010
0000
0001
0000
,  // measure 43
1000
0000
0010
0010
,  // measure 44
1000
0000
0001
0000
,  // measure 45
0200
0000
0020
0330
,  // measure 46
1000
1000
0001
0100
,  // measure 47
0001
0001
1000
0010
,  // measure 48
1000
1000
0001
0010
,  // measure 49
0001
0001
1000
0100
,  // measure 50
1000
1000
0010
0100
,  // measure 51
0001
0001
0010
0100
,  // measure 52
1000
1000
0100
0010
,  // measure 53
0001
0001
0100
0010
,  // measure 54
1000
1000
0010
0001
,  // measure 55
0010
0100
0001
1000
,  // measure 56
0001
0001
0010
1000
,  // measure 57
0010
0100
1000
0001
,  // measure 58
1000
1000
0100
0001
,  // measure 59
0100
0010
0001
1000
,  // measure 60
0001
0001
0100
1000
,  // measure 61
0100
0010
1000
0001
,  // measure 62
2000
0000
0010
3000
,  // measure 63
0002
0000
0010
0003
,  // measure 64
2000
0000
0100
3000
,  // measure 65
0002
0000
0100
0003
;

//---------------dance-single - ----------------
#NOTES:
     dance-single:
     :
     Medium:
     7:
     0.379,0.366,0.000,0.209,0.000: // measure 1
0000
0000
0000
0000
,  // measure 2
0000
0000
0000
0000
,  // measure 3
0000
0000
0000
0000
,  // measure 4
0000
0000
0000
0000
,  // measure 5
0000
0000
0000
0000
,  // measure 6
0001
0000
0100
0000
0000
0001
0010
0000
,  // measure 7
0001
0000
1000
0000
0000
0001
0100
0000
,  // measure 8
0010
0000
1000
0000
0000
0001
0010
0000
,  // measure 9
0001
0000
1000
0000
0000
0100
0010
0000
,  // measure 10
0100
0000
1000
0000
0000
0010
0100
0000
,  // measure 11
0010
0000
1000
0000
0000
0001
0010
0000
,  // measure 12
0001
0000
0100
0000
0000
1000
0100
0000
,  // measure 13
0002
0000
2000
3003
,  // measure 14
0010
0000
0010
0000
1000
0001
0000
1000
,  // measure 15
0010
0000
0010
1000
0001
1000
0001
0000
,  // measure 16
0100
0000
0100
0000
0001
1000
0000
0001
,  // measure 17
0100
0000
0100
0001
1000
0001
1000
0000
,  // measure 18
0001
0000
0001
0000
0010
0100
0000
0010
,  // measure 19
0001
0000
0001
0100
0010
0100
0010
0000
,  // measure 20
1000
0000
1000
0000
0100
0010
0000
0100
,  // measure 21
1000
0000
1000
0000
0010
0100
0010
0000
,  // measure 22
2000
0000
0100
0000
3001
0100
0010
0000
,  // measure 23
0200
0000
0001
0000
0310
0000
0001
1000
,  // measure 24
0020
0000
0100
0000
0031
0000
1000
0001
,  // measure 25
0200
0000
0010
0000
1300
0100
0010
0000
,  // measure 26
2000
0000
0010
0000
3001
0010
0100
0000
,  // measure 27
0020
0000
0001
0000
0130
0000
0001
1000
,  // measure 28
0010
0000
0200
0000
1000
0000
0310
1000
,  // measure 29
0002
0000
2000
3003
,  // measure 30
0001
0000
0100
0000
1000
0000
0100
0001
,  // measure 31
0100
0001
0200
0000
0300
0000
0010
1000
,  // measure 32
0010
1000
0020
0000
0030
0000
1000
0100
,  // measure 33
1000
0100
2000
0000
0000
0000
3001
0000
,  // measure 34
1000
0000
0100
0000
0001
0000
0100
1000
,  // measure 35
0100
1000
0200
0000
0300
0000
0010
0001
,  // measure 36
0010
0001
0020
0000
0030
0000
0001
1000
,  // measure 37
0002
0000
2000
3003
,  // measure 38
0010
0000
0100
0001
0000
0000
0100
0000
,  // measure 39
0010
0000
1000
0100
0000
0000
0010
0000
,  // measure 40
0001
0000
0010
0100
0000
0000
1000
0000
,  // measure 41
0001
0000
0100
0001
0000
0000
1000
0000
,  // measure 42
0001
0000
0010
0100
0000
0010
0001
0000
,  // measure 43
1000
0000
0010
0100
0000
0010
1000
0000
,  // measure 44
0001
0000
0010
0001
0000
1000
0010
0000
,  // measure 45
2000
0000
0002
3003
,  // measure 46
1000
0100
1000
0000
0001
0100
0001
0100
,  // measure 47
0000
0000
0000
0001
1000
0001
1000
0000
,  // measure 48
0001
0010
0001
0000
1000
0100
1000
0100
,  // measure 49
0000
0000
0000
1000
0001
1000
0001
0000
,  // measure 50
0100
0010
0100
0000
0010
1000
0010
1000
,  // measure 51
0000
0000
0000
0001
0010
0001
0010
0000
,  // measure 52
0001
0100
0001
0000
1000
0100
1000
0100
,  // measure 53
0000
0000
0000
0010
0100
0010
0100
0000
,  // measure 54
0010
0001
1000
0000
0010
1000
0001
0100
,  // measure 55
0000
0100
0001
0000
1000
0100
1000
0000
,  // measure 56
0010
0100
0001
0000
1000
0100
0010
0100
,  // measure 57
0000
0100
1000
0000
0001
0100
0001
0000
,  // measure 58
0100
0001
1000
0000
0100
1000
0001
0010
,  // measure 59
0000
0010
0001
1000
0001
0100
0001
0000
,  // measure 60
0100
0001
0010
0000
0100
1000
0001
0100
,  // measure 61
0000
0100
0010
1000
0001
1000
0001
0000
,  // measure 62
2000
0000
0100
3000
,  // measure 63
0002
0000
0010
0003
,  // measure 64
2000
0000
0010
3000
,  // measure 65
0002
0000
0010
0003
;

//---------------dance-single - ----------------
#NOTES:
     dance-single:
     :
     Hard:
     9:
     0.465,0.479,0.035,0.209,0.000: // measure 1
0000
0000
0000
0000
,  // measure 2
0000
0000
0000
0000
,  // measure 3
0000
0000
0000
0000
,  // measure 4
0000
0000
0000
0000
,  // measure 5
0000
0000
0000
0000
,  // measure 6
0001
0000
1000
0100
0000
0010
0100
0000
,  // measure 7
1000
0000
0001
0100
0000
0010
0100
0000
,  // measure 8
0001
0000
0010
0001
0000
1000
0001
0000
,  // measure 9
1000
0000
0010
1000
0000
0001
1000
0000
,  // measure 10
0100
0000
0010
0100
0000
1000
0100
0000
,  // measure 11
0010
0000
0001
0100
0000
0010
0100
0000
,  // measure 12
0001
0000
0100
0001
1000
0001
0100
0000
,  // measure 13
0020
0000
0200
0330
,  // measure 14
0001
1000
0100
1000
0001
0010
0100
0010
,  // measure 15
0001
0100
1000
0100
0010
1000
0001
0000
,  // measure 16
1000
0001
0100
0001
1000
0010
0100
0010
,  // measure 17
1000
0100
0001
0100
0010
0001
1000
0000
,  // measure 18
0001
0100
0010
0100
0001
0010
0100
1000
,  // measure 19
0001
0010
1000
0010
0100
1000
0001
0000
,  // measure 20
1000
0100
0010
0100
1000
0010
0100
0001
,  // measure 21
1000
0010
0001
0010
0100
0001
1000
0000
,  // measure 22
0002
0000
0103
0000
0001
0010
0001
0000
,  // measure 23
2000
0000
3100
0000
1000
0010
1000
0000
,  // measure 24
0020
0000
0130
0000
0010
1000
0010
0000
,  // measure 25
0200
0000
0310
0000
0100
0001
0100
0000
,  // measure 26
0002
0000
0013
0001
0000
1000
0001
0000
,  // measure 27
2000
0000
3010
1000
0000
0001
1000
0000
,  // measure 28
0002
0000
0103
0001
0000
1000
0100
0000
,  // measure 29
0020
0000
0200
0330
,  // measure 30
1000
0000
0100
0000
0001
0000
0100
0010
,  // measure 31
0001
1000
0002
0000
0100
0000
1003
0001
,  // measure 32
0100
0001
2000
0000
0100
0000
3001
1000
,  // measure 33
0010
0100
0020
0000
1000
0000
0130
0000
,  // measure 34
0001
0000
0010
0000
1000
0000
0010
0100
,  // measure 35
1000
0001
2000
0000
0100
0000
3010
0100
,  // measure 36
0001
0010
0002
0000
1000
0000
0103
0010
,  // measure 37
0200
0000
0020
0330
,  // measure 38
1000
0000
0100
1000
0000
0001
0100
0000
,  // measure 39
0001
0000
0100
0001
0000
1000
0100
0000
,  // measure 40
1000
0000
0010
0100
0000
0010
1000
0000
,  // measure 41
0001
0000
0010
0100
0000
0010
0001
0000
,  // measure 42
1000
0000
0100
0001
0100
0010
0001
0000
,  // measure 43
0100
0000
1000
0100
0010
1000
0001
0000
,  // measure 44
0010
0000
0001
1000
0010
0100
0010
0000
,  // measure 45
2000
0000
0002
3003
,  // measure 46
1000
0100
0001
0100
0010
0001
1000
0010
,  // measure 47
0001
0010
0100
0001
1000
0001
1000
0000
,  // measure 48
0001
0010
1000
0010
0100
1000
0001
0100
,  // measure 49
1000
0100
0010
1000
0001
1000
0001
0000
,  // measure 50
1000
0100
0010
0100
1000
0010
0001
0010
,  // measure 51
0100
0001
1000
0001
0010
0100
1000
0000
,  // measure 52
0001
0010
0100
0010
0001
0100
1000
0100
,  // measure 53
0010
1000
0001
1000
0100
0010
0001
0000
,  // measure 54
1000
0100
1100
0000
1000
0010
0001
0010
,  // measure 55
0100
0001
1000
0001
0010
0100
1000
0000
,  // measure 56
0001
0010
0011
0000
0001
0100
1000
0100
,  // measure 57
0010
1000
0001
1000
0100
0010
0001
0000
,  // measure 58
1000
0010
0110
0010
1000
0100
0001
0100
,  // measure 59
0010
0001
0010
1000
0010
0100
1000
0000
,  // measure 60
0001
0100
0110
0100
0001
0010
1000
0010
,  // measure 61
0100
1000
0100
0001
0100
0010
0001
0000
,  // measure 62
2000
0000
0010
3010
,  // measure 63
0002
0000
0010
0013
,  // measure 64
2000
0000
0100
3001
,  // measure 65
0200
0000
0010
1300
;

//---------------dance-single - ----------------
#NOTES:
     dance-single:
     :
     Challenge:
     10:
     0.472,0.479,0.130,0.156,0.004: // measure 1
0000
0000
0000
0000
,  // measure 2
0000
0000
0000
0000
,  // measure 3
0000
0000
0000
0000
,  // measure 4
0000
0000
0000
0000
,  // measure 5
0000
0000
0000
0000
,  // measure 6
0100
0000
0010
0100
0001
1000
0100
0000
,  // measure 7
MMMM
0000
1000
0001
0010
0100
0010
0000
,  // measure 8
MMMM
0000
0001
1000
0010
0100
0010
0000
,  // measure 9
MMMM
0000
1000
0010
0100
0001
1000
0000
,  // measure 10
MMMM
0000
0001
0010
0100
1000
0001
0000
,  // measure 11
MMMM
0000
1000
0100
0010
0001
1000
0000
,  // measure 12
MMMM
0000
0001
0010
0001
0100
0010
0000
,  // measure 13
0120
0000
0200
0330
,  // measure 14
0001
1000
MMMM
0000
0001
0010
1000
0010
,  // measure 15
0001
0100
1000
0100
0010
1000
0001
0000
,  // measure 16
1000
0100
MMMM
0000
1000
0010
0001
0010
,  // measure 17
1000
0100
0001
0100
0010
0001
1000
0000
,  // measure 18
0001
0010
MMMM
0000
0100
0001
0010
0001
,  // measure 19
0100
1000
0100
0010
1000
0001
1000
0000
,  // measure 20
0010
0100
MMMM
0000
0010
1000
0100
1000
,  // measure 21
0010
0001
0010
0100
0001
1000
0001
0000
,  // measure 22
0012
0000
0103
0000
0010
1000
0100
1000
,  // measure 23
0020
0000
1030
0000
0001
0010
0100
0010
,  // measure 24
0002
0000
0103
0000
0010
1000
0001
1000
,  // measure 25
0020
0000
0130
0000
0010
1000
0100
0010
,  // measure 26
0200
0000
1300
0000
0100
0010
0001
1000
,  // measure 27
0020
0000
0130
0000
0010
1000
0001
0100
,  // measure 28
0002
0000
0013
0000
0001
1000
0010
0100
,  // measure 29
0010
MMMM
MMMM
MMMM
,  // measure 30
1100
0000
0101
0000
1100
0000
0001
0010
,  // measure 31
0100
1000
0010
0000
MMMM
0100
1000
0010
,  // measure 32
0100
0001
0010
0000
MMMM
0100
0001
0010
,  // measure 33
0100
1000
0001
0000
MMMM
0100
0010
0100
,  // measure 34
0101
0000
1100
0000
0101
0000
1000
0010
,  // measure 35
0100
0001
0010
0000
MMMM
0100
0001
0010
,  // measure 36
1000
0010
0100
0000
MMMM
0010
1000
0010
,  // measure 37
0001
0010
0200
0000
0302
0000
2003
0000
,  // measure 38
3001
0000
0010
1000
MMMM
0010
0100
0000
,  // measure 39
1000
0000
0010
0001
MMMM
0010
0100
0000
,  // measure 40
0010
0000
1000
0100
MMMM
0001
1000
0000
,  // measure 41
0010
0000
0000
0100
0000
0000
0001
0000
1000
0000
0001
0000
MMMM
0000
0000
0000
,  // measure 42
1000
0010
1000
0010
1000
0100
1000
0100
,  // measure 43
0001
0010
0001
0010
0001
0100
0001
0100
,  // measure 44
1000
0100
0010
0001
1000
0010
0100
0001
,  // measure 45
0200
0000
0020
0330
,  // measure 46
1000
0001
MMMM
0000
1000
0100
0001
0100
,  // measure 47
1000
0010
0001
0010
0100
0001
1000
0000
,  // measure 48
0001
0010
MMMM
0000
0001
0100
1000
0100
,  // measure 49
0001
0010
1000
0010
0100
1000
0001
0000
,  // measure 50
1000
0100
MMMM
0000
0010
1000
0100
1000
,  // measure 51
0010
0001
0010
0100
0001
1000
0001
0000
,  // measure 52
0100
0010
MMMM
0000
0100
0001
0010
0001
,  // measure 53
0100
1000
0100
0010
1000
0001
1000
0000
,  // measure 54
1001
0000
MMMM
0000
0010
1000
0100
0001
,  // measure 55
0100
0010
0001
1000
0001
0010
0100
1000
,  // measure 56
1001
0000
MMMM
0000
0010
0001
0100
1000
,  // measure 57
0100
0010
1000
0001
0100
0010
0110
0000
,  // measure 58
1010
0000
MMMM
0000
1000
0010
0001
0010
,  // measure 59
0100
0001
0010
1000
0100
0001
1001
0000
,  // measure 60
0011
0000
MMMM
0000
0001
0010
1000
0010
,  // measure 61
0100
1000
0010
0001
0100
1000
1001
0000
,  // measure 62
2000
0000
3010
0100
0010
1000
MMMM
0000
,  // measure 63
0002
0000
0013
0100
0010
0001
MMMM
0000
,  // measure 64
0200
0000
0310
1000
0001
1000
MMMM
0000
,  // measure 65
0020
0000
1030
0100
0001
0010
1000
0001
;
