#TITLE:Po dangum;
#SUBTITLE:;
#ARTIST:Monika LinkytÄ—;
#TITLETRANSLIT:;
#SUBTITLETRANSLIT:;
#ARTISTTRANSLIT:Monika Linkyte;
#GENRE:;
#CREDIT:;
#MENUCOLOR:;
#METERTYPE:DDR;
#BANNER:Po dangum.png;
#BACKGROUND:Po dangum-bg.png;
#LYRICSPATH:;
#CDTITLE:./CDTITLES/NONE.PNG;
#MUSIC:Po dangum.ogg;
#OFFSET:0.000;
#SAMPLESTART:77.353;
#SAMPLELENGTH:15.000;
#SELECTABLE:YES;
#LISTSORT:;
#BPMS:0.000=102.000;
#STOPS:;
#BGCHANGES:;
#ATTACKS:;

//---------------dance-single - ----------------
#NOTES:
     dance-single:
     :
     Beginner:
     1:
     0.071,0.101,0.000,0.066,0.000:
0000
0000
0000
0000
,
0000
0000
0000
0000
,
0000
0000
0000
0000
,
0000
0000
0000
0000
,
0000
0000
0000
0000
,
0001
0000
0000
0000
,
1000
0000
0000
0000
,
0010
0000
0000
0000
,
0100
0000
0000
0000
,
0001
0000
0000
0000
,
1000
0000
0000
0000
,
0010
0000
0000
0000
,
1000
0000
0000
0000
,
0100
0000
0000
0000
,
0010
0000
0000
0000
,
0001
0000
0000
0000
,
0100
0000
0000
0000
,
0001
0000
0000
0000
,
1000
0000
0000
0000
,
0010
0000
0000
0000
,
1000
0000
0000
0000
,
0100
0000
0000
0000
,
0010
0000
0000
0000
,
0100
0000
0000
0000
,
1000
0000
0000
0000
,
0002
0003
0000
0000
,
2000
3000
0000
0000
,
0020
0030
0000
0000
,
0200
0300
0000
0000
,
0020
0030
0000
0000
,
2000
3000
0000
0000
,
0002
0003
0000
0000
,
2000
3000
0000
0000
,
0100
0000
0100
0000
,
0100
0000
0000
0000
,
0010
0000
0010
0000
,
0010
0000
0000
0000
,
0001
0000
0001
0000
,
0001
0000
0000
0000
,
1000
0000
1000
0000
,
1000
0000
0000
0000
,
0010
0000
0000
0000
,
1000
0000
0000
0000
,
0001
0000
0000
0000
,
0100
0000
0000
0000
,
0001
0000
0001
0000
,
0001
0000
0000
0000
,
1000
0000
1000
0000
,
1000
0000
0001
0000
,
1000
0000
0000
0000
;

//---------------dance-single - ----------------
#NOTES:
     dance-single:
     :
     Easy:
     4:
     0.156,0.181,0.000,0.199,0.000:
0000
0000
0000
0000
,
0000
0000
0000
0000
,
0000
0000
0000
0000
,
0000
0000
0000
0000
,
0000
0000
0000
0000
,
0010
0000
0010
0000
,
0100
0000
0100
0000
,
0001
0000
0001
0000
,
1000
0000
1000
0000
,
0002
0000
1003
0000
,
2000
0000
3001
0000
,
0200
0000
0310
0000
,
0020
0000
0130
0000
,
0002
0000
0013
0000
,
2000
0000
3010
0000
,
0002
0000
0103
0000
,
2000
0000
3100
0000
,
1000
0000
0002
0000
,
0103
0000
0020
0000
,
1030
0000
0100
0000
,
1000
0000
0001
0000
,
0010
0000
0002
0000
,
0013
0000
0200
0000
,
1300
0000
0001
0000
,
0100
0000
0010
0000
,
2000
0000
0010
3010
,
0002
0000
0010
0013
,
2000
0000
0100
3100
,
0002
0000
0100
0103
,
0002
0000
1000
0103
,
2000
0000
0001
3100
,
0020
0000
1000
0130
,
2000
0000
0001
3100
,
0001
0010
0100
1000
,
0000
0010
0000
0010
,
0000
0100
0000
0100
,
0000
0001
0000
0001
,
1000
0010
0100
0001
,
0000
1000
0000
1000
,
0000
0001
0000
0001
,
0000
0010
0000
0010
,
0001
1000
0002
0003
,
1000
0001
2000
3000
,
0010
0100
0020
0030
,
0100
0010
0200
0300
,
0001
0100
1000
0000
,
1000
0100
0001
0000
,
1000
0010
0001
0000
,
0001
0010
1000
0000
;

//---------------dance-single - ----------------
#NOTES:
     dance-single:
     :
     Medium:
     7:
     0.283,0.365,0.025,0.182,0.000:
0000
0000
0000
0000
,
0000
0000
0000
0000
,
0000
0000
0000
0000
,
0000
0000
0000
0000
,
0000
0000
0000
0000
,
0001
0000
1000
0200
0000
0000
1300
0000
,
0010
0000
0100
0002
0000
0000
1003
0000
,
0001
0000
0010
0200
0000
0000
0310
0000
,
0001
0000
0100
0020
0000
0000
0130
0000
,
0010
0000
1000
0001
0000
0000
1000
0000
,
0001
0000
0010
0001
0000
0000
1000
0000
,
0100
0000
1000
0010
0000
0000
1000
0000
,
0010
0000
0100
0001
0000
0000
1000
0000
,
0001
0000
0010
0100
0000
0000
1000
0000
,
0100
0000
1000
0010
0000
0000
0100
0000
,
0010
0000
1000
0001
0000
0000
1000
0000
,
0001
0000
0010
0001
0000
0000
1000
0000
,
0001
0000
0100
0001
0100
0000
0010
0000
,
1000
0000
0100
1000
0100
0000
0010
0000
,
0100
0000
1000
0001
0000
0000
0100
0000
,
0001
0000
1000
0001
0000
0000
0010
0000
,
0001
0000
1000
0010
1000
0000
0001
0000
,
1000
0000
0100
1000
0100
0000
0010
0000
,
0001
0000
0100
0010
0000
0000
0100
0000
,
0001
0000
0010
0100
0000
0000
1000
0000
,
0200
0000
0010
0010
0000
0001
0301
0000
,
0200
0000
0010
0010
0000
1000
1300
0000
,
0002
0000
0010
0010
0000
1000
1003
0000
,
2000
0000
0100
3100
1000
0100
0010
0001
,
2000
0000
0010
0001
0000
0010
3100
0000
,
0002
0000
0010
1000
0000
0010
0103
0000
,
2000
0000
0100
0001
0000
0100
3010
0000
,
0002
0000
0100
1000
0000
0100
0013
0000
,
0011
0000
1001
0000
0001
1000
0100
0000
,
1000
0000
0001
0000
1000
0100
0010
0000
,
1000
0000
0010
0000
1000
0010
0100
0001
,
1000
0000
0100
0000
0010
0001
1000
0100
,
1000
0000
1001
0000
0001
0100
0010
0000
,
1000
0000
0001
0000
0010
0001
0100
0000
,
0001
0000
0010
0000
0001
0100
0010
1000
,
0001
0000
0100
0000
0010
1000
0001
0100
,
0010
0000
0100
0001
0100
0000
0001
0000
,
1000
0000
0100
1000
0100
0000
1000
0000
,
0010
0000
1000
0010
1000
0000
0010
0000
,
0100
0000
0001
1000
0001
0000
1000
0000
,
0002
0000
0010
0000
1003
0100
0010
0000
,
2000
0000
0010
0000
3001
0100
0010
0000
,
1000
0001
0100
0000
0002
0023
0230
2300
,
3001
1000
0100
0000
2000
3020
0230
0302
,
0003
0000
0000
0000
;

//---------------dance-single - ----------------
#NOTES:
     dance-single:
     :
     Hard:
     8:
     0.408,0.426,0.133,0.265,0.000: // measure 1
0000
0000
0000
0000
,  // measure 2
0000
0000
0000
0000
,  // measure 3
0000
0000
0000
0000
,  // measure 4
0000
0000
0000
0000
,  // measure 5
0000
0000
0000
0000
,  // measure 6
1000
0000
0010
2000
0001
0000
3100
0010
,  // measure 7
0001
0000
0100
0002
1000
0000
0013
0000
,  // measure 8
0100
0000
0010
0200
0001
0000
0310
0000
,  // measure 9
0001
0000
0010
0100
1000
0010
1010
0000
,  // measure 10
1000
0000
0100
2000
0100
0000
3010
0100
,  // measure 11
0001
0000
0010
0002
0010
0000
1003
0001
,  // measure 12
0100
0000
0010
2000
0100
0000
3001
0000
,  // measure 13
1000
0000
0001
1000
0100
0010
0011
0000
,  // measure 14
0001
0000
0100
0002
0010
0000
1003
0001
,  // measure 15
0100
0000
0010
2000
0100
0000
3010
0000
,  // measure 16
0100
0000
0001
0200
0001
0000
0310
0000
,  // measure 17
0001
0000
1000
0100
1000
0001
0101
0000
,  // measure 18
1000
0001
0010
0002
1000
0000
0103
0010
,  // measure 19
1000
0001
0100
0020
1000
0000
0130
0001
,  // measure 20
1000
0000
0100
0210
0000
0000
0301
0000
,  // measure 21
0100
0000
1000
2001
0000
3010
1010
0000
,  // measure 22
1000
0001
0100
0002
1000
0000
0103
0001
,  // measure 23
1000
0001
0010
0002
1000
0000
0013
0000
,  // measure 24
0100
0000
1000
1200
0000
0000
1300
0000
,  // measure 25
0010
0000
0100
0110
0002
0023
0230
2300
,  // measure 26
3001
0010
0010
0001
0100
0010
1000
0001
,  // measure 27
1000
0010
0010
1000
0100
0010
0001
1000
,  // measure 28
0010
0100
0100
0001
1000
0100
1000
0001
,  // measure 29
0100
0010
0010
0100
0002
0023
0230
2300
,  // measure 30
3001
0010
0010
0001
0100
0010
1000
0100
,  // measure 31
1000
0010
0010
1000
0100
0010
0001
0100
,  // measure 32
0001
1000
1000
0010
0100
0001
1000
0100
,  // measure 33
1000
0001
0001
0100
0001
0010
0011
0000
,  // measure 34
1001
0001
0001
0100
0010
1000
0100
1000
,  // measure 35
0010
0010
0010
1000
0010
0100
0001
1000
,  // measure 36
0100
0100
0100
0010
0100
1000
0100
0010
,  // measure 37
0001
0001
0001
0100
0010
1000
0010
0100
,  // measure 38
0010
0010
0010
1000
0100
0001
0100
1000
,  // measure 39
0010
0010
0010
0100
0001
0010
1000
0010
,  // measure 40
0001
0001
0001
0100
0010
1000
0100
1000
,  // measure 41
0010
0010
0010
0100
0001
0010
0011
0001
,  // measure 42
1000
0000
0110
0001
0100
0000
0010
1000
,  // measure 43
0100
0000
0110
1000
0100
0000
1000
0010
,  // measure 44
0100
0000
0110
1000
0001
0000
0010
0001
,  // measure 45
0100
0000
0110
0001
1000
0010
0110
0000
,  // measure 46
1000
0010
0010
1000
0100
0010
0001
1000
,  // measure 47
0001
0010
0010
0001
1000
0001
0100
0010
,  // measure 48
0100
0001
0001
0100
0020
2030
3200
2300
,  // measure 49
3001
0010
0010
0100
2000
3200
0302
0023
,  // measure 50
0030
0000
0000
0000
;

//---------------dance-single - ----------------
#NOTES:
     dance-single:
     :
     Challenge:
     14:
     0.639,0.690,1.000,0.091,0.000: // measure 1
0000
0000
0000
0000
,  // measure 2
0000
0000
0000
0000
,  // measure 3
0000
0000
0000
0000
,  // measure 4
0000
0000
0000
0000
,  // measure 5
0000
0000
0000
0000
,  // measure 6
1100
0000
0100
2001
0000
0000
3010
0100
,  // measure 7
0101
0000
0010
1002
0000
0000
1003
0000
,  // measure 8
1100
0000
0010
2100
0000
0000
3001
0000
,  // measure 9
0101
0000
0010
0101
0001
0010
0110
0000
,  // measure 10
1010
0000
0100
2010
0000
0000
3001
0100
,  // measure 11
0101
0000
0010
1002
0000
0000
0013
0000
,  // measure 12
0110
0000
0001
0120
0000
0000
1030
0000
,  // measure 13
0110
0000
1000
0110
1000
0100
1100
0000
,  // measure 14
0110
0000
0010
0201
0000
0000
0310
1000
,  // measure 15
1100
0000
0010
2001
0000
0000
3010
0000
,  // measure 16
0110
0000
0001
1200
0000
0000
0310
0000
,  // measure 17
1100
0000
0010
0101
0010
1000
1001
0000
,  // measure 18
0011
0001
1000
1001
1000
0001
0100
0001
,  // measure 19
0011
0001
1000
1100
1000
0010
0110
0010
,  // measure 20
1010
1000
0100
1100
1000
0001
0100
0001
,  // measure 21
1001
0001
0100
0101
0001
0011
0011
0000
,  // measure 22
1100
0100
0010
0110
0010
0100
1000
0010
,  // measure 23
1010
0010
1000
1010
1000
0001
0101
0001
,  // measure 24
0011
0001
1000
1001
1000
0001
0100
0010
,  // measure 25
0110
0001
0100
0110
1010
0110
0101
0011
,  // measure 26
0101
0101
0101
0101
0101
0101
1001
0011
,  // measure 27
1001
1001
1001
1001
1001
1001
1100
1001
,  // measure 28
1010
1010
1010
1010
1010
1010
1010
1010
,  // measure 29
0110
0101
0011
0101
1001
0011
0110
1100
,  // measure 30
1010
1010
1010
1010
1010
1010
1100
0110
,  // measure 31
0011
0011
0011
0011
0011
0011
0101
0110
,  // measure 32
1010
1010
1010
1010
1010
1010
1001
0110
,  // measure 33
0101
0101
0101
0101
1100
0101
0110
0000
,  // measure 34
0101
0010
1100
0010
1001
0110
1001
0010
,  // measure 35
0101
0010
1000
1100
0110
0011
0110
1100
,  // measure 36
1010
0010
0100
0110
0011
0110
1100
0110
,  // measure 37
0010
0100
1000
0001
1001
0101
1100
0011
,  // measure 38
1100
0010
1001
0010
0101
0011
1001
0001
,  // measure 39
0101
0001
1100
0110
0011
0110
1100
1010
,  // measure 40
0010
0100
0101
1100
0011
1010
0101
1100
,  // measure 41
0001
1000
0100
0001
1100
0011
0101
1001
,  // measure 42
0110
1010
0110
0101
0110
1010
0101
0110
,  // measure 43
1100
0110
0011
1100
0110
0011
1100
0110
,  // measure 44
0101
0110
1010
0101
0110
1010
0101
0110
,  // measure 45
1100
0101
0011
1100
0011
1001
0101
1001
,  // measure 46
1100
0010
1001
0010
0101
0110
1010
0001
,  // measure 47
0101
1100
0110
0101
1100
0110
0011
1001
,  // measure 48
1100
0101
0011
1100
0101
0011
1001
0110
,  // measure 49
1010
0110
0101
0011
1001
1100
0011
2002
,  // measure 50
3003
0000
0000
0000
;
