#TITLE:ピアノ協奏曲第1番"蠍火";
#SUBTITLE:;
#ARTIST:virkato;
#TITLETRANSLIT:PIANO KYOUSOUKYOKU DAI 1 BAN "SASORIBI";
#SUBTITLETRANSLIT:;
#ARTISTTRANSLIT:;
#GENRE:;
#CREDIT:;
#MENUCOLOR:;
#METERTYPE:DDR;
#BANNER:PIANO KYOUSOUKYOKU DAI 1 BAN ''SASORIBI''.png;
#BACKGROUND:PIANO KYOUSOUKYOKU DAI 1 BAN ''SASORIBI''-bg.png;
#LYRICSPATH:;
#CDTITLE:./CDTITLES/BEATMANIA IIDX.PNG;
#MUSIC:PIANO KYOUSOUKYOKU DAI 1 BAN ''SASORIBI''.ogg;
#OFFSET:0.000;
#SAMPLESTART:78.919;
#SAMPLELENGTH:14.980;
#SELECTABLE:YES;
#LISTSORT:;
#BPMS:0.000=185.000,204.000=165.000,206.000=177.000,208.000=184.000,236.000=180.000,240.000=168.000,242.000=173.000,244.000=174.000,252.000=177.000,254.000=178.000,255.000=179.000,256.000=184.000,276.000=186.000,292.000=188.000,298.000=178.000,300.000=179.000,320.000=182.000,324.000=188.000,348.000=180.000;
#STOPS:;
#BGCHANGES:0.000=PIANO KYOUSOUKYOKU DAI 1 BAN ''SASORIBI''.avi=1.000=0=0=0,
99999=-nosongbg-=1.000=0=0=0 // don't automatically add -songbackground-
;
#ATTACKS:;

//---------------dance-single - ----------------
#NOTES:
     dance-single:
     :
     Beginner:
     4:
     0.128,0.220,0.053,0.000,0.004:
0000
0000
0000
0000
,
0000
0000
0000
0000
,
0000
0000
0000
0000
,
0000
0000
0000
0000
,
0000
0000
0010
0000
,
0000
0000
0100
0000
,
0000
0000
1001
0000
,
0000
0000
0000
0000
,
0000
0001
0000
0000
,
0000
1000
0000
0000
,
0000
0000
0000
0000
,
0000
0000
0000
0000
0000
0000
0000
0000
0110
0000
0000
0000
,
0000
0000
0000
0000
,
0000
0000
0010
0000
,
0000
0000
1000
0000
,
0000
0000
0001
0000
,
0000
0000
1000
0000
,
0000
0000
0001
0000
,
0000
0000
0010
0000
,
0000
0000
0100
0000
,
0100
0000
0100
0000
,
0000
0000
0000
0000
0000
0000
0000
0110
,
0000
0000
0000
0000
,
0000
0000
0000
0000
,
0000
0000
0010
0000
,
0010
0000
0010
0000
,
0000
0000
0001
0000
,
0001
0000
0001
0000
,
0000
0000
1000
0000
,
0000
0000
0001
0000
,
0000
0000
1000
0000
,
0000
0000
0010
0000
,
0000
0000
0100
0000
,
0000
0000
0100
0000
,
0000
0000
0001
0000
,
0000
0000
0001
0000
,
0000
0000
1000
0000
,
0000
0000
1000
0000
,
0000
0000
0001
0000
,
0000
0000
1000
0000
,
0000
0000
0001
0000
,
0001
0000
0001
0000
,
0000
0000
1000
0000
,
1000
0000
1000
0000
,
0000
0000
0010
0000
,
0010
0000
0010
0000
,
0000
0000
0100
0000
,
0100
0000
0100
0000
,
0000
0000
0010
0000
,
0000
0000
1000
0000
,
0000
0000
1001
0000
,
0000
0000
0000
0000
,
0001
0000
0000
0000
,
0001
0000
0000
0000
,
1000
0000
0000
0000
,
1000
0000
0000
0000
,
0010
0000
0000
0000
,
0010
0000
0000
0000
,
0100
0000
0000
0000
,
0100
0000
0000
0000
,
0010
0000
0000
0000
,
1001
0000
0000
0000
,
1000
0000
0000
0000
,
0001
0000
0000
1000
,
1000
0000
0000
0000
,
0001
0000
0000
0010
,
0010
0000
0000
0000
,
0100
0000
1000
0000
,
0001
0000
0000
0000
,
0100
0000
0100
0000
,
0100
0000
0100
0000
,
0100
0000
0100
0000
,
0100
0100
0100
0000
,
0010
0000
0010
0000
,
0010
0000
0010
0010
,
0010
0000
0000
0000
,
1000
0000
0000
0000
,
0001
0000
0000
0000
,
1000
0000
0000
0000
,
0001
0000
0000
0000
,
0010
0000
0000
0100
,
0100
0000
0100
0000
,
0010
0000
0010
0000
,
0001
0000
0001
0000
,
1000
0000
1000
0000
,
0001
0001
0001
0000
,
1000
1000
1000
0000
,
0010
0010
0000
0000
,
0000
0000
0000
0000
,
0000
0000
0100
0000
,
0000
0000
0000
0000
,
0000
0000
0000
0000
0000
1001
0000
0000
,
0000
0000
0000
0000
,
0000
0000
0000
0000
0000
0010
0000
0000
,
0000
0000
0000
0010
,
0000
0000
0000
0000
,
0000
0110
0000
0000
;

//---------------dance-single - ----------------
#NOTES:
     dance-single:
     :
     Easy:
     10:
     0.473,0.586,0.236,0.350,0.042:
0000
0000
0000
0000
,
0000
0000
0000
0000
,
0000
0000
0000
0000
,
0000
0000
0000
0000
,
0000
0000
0020
0000
,
0000
0000
2030
0000
,
0000
3001
0002
0000
,
0000
0000
0003
0000
,
0000
2000
0000
0000
,
3001
0002
0000
0103
,
0010
1000
0020
0000
,
0000
0130
0000
0000
0000
0000
0000
0000
2002
0000
0000
0000
,
0000
0000
0000
3003
,
2200
3300
0001
0010
,
0001
0000
0100
0001
0100
0000
0001
0000
,
1000
0010
1000
0010
1000
0000
0001
0000
,
0010
0000
0001
0010
0001
0000
1000
0000
,
0100
1000
0100
1000
0100
0000
0010
0000
,
0100
0000
1000
0001
1000
0000
0010
0000
,
0100
0000
0001
0010
0001
0000
1000
0010
,
1000
0000
1010
0000
0001
1000
0100
1000
,
0001
0000
1000
0000
0001
0010
0000
0220
,
0000
0000
0000
0000
,
0330
0000
0000
0000
,
0000
1000
0010
1000
,
0100
0001
0100
1000
,
0010
0100
0001
0010
,
1000
0010
0001
0100
,
0010
0000
0100
0000
0001
0010
0001
0000
,
1000
0000
0100
0000
1000
0010
1000
0000
,
0001
0000
0100
0000
0001
0000
1000
0001
,
1000
0010
0100
0001
,
1000
0001
2001
0010
,
3100
0000
0002
0010
,
0103
0000
2000
0100
,
3001
0000
0002
0010
,
1003
0000
0020
0100
,
0031
0000
0200
0010
,
1300
0000
0002
0010
,
1003
0000
2000
0100
,
0002
0000
3003
0000
1000
0010
0000
1000
,
0000
0001
0000
1000
0100
1000
0000
0001
,
0000
0010
0000
0001
0100
0001
0000
1000
,
0000
0010
0000
1000
0001
0000
0010
0000
,
0100
0000
1000
0000
0010
0000
0100
0001
,
1000
0001
0100
0000
0010
0000
1000
0001
,
0100
0001
1000
0000
0001
0000
0010
0000
,
0100
1000
0001
0011
,
0110
0000
1100
0000
0020
0000
0130
0001
,
1000
0001
0100
0000
2001
0000
3010
0000
,
0100
0010
0100
0010
0200
0000
0000
0000
,
0302
0000
0000
1003
,
1001
0100
0100
0100
,
1000
0010
0100
0000
0001
0010
0001
1000
,
0001
0000
0100
0000
0001
0000
0010
0100
,
1000
0000
0100
0000
1000
0010
1000
0001
,
1000
0000
1000
0000
1000
0000
0010
0100
,
0001
0000
0100
0000
0010
1000
0001
0100
,
0001
0000
1000
0100
0010
0000
0100
1000
,
0001
0000
0100
0001
1000
0000
0010
0100
,
0001
0010
0100
0010
,
1002
0010
0103
1000
,
2100
0001
3010
0100
,
0102
0010
1003
0010
,
0210
0301
2000
3010
,
0012
1000
0103
1000
,
2100
0001
3010
0100
,
0110
0000
0001
1000
0100
0000
1000
0001
,
0010
0010
0010
0010
0010
0000
0001
0000
,
1001
0010
1010
0001
,
0101
1000
1100
0001
,
0011
0010
0110
0100
,
1100
1000
1001
1000
,
0010
0100
0002
0000
0013
0100
2000
0000
,
3100
0010
0002
0000
0103
0010
2000
0000
,
3010
0100
0001
0010
,
0002
1000
0100
1003
,
0010
0100
0001
0010
,
0200
1000
0010
0301
,
2000
0100
0001
3010
,
0002
0000
0000
0000
0003
0000
0100
0010
,
0100
0000
0010
1000
0010
0000
0100
0010
,
0100
0000
0001
0100
0001
0000
1000
0100
,
0010
0000
0001
0100
0010
0000
1000
0100
,
0001
0000
0001
0100
1000
0000
1000
0001
,
0100
0110
1010
1001
,
0001
0000
0010
0000
1000
0000
0001
0000
0100
0000
1000
0000
,
0010
0220
0000
0000
,
0000
0000
0000
0000
,
0330
0000
0010
0000
,
0000
0000
0010
0000
,
0000
0000
0000
0000
0000
1000
0000
0000
0000
0000
2002
0000
0000
0000
0000
0000
,
0000
0000
0000
0000
,
3003
0000
0000
0000
0000
0001
0000
0000
,
0000
0000
0010
0000
0100
0000
1000
0000
0000
0200
0000
0000
,
0000
0000
0000
0000
0000
2300
0000
0000
0000
0000
3010
0000
,
0000
0110
0000
0000
;

//---------------dance-single - ----------------
#NOTES:
     dance-single:
     :
     Medium:
     13:
     0.588,0.660,0.236,0.495,0.164:
0000
0000
0000
0000
,
0000
0000
0000
0000
,
0000
0000
0000
0000
,
0000
0000
0000
0000
,
0000
0000
0020
0000
,
0000
0000
2030
0000
,
0000
3001
0002
0000
,
0000
0000
0003
0000
,
0000
2000
0000
0000
,
3001
0000
0000
0002
0000
0000
0000
0000
0000
0103
0000
0010
,
1000
0000
0001
0010
0000
0100
0020
0000
0000
0000
0000
0000
,
0000
0032
0000
0000
0003
0000
0000
0000
2002
0000
0000
0000
,
0000
0000
0000
3003
,
2200
0000
3300
0000
0001
0010
0100
1000
,
0100
0010
0001
1000
0001
0100
0010
1000
,
0010
0100
0001
0010
0001
1000
0010
0100
,
0001
1000
0100
1000
0001
0100
0010
1000
,
0010
0100
0001
0010
0001
1000
0100
0010
,
0100
1000
0010
1000
0001
0100
0001
1000
,
0010
0100
0001
0010
0001
0000
0010
0001
,
0200
0000
0310
0000
1000
0100
0001
0100
,
2000
0000
3010
0000
1000
0001
0000
0220
,
0000
0000
0000
0000
,
0330
0000
0000
0000
,
0000
0000
0010
1000
0002
0000
0013
0000
,
2000
3010
0002
0103
,
2000
3100
0002
0010
,
0100
1003
2000
0010
,
0100
0000
3001
0000
1000
0100
2000
0000
,
3001
0100
0002
0000
1003
0010
2000
0000
,
3001
0000
0000
0010
0000
0000
0002
0000
0000
0000
0000
0000
2003
0000
0000
0000
0000
0000
3001
0000
0000
0000
0001
0000
,
0200
0310
1000
0001
,
0100
0000
0010
0000
1000
0100
1000
0001
,
2000
0000
3000
0000
0001
0100
0001
1000
,
0002
0000
0003
0000
1000
0010
1000
0001
,
2000
0000
3000
0000
0001
0010
0001
1000
,
0002
0000
0013
0000
0002
0000
0103
0010
,
2000
3010
2000
3200
,
0320
0000
0032
0000
1003
0100
1000
0001
,
2000
3010
0200
0000
,
0020
0000
0000
0000
0000
0000
0330
0000
0000
0000
0000
0000
1000
0000
0000
0100
0000
0000
0000
0000
1000
0000
0010
0000
,
0000
0010
0100
0000
0100
0001
0000
0001
1000
0000
1000
0001
,
0000
0001
0010
0000
0001
0010
0001
0000
0001
0100
0000
0100
,
0010
0000
0010
1000
0000
1000
0002
0000
0000
0203
0000
0000
,
2300
0000
3200
0000
0301
0000
0010
0100
,
1000
0100
0010
0001
1000
0000
0010
0100
,
0001
0100
0010
1000
0001
0000
1001
0000
,
1000
1001
0010
0110
,
0100
0101
2010
0100
,
0001
3010
0002
1003
,
0010
0100
0001
0100
0020
0000
0030
0000
,
1000
0100
0010
0100
1000
0001
0100
0010
,
2000
0010
0100
3001
,
1000
0001
0100
0000
0001
0010
0100
1000
,
0100
0000
0010
0001
0100
0001
1000
0010
,
0100
0000
0010
1000
0100
1000
0010
1000
,
0001
0000
0100
0001
0010
0001
1000
0001
,
0100
0000
0010
0100
0001
0100
0010
1000
,
0100
0000
0010
0001
0100
0000
0010
1000
,
0001
0010
0100
1000
0001
0010
0100
1000
,
0100
0010
0001
1000
0010
0100
0010
1000
,
2010
0100
3001
0010
,
0012
1000
0103
0010
,
0210
0001
1300
0100
,
0120
1030
0002
0013
,
1000
0100
1000
0000
0001
0100
0010
1000
,
0001
0000
0010
0001
1000
0100
1000
0001
,
0010
0000
0001
1000
0010
0000
0100
0001
,
1000
0001
0000
0001
0000
0001
0000
0001
0000
0000
0000
0000
1000
0000
0000
0000
,
1001
1100
1001
1100
,
1001
0011
1001
0011
,
1001
0011
0110
1100
,
0110
0011
0011
1001
,
0010
0100
0001
1000
0010
0100
0001
1000
,
0100
0010
0001
1000
0010
0100
0001
0010
,
0002
0100
0100
0010
,
2003
0100
0001
3010
,
2000
0100
0100
0010
,
3002
0100
0010
1003
,
0020
0100
0031
0100
,
0020
0000
1000
0000
0130
0000
1000
0010
,
1000
0000
0001
0010
0001
0000
1000
0100
,
1000
0000
0001
0010
0001
0000
1000
0100
,
0001
0100
1000
0001
1000
0000
0001
0100
,
1000
0100
0001
1000
0001
0000
1000
0010
,
1000
0100
0000
0100
0010
0000
0010
0001
0000
0001
1000
0000
,
0001
0000
0010
0000
1000
0000
0010
0000
0001
0000
0010
0000
0001
0000
0100
0000
1000
0000
0100
0000
0000
0001
0000
0000
,
1000
2002
0000
0000
,
0000
0000
0000
0000
,
3003
0000
0010
0000
,
0000
0000
0010
0000
,
0000
0000
0000
0000
0000
1000
0000
0000
0000
0000
2002
0000
0000
0000
0000
0000
,
0000
0000
0000
0000
,
3003
0000
0000
0000
0000
0001
0000
0000
,
0000
0000
0010
0000
0100
0000
1000
0000
0000
0200
0000
0000
,
0000
0000
0000
0000
0000
0302
0000
0000
0000
0000
0103
0000
,
0000
0011
0000
0000
;

//---------------dance-single - ----------------
#NOTES:
     dance-single:
     :
     Hard:
     16:
     0.770,0.990,0.229,0.366,0.785:
0000
0000
0000
0000
,
0000
0000
0000
0000
,
0000
0000
0000
0000
,
0000
0000
0000
0000
,
0000
0000
0020
0000
,
0000
0000
0230
0000
,
0000
0301
0002
0000
,
0000
0000
0003
0000
,
0000
0000
0000
0000
0000
0000
2000
0000
0000
0000
0000
0000
0000
0000
0000
0000
0000
0000
0000
0000
0000
3000
0001
0000
,
1000
0001
0100
0002
0000
0000
0000
0000
0000
1003
0010
0100
,
0010
1000
0001
0010
1000
0010
0200
0000
0000
0000
0000
0000
,
0000
0320
0000
0000
0030
0000
0000
0000
2002
0000
0000
0000
,
0000
0000
0000
3003
,
2200
0000
0000
0000
3300
0000
0000
0000
0001
0000
0010
0001
0010
0000
0001
0000
,
0100
0000
0010
0000
1000
0000
0001
0000
0100
0000
0000
0000
0010
0000
1000
0010
,
1000
0000
0001
0010
0001
0000
1000
0000
0100
0000
0010
0000
0100
0000
1000
0000
,
0010
0000
0100
0000
0001
0000
1000
0000
0001
0000
0000
0000
0100
0000
0010
1000
,
0010
0000
1000
0001
1000
0000
0001
0000
0010
0000
0001
1000
0001
0000
0100
0001
,
0100
0000
0001
0000
1000
0000
0100
0000
0010
0000
0000
0000
0100
0000
1000
0100
,
1000
0000
0010
1000
0010
0000
1000
0000
0001
0000
0000
0100
0001
0000
0010
0000
,
0001
0000
0011
0000
1000
0100
0001
0100
,
1000
0000
0010
0000
0100
0010
0100
0010
1000
0000
0001
0000
0000
0000
0220
0000
,
0000
0000
0000
0000
,
0330
0000
0000
0000
,
0000
0000
1000
0010
2000
0000
3100
0000
,
0002
0103
2000
3010
,
0002
0013
2000
3100
,
0002
0103
0020
0100
,
0001
0000
0130
0000
0001
0010
0200
0000
,
1300
0010
0200
0000
0301
0010
0002
0000
,
1003
0000
0000
0010
0000
0000
2000
0000
0000
0000
0000
0000
3002
0000
0000
0000
0000
0000
1003
0000
0001
0000
0100
0000
,
0002
1003
0001
0010
,
1000
0000
0100
0000
0110
0010
1000
0001
,
0200
0000
0301
0000
1000
0001
0100
0001
,
0020
0000
0031
0000
1000
0100
0010
0001
,
0200
0000
0310
0000
1000
0010
0100
0001
,
1000
0010
0001
0010
1000
0100
0010
0100
,
2000
0000
3100
0000
0001
0010
0100
0010
,
0002
0000
0013
0000
1000
0001
0100
0001
,
2000
0000
3010
0000
0001
1000
0100
1000
,
0002
0000
0000
0000
0000
0000
0103
0000
0000
0000
0000
0000
0001
0000
0000
0010
0000
0000
0000
0000
0001
0000
0010
0000
,
0000
0001
0100
1000
0100
0001
0010
0001
1000
0000
0010
1000
,
0000
0100
0001
0100
1000
0001
0010
0100
1000
0001
0100
0000
,
1000
0100
0000
0001
0100
0000
0001
0010
0100
1000
0100
0010
,
0001
0000
0010
0000
1000
0000
0010
0000
0001
0000
1000
0000
0010
0000
0000
0100
0000
0000
0001
0000
0000
1000
0000
0000
,
0001
0000
0010
0000
0100
0000
1000
0000
0100
0000
0010
0000
0000
0000
0000
0001
0000
0000
1000
0000
0000
0010
0000
0000
,
0100
0001
1000
0010
0100
0001
1000
0000
0000
1100
0000
0000
,
0001
0101
1010
0011
,
1100
0101
2001
0010
,
0100
3001
1002
0013
,
1000
0100
1000
0001
0100
0001
2001
0000
0000
0000
0000
0000
,
3001
0000
0000
0010
0000
0000
0100
0000
0010
0000
0001
0000
1000
0000
0010
0000
0100
0000
0001
0000
1000
0000
0001
0000
,
1000
1100
1001
1100
,
1010
0000
0010
0000
0100
0000
0001
0000
1000
0100
0010
0000
0001
0100
0010
0100
,
0001
0000
1000
0000
0010
1000
0001
0000
1000
0100
0010
0100
1000
0001
1000
0001
,
0100
0000
0001
0000
0010
0000
0001
0000
1000
0001
1000
0000
0001
0100
0010
0100
,
0001
0000
0000
0000
0010
0000
0001
0000
1000
0100
1000
0000
0001
0100
0001
0000
,
1000
0000
0000
0000
0010
1000
0010
1000
0001
0000
0010
0000
1000
0000
0010
0000
,
0100
0010
0100
0010
0001
0000
1000
0000
0010
0100
0010
0100
0001
0000
1000
0000
,
0001
0010
0100
1000
0100
0010
0001
0100
0010
1000
0010
0100
,
0010
0000
1000
0000
0001
0100
0001
0000
1000
0000
0001
0000
0010
0001
0010
0000
,
0011
0000
0001
0000
0100
0000
0010
0000
1000
0000
0001
0000
1000
0100
1000
0000
,
1100
0000
0100
0000
0010
0000
0100
0000
1000
0000
0001
0000
0100
0001
1000
0001
,
0010
0000
0001
0000
0100
0001
0100
0000
0001
1000
0100
1000
0001
0000
1000
0000
,
0010
0000
1000
0100
1000
0000
0001
0000
0010
0001
1000
0001
0010
0000
0001
0000
,
1001
0000
1000
0010
0100
0000
0001
0000
0010
0100
1000
0100
0010
0000
0001
0000
,
1001
0000
0010
0100
0001
0000
0100
0000
0010
1000
0100
1000
0010
0000
1000
0000
,
0001
0010
0000
0100
0000
0100
1000
0000
0010
0100
0000
0001
0000
0001
1000
0000
,
0001
0000
0000
1000
0000
0000
0000
0000
0000
0100
0000
0000
0000
0000
0000
1000
0000
0000
0000
0000
0000
1100
0000
0000
0000
0000
0000
1000
0000
0000
0000
0000
0010
0000
0000
0000
0100
0000
0000
0000
0001
0000
0000
0000
0100
0000
0000
0000
,
0001
0010
0100
1000
0100
0010
0001
0100
0010
1000
0010
0100
,
0001
1000
0010
1000
0001
0010
0001
1000
0100
1000
0001
0100
,
0001
0010
1000
0010
0001
1000
0001
0100
1000
0100
0001
1000
,
0010
1000
0100
1000
0010
0100
0010
0100
0001
1000
0100
1000
,
0001
0000
1001
0000
0001
0010
0100
0010
0001
0000
0011
0000
1000
0010
0100
0010
,
1000
0000
1010
0000
0010
1000
0001
0100
0010
0000
0110
0000
0001
1000
0100
1000
,
0002
0010
0010
0100
,
1003
0100
0010
0001
0200
0000
0310
0000
,
2000
0010
0010
0100
,
3001
0010
0100
1000
0020
0000
0130
0000
,
0002
0100
1000
0013
,
2000
0000
0000
0000
0000
0000
0000
0000
3000
0000
0000
0000
0001
1000
0100
1000
,
0001
0000
0000
0000
1000
0001
0100
0001
1000
0000
0000
0000
0001
0010
0100
0010
,
0001
0000
0000
0000
1000
0010
0100
0010
1000
0000
0000
0000
0010
1000
0001
0100
,
0010
0000
0000
0000
0100
0001
1000
0010
0100
0000
0000
0000
0010
1000
0100
0001
,
0100
0000
0000
0000
0010
0001
0100
1000
0100
0000
0000
0000
0010
0100
0001
0000
,
1000
0100
0001
1000
0010
0001
1000
0100
0001
1000
0010
0001
,
1000
0000
0000
0000
0100
0000
0000
0000
1000
0000
0000
0000
0001
0000
0000
0000
0100
0000
0000
0000
0001
0000
0000
0000
1000
0000
0000
0000
0010
0000
0000
0000
0100
0000
0000
0000
0001
0000
0000
1000
0000
0000
0001
0000
0000
1000
0000
0000
,
0010
0220
0000
0000
,
0000
0000
0000
0000
,
0330
0000
0010
0000
,
0000
0000
0010
0000
,
0000
0000
0000
0000
0000
1000
0000
0000
0000
0000
2002
0000
0000
0000
0000
0000
,
0000
0000
0000
0000
,
3003
0000
0000
0000
0000
0001
0000
0000
,
0000
0000
0010
0000
0100
0000
1000
0000
0000
0200
0000
0000
,
0000
0000
0000
0000
0000
0302
0000
0000
0000
0000
0103
0000
,
0000
1010
0000
0000
;

//---------------dance-single - ----------------
#NOTES:
     dance-single:
     :
     Challenge:
     18:
     0.928,1.000,0.282,0.267,1.000:
0000
0000
0000
0000
,
0000
0000
0000
0000
,
0000
0000
0000
0000
,
0000
0000
0000
0000
,
0000
0000
0002
0000
,
0000
0000
0023
0000
,
0000
1030
0200
0000
,
0000
0000
0300
0000
,
0000
0000
0000
0020
0000
0000
0000
0000
0000
0000
0000
1030
,
0001
0010
0100
2000
0000
0000
0000
0000
0000
3001
0100
0010
,
1000
0100
0001
0100
1000
0010
2000
0000
0000
0000
0000
0000
,
0000
3002
0000
0000
0003
0000
0000
0000
0220
0000
0000
0000
,
0000
0000
0000
0330
,
2200
0000
0000
0000
3300
0000
0000
0000
0011
0000
0001
0100
0001
0000
1000
0010
,
1000
0000
0001
0010
0100
0010
0001
1000
0001
0000
1000
0010
1000
0000
0001
0100
,
0001
0000
1000
0010
0100
0010
1000
0001
1000
0000
0100
1000
0100
0000
1000
0010
,
1000
0000
0010
1000
0001
0100
0001
0010
0001
0000
0100
0001
0100
0000
0001
0010
,
0001
0000
1000
0100
0010
0100
1000
0001
1000
0000
0010
1000
0010
0000
0100
0001
,
0100
0000
0010
1000
0001
0100
0001
0010
0001
0000
1000
0100
1000
0000
0001
0010
,
0001
0000
1000
0010
0100
0001
1000
0100
0010
0000
0000
0100
1000
0000
0010
0000
,
1010
0000
1000
0001
0100
0000
0001
1000
0010
1000
0010
1000
0001
0100
0001
0100
,
0010
0000
1000
0000
0100
0000
0001
0000
0100
0000
1000
0000
0010
0000
0100
0000
0010
0000
0000
0000
1000
0001
0000
0000
0000
0000
0000
0000
0220
0000
0000
0000
,
0000
0000
0000
0000
,
0330
0000
0000
0000
,
0000
0000
1000
0010
2000
0000
3100
0000
,
0002
0103
2000
3010
,
0002
0013
2000
3100
,
1000
1100
0002
0013
,
0001
0000
1001
0000
1000
0010
1000
0100
,
0010
0100
1000
0100
0001
0100
1000
0100
,
0010
0000
0000
0100
0000
0000
1000
0000
0000
0010
0000
0000
0001
0000
0000
0010
0000
0000
1000
0000
0100
0000
0010
0000
,
0100
1000
0001
0100
0001
0010
0100
1000
,
0001
0010
1000
0010
0001
0100
0010
1000
,
0020
0100
0001
0130
0010
1000
0100
0001
,
0200
1000
0010
1300
0010
1000
0001
0100
,
0002
0010
0100
1003
0100
0010
1000
0001
,
2000
0100
0001
3010
0001
0100
0010
1000
,
0020
0000
0000
0100
0000
0000
0001
0000
0000
1030
0000
0000
0001
0000
0010
0000
0100
0000
1000
0000
0000
0001
0000
0000
,
1000
0000
0010
0000
0100
0000
0001
0000
0000
1000
0000
0000
0010
0000
1000
0000
0001
0000
0100
0000
0000
0001
0000
0000
,
0010
0000
0000
1000
0000
0000
0010
0000
0000
0001
0000
0000
0100
0000
0001
0000
1000
0000
0010
0000
0000
1000
0000
0000
,
0100
0000
0000
0000
0000
0000
0001
0000
0000
0000
0000
0000
0100
0000
0000
1000
0000
0000
0100
0000
0000
1000
0000
0000
0010
0000
0000
0000
0100
0000
0000
0000
0001
0000
0000
0000
1000
0000
0000
0000
0100
0000
0000
0000
0001
0000
0000
0000
,
0100
1000
0010
0100
0001
1000
0001
0010
1000
0010
0001
0100
,
0010
1000
0100
0001
0100
1000
0010
0100
0001
0010
0100
1000
,
0001
0010
1000
0010
0001
1000
0001
0100
1000
0001
0010
1000
,
0001
0100
1000
0001
0010
1000
0010
0001
1000
0100
1000
0001
,
0100
0010
1000
0001
0100
0001
1000
0100
1000
0001
0010
0001
,
1000
0000
0000
0000
0010
0000
0000
0000
0100
0000
0000
0000
0001
0000
0000
1000
0000
0000
0001
0000
0000
1000
0000
0000
0010
0000
0000
0000
0000
0000
0100
0000
0000
0000
0000
0000
1010
0000
0000
0000
0000
0000
0000
0000
0000
0000
0000
0000
,
0010
0100
0011
0000
1001
0100
0011
0000
,
1001
0100
1010
0000
0120
0000
1030
0100
,
0001
0100
1000
0001
0200
0000
0310
0000
,
1000
0000
0001
0000
0100
0000
0010
0000
1000
0000
0001
0000
0100
0020
0000
0000
0000
0000
0000
0000
0000
0000
0000
0000
,
1030
0000
0000
0000
0000
0000
0100
0000
0000
0000
0000
0000
1000
0000
0000
0000
0010
0000
0000
0000
0001
0000
0000
0000
1000
0000
0000
0000
0100
0000
0000
0000
0001
0000
0000
0000
1000
0000
0000
0001
0000
0000
1000
0000
0000
0001
0000
0000
,
1000
0000
0100
1000
0001
0000
0100
0001
0010
0000
0100
0010
0001
0000
1000
0010
,
0100
0000
0010
0000
1010
0000
0010
1000
0001
0000
1000
0100
1000
0001
1000
0010
,
0100
0000
0001
0100
0001
1000
0001
0010
0100
0010
0001
1000
0001
0100
0001
0100
,
0010
0000
1000
0100
0010
0001
1000
0000
0010
0100
0001
0000
0010
0100
1000
0100
,
0010
0000
0001
1000
0100
1000
0001
0000
1000
0001
0100
0001
1000
0100
1000
0010
,
1000
0000
0010
0100
0001
0100
0010
1000
0001
0000
0010
0000
0001
0100
0010
0000
,
1000
0100
1000
0100
0010
0100
0010
0100
1000
0100
0010
0100
1000
0001
0100
0001
,
1000
0010
0100
0001
0100
0010
1000
0010
0100
0001
0010
0100
1000
0100
0010
0001
,
1000
0000
0100
1000
0010
0100
0001
0100
0010
0000
1000
0000
1100
0000
0110
0000
,
0011
0000
0001
0100
0010
0100
0001
0100
1000
0100
0010
0100
0001
0000
1000
0100
,
1000
0000
0001
0000
0011
0000
0001
0010
1000
0010
0001
0010
0100
0010
0001
1000
,
0001
0000
1000
0000
0010
1000
0001
0100
0001
1000
0010
1000
0001
0010
0100
1000
,
0100
0000
1000
0000
0001
1000
0010
0100
0001
0000
1000
0000
0010
1000
0010
1000
,
0100
0000
0010
0000
0100
1000
0001
1000
0010
0100
0001
0100
0010
0000
1000
0001
,
0010
0000
0001
0000
1000
0100
0001
0100
1000
0000
0010
0000
1000
0010
0100
0010
,
1000
0010
0000
1000
0001
0000
1000
0100
0000
0010
0100
1000
0100
0010
0001
1000
,
0001
0100
0000
0101
0000
1100
0000
0101
0000
0001
1000
0001
0010
0100
1000
0001
,
1000
0100
0001
0100
0010
0001
1000
0010
0001
0010
0100
0001
,
1000
0100
0001
0100
0010
0001
1000
0010
0001
0010
0100
0001
,
1000
0100
0001
1000
0010
0001
1000
0100
0001
1000
0010
0001
,
0100
0010
1000
0010
0100
0001
1000
0001
0010
1000
0100
0001
,
0100
0000
0110
0000
0001
0100
1000
0100
0001
0000
0011
0000
1000
0100
0001
0100
,
1000
0000
1010
0000
0001
0010
1000
0010
0001
0000
1100
0000
0001
1000
0100
1000
,
0001
0100
0010
1000
0100
1000
0010
0100
,
0001
0010
0100
1000
0100
0010
0001
1000
,
0001
0010
0001
1000
0010
1000
0001
0010
,
0001
0100
0010
1000
0010
0100
0001
1000
,
0200
0000
0000
0310
,
0002
0000
0000
0000
0000
0000
0000
0000
0000
0000
0000
0000
1003
0100
0001
0010
,
1000
0000
0000
0000
0001
0100
1000
0010
0001
0000
0000
0000
0010
1000
0100
0001
,
0010
0000
0000
0000
0010
0001
0100
1000
0010
0000
0000
0000
0100
1000
0010
0001
,
0100
0000
0000
0000
0100
0001
0010
1000
0100
0000
0000
0000
0010
0001
0100
1000
,
0010
0000
0000
0000
0010
1000
0100
0001
0010
1000
0001
0000
1000
0001
0010
0000
,
0001
0001
0001
0100
0100
0100
1000
1000
1000
0010
0010
0010
,
1010
0000
0000
0000
0010
0000
0000
0000
0100
0000
0000
0000
0011
0000
0000
0000
0010
0000
0000
0000
0100
0000
0000
0000
1100
0000
0000
0000
0100
0000
0000
0000
0001
0000
0000
0000
0001
0000
0000
0010
0000
0000
1000
0000
0000
0100
0000
0000
,
0001
2020
0000
0000
,
0000
0000
0000
0000
,
3030
0000
0110
0000
,
0000
0000
1010
0000
,
0000
0000
0000
0000
0000
1100
0000
0000
0000
0000
2002
0000
0000
0000
0000
0000
,
0000
0000
0000
0000
,
3003
0000
0000
0000
0000
0011
0000
0000
,
0000
0000
0010
0000
0100
0000
1000
0000
0000
1200
0000
0000
,
0000
0000
0000
0000
0000
0302
0000
0000
0000
0000
0103
0000
,
0000
1010
0000
0000
;

//---------------dance-double - ----------------
#NOTES:
     dance-double:
     :
     Easy:
     10:
     0.469,0.550,0.206,0.274,0.042:
00000000
00000000
00000000
00000000
,
00000000
00000000
00000000
00000000
,
00000000
00000000
00000000
00000000
,
00000000
00000000
00000000
00000000
,
00000000
00000000
00200000
00000000
,
00000000
00000000
20300000
00000000
,
00000000
30010000
00020000
00000000
,
00000000
00000000
00030000
00000000
,
00000000
00200000
00000000
00301000
,
00010000
00002000
00000000
00003010
,
00000001
00000100
00001000
00000000
,
00000000
01000000
00000000
00000000
00000000
00000000
00000000
00000000
20020000
00000000
00000000
00000000
,
00000000
00000000
00000000
30030000
,
22000000
33000000
00010000
00100000
,
00010000
00000000
00100000
00001000
00100000
00000000
00001000
00000000
,
00010000
00000010
00010000
00000010
00010000
00000000
00000010
00000000
,
00000100
00000000
00000001
00001000
00000001
00000000
00000010
00000000
,
00000001
00000010
00000001
00000010
00000001
00000000
00000010
00000000
,
00000100
00000000
00010000
00000100
00010000
00000000
00001000
00000000
,
01000000
00010000
01000000
00010000
01000000
00000000
00100000
10000000
,
00100000
00000000
01000000
00000000
00010000
00100000
00010000
00000000
,
20000000
00000000
31000000
00000000
00100000
00001000
00000000
00022000
,
00000000
00000000
00000000
00000000
,
00033000
00000000
00000000
00000000
,
00000000
00000010
00000010
00000001
,
00000001
00000100
00000100
00000010
,
00000010
00010000
00010000
00000100
,
00000100
00010000
00001000
00100000
,
00010000
00000000
01000000
00000000
00100000
10000000
00100000
00000000
,
01000000
00010000
01000000
00000000
00001000
00100000
00001000
00000000
,
00010000
00001000
00010000
00000000
00000010
00000000
00000100
00000001
,
00001000
00000001
00000010
00000100
,
00001000
00010000
00200000
10000000
,
01300000
10000000
00200000
00010000
,
01300000
00001000
00020000
00000010
,
00030100
00001000
00000020
00000100
,
00000031
00000000
00001000
00000000
00000002
00000000
00000013
00000200
,
00010000
00000300
00010000
00001000
,
01000000
00000000
00100000
00000000
10000000
00000000
01000000
00200000
,
00001000
00000000
00300000
00000000
00001000
00000000
00010000
00000020
,
00000100
00000000
00000030
00000000
00001000
00000010
00000000
00001000
,
00000000
00000100
00000000
00010000
00001000
00010000
00000000
00001000
,
00000000
01000000
00000000
00100000
10000000
00010000
00000000
01000000
,
00000000
00001000
00000000
00100000
00001000
00000000
01000000
00000000
,
00001000
00010000
00011000
00010000
,
00000010
00000100
00000001
00000000
00000010
00000000
00000100
00000000
,
00010000
00000100
00010000
00001000
00010000
00000000
00011000
00000000
,
00001000
01001000
00100000
01100000
,
10000000
00000000
11000000
00000000
02100000
00000000
03001000
00100000
,
00001000
00100000
00001000
00000000
00010000
00000000
00000100
00000000
,
00010000
00001000
00010000
00001000
00020000
00000000
00000000
00000000
,
00031000
00001000
00010000
00001000
,
00011000
00000010
00000010
00000010
,
00000100
00000001
00001000
00000000
00000001
00000010
00000100
00000000
,
00000010
00000000
00000001
00000000
00000100
00000000
00000010
00010000
,
00001000
00000000
00010000
00000000
00001000
01000000
00100000
01000000
,
00010000
00000000
00100000
00000000
01000000
00000000
00100000
00001000
,
00010000
00000000
00001000
00000000
00010000
00000000
00000010
00000100
,
00000001
00000000
00000010
00000000
00000100
00000000
00001000
00010000
,
00100000
01000000
00010000
10000000
,
00010000
00100000
00010000
10000000
00010000
00000000
01000000
00001000
,
00100000
00001000
00010000
00001000
,
00011000
00000010
00000100
00000001
,
00001001
00000010
00000100
00010000
,
00010100
00000000
00010000
00000000
00001000
00100000
00001000
00000000
,
01100000
10000000
00100000
01000000
,
01010000
01000000
00001000
00100000
,
00101000
00000000
00000000
00001000
00010000
00000000
00000000
00010000
,
00000010
00010000
00000010
00010000
00000010
00000000
00000100
00000000
,
00000001
00000010
00000110
00000100
,
00010100
00010000
00011000
00001000
,
00101000
00100000
00110000
00010000
,
01010000
01000000
01100000
01000000
,
00010000
01000000
00200000
00000000
01300000
00001000
00020000
00000000
,
00030010
00001000
00000002
00000000
00000013
00000100
00020000
00000000
,
00030100
00010000
00001000
00100000
,
00020000
01000000
10000000
00130000
,
10000000
01000000
00100000
00001000
,
00020000
00000100
00001000
00030010
,
00000200
00000010
00001300
00000001
,
00000020
00001000
00000130
00010000
,
00011000
00000000
00001000
01000000
00001000
00000000
01000000
00010000
,
01000000
00000000
00010000
00100000
00010000
00000000
10000000
01000000
,
00100000
00000000
00010000
00001000
00000100
00000000
00000010
00000001
,
00000100
00000000
00000010
00001000
00010000
00000000
01000000
00100000
,
10000000
00100000
01000000
00010000
,
00001000
00000000
00000010
00000000
00000001
00000000
00000010
00000000
00001000
00000000
00010000
00000000
,
00100000
00202000
00000000
00000000
,
00000000
00000000
00000000
00000000
,
00303000
00000000
00001000
00000000
,
00000000
00000000
00001000
00000000
,
00000000
00000000
00000000
00000000
00000000
00010000
00000000
00000000
00000000
00000000
00020020
00000000
00000000
00000000
00000000
00000000
,
00000000
00000000
00000000
00000000
,
00030030
00000000
00000000
00000000
00000000
00000010
00000000
00000000
,
00000000
00000000
00000100
00000000
00001000
00000000
00010000
00000000
00000000
00002000
00000000
00000000
,
00000000
00000000
00000000
00000000
00000000
00023000
00000000
00000000
00000000
00000000
01030000
00000000
,
00000000
00011000
00000000
00000000
;

//---------------dance-double - ----------------
#NOTES:
     dance-double:
     :
     Medium:
     13:
     0.602,0.660,0.305,0.396,0.217:
00000000
00000000
00000000
00000000
,
00000000
00000000
00000000
00000000
,
00000000
00000000
00000000
00000000
,
00000000
00000000
00000000
00000000
,
00000000
00000000
00200000
00000000
,
00000000
00000000
00302000
00000000
,
00000000
00013000
00020000
00000000
,
00000000
00000000
00030000
00000000
,
00000000
00000000
00000000
00000020
00000000
00000000
00000000
00000000
00000000
00000030
00000100
00000000
,
00000001
00000000
00000001
00002000
00000000
00000000
00000000
00000000
00000000
00003010
00000000
00000000
,
00010000
00000000
00001000
00000000
00010000
00000000
00002000
00000000
00000000
00000000
00000000
00000000
,
00000000
02003000
00000000
00000000
03000000
00000000
00000000
00000000
02200000
00000000
00000000
00000000
,
00000000
00000000
00000000
03300000
,
22000000
00000000
33000000
00000000
00010000
00000000
00100000
00010000
,
00100000
00001000
00010000
00001000
00010000
00000000
00000010
00010000
,
00000010
00010000
00000010
00000100
00000010
00000000
00001000
00000100
,
00001000
00000001
00000100
00000010
00000100
00000000
00000001
00000010
,
00000100
00010000
00001000
00100000
00001000
00000000
00100000
00010000
,
01000000
00100000
10000000
00010000
10000000
00000000
00010000
00100000
,
01000000
00100000
00001000
00010000
00001000
00000000
00010000
00000010
,
00000100
00000000
00000110
00000000
00000001
00000010
00001000
00010000
,
00200000
00000000
00310000
00000000
10000000
00100000
00000000
02200000
,
00000000
00000000
00000000
00000000
,
03300000
00000000
00000000
00000000
,
00000000
00000000
10000000
00100000
20000000
00000000
31000000
00000000
,
00020000
01030000
00200000
00301000
,
00020000
00030010
00000200
00000301
,
00000020
00001030
00000010
00000100
,
00000100
00000000
00010000
00000000
00001000
00010000
00000100
00000000
,
00010000
00000010
00000100
00000000
00000010
00001000
00000001
00000000
,
00000010
00000000
00000000
00000100
00000000
00000000
00010000
00000000
00000000
00000000
00000000
00000000
00001000
00000000
00000000
00000000
00000000
00000000
00100000
00000000
00010000
00000000
10000000
00000000
,
00010000
01000000
00100000
10000000
,
10000000
00000000
00010000
00000000
10000000
01000000
00100000
00001000
,
00020000
00000000
00031000
00000000
00010000
00000010
00000100
00000001
,
00002000
00000000
00003100
00000000
00000010
00000100
00010000
00001000
,
02000000
00000000
03100000
00000000
10000000
00100000
01000000
00010000
,
20000000
00000000
31000000
00000000
00200000
00000000
00301000
00010000
,
00000020
00000000
00000130
00000000
00000001
00000010
00000100
00010000
,
00002000
00000000
00103000
00000000
00010000
01000000
00100000
10000000
,
02000000
00000000
03100000
00000000
00001000
00010000
00000100
00000000
,
00020000
00000000
00000000
00030000
00000000
00000000
00000010
00000000
00001000
00000000
00001000
00000001
,
00000000
00000010
00000100
00000000
00000100
00010000
00000000
00010000
00001000
00000000
00001000
00100000
,
00010000
00000000
10000000
00000000
00010000
01000000
00010000
00000000
10000000
01000000
00000000
01000000
,
00100000
00000000
00100000
00001000
00000000
00000000
00010000
00000000
00010000
00000010
00000000
00000010
,
00000100
00000000
00000000
00000000
00000100
00000000
00000001
00000000
00000000
00000000
00000000
00000000
00001001
00000000
00000000
00000000
00000000
00000000
00000010
00000000
00000000
00000100
00000000
00000000
,
00001000
00000100
00000010
00000001
00001000
00000000
00000010
00010000
,
00000100
00010000
00001000
00100000
00001000
00000000
00101000
00000000
,
00011000
01001000
01100000
10100000
,
10010000
00000000
01010000
00000000
00201000
00000000
00301000
00100000
,
00001000
00010000
00001000
00010000
00000020
00000000
00000130
00000000
,
00000001
00000000
00000000
00001000
00000000
00000000
00000001
00000000
00001000
00000000
00000100
00000000
00020000
00000000
00000000
00000000
00000000
00000000
00000000
00000000
00000000
00000000
00000000
00000000
,
00031000
00100000
01000000
10000000
01000000
00100000
00010000
00001000
,
00000010
00000011
00000110
00001100
,
00000001
00000010
00000100
00000000
00001000
00000100
00010000
00001000
,
00100000
00000000
00010000
01000000
00100000
10000000
00010000
01000000
,
00010000
00000000
10000000
01000000
00100000
00001000
00010000
00001000
,
00010000
00000000
00000010
00000100
00000001
00001000
00000100
00001000
,
00000001
00000000
00000010
00000100
00001000
00010000
00100000
10000000
,
01000000
00010000
01000000
10000000
00100000
00000000
01000000
00010000
,
00001000
00000100
00000001
00000100
00001000
00000010
00000100
00000001
,
00001000
00000100
00010000
00001000
00100000
00001000
00001000
00010000
,
00012000
00100000
01003000
01010000
,
01200000
10000000
01300000
11000000
,
02100000
00000000
00001000
00000000
03100000
00001000
00010000
00001000
,
00020000
00030010
00000200
00000310
,
00001002
00000000
00000010
00000000
00000103
00000000
00001000
00000100
,
00000020
00000001
00000100
00001030
,
00000001
00000010
00000100
00000000
00010000
00000100
00001000
00000000
,
00000100
00000000
00000000
00010000
00000000
00000000
00000000
00000000
00000000
00001000
00000000
00000000
00000000
00000000
00000000
00001000
00000000
00000000
00000000
00000000
00000000
00001000
00000000
00000000
00000000
00000000
00000000
00000000
00000000
00000000
00000000
00000000
00000000
00000000
00000000
00000000
00100000
00000000
00000000
00000000
00001000
00000000
00000000
00000000
00010000
00000000
00000000
00000000
,
00001000
01001000
01100000
10100000
,
11000000
01100000
00110000
00101000
,
00011000
00010100
00001010
00000110
,
00000011
00000110
00010100
00011000
,
00100000
00100000
01000000
10000000
00010000
00010000
01000000
00001000
,
00100000
00100000
00001000
00010000
00000010
00000010
00000100
00000001
,
00001000
00000100
00000010
00000001
00002000
00000000
00003010
00000000
,
00001000
00000100
00010000
00001000
00020000
00000000
00031000
00000000
,
01000000
00010000
10000000
00100000
02000000
00000000
03100000
00000000
,
10000000
01000000
00100000
01000000
20000000
00000000
30100000
00000000
,
02000000
00010000
03100000
00001000
,
00200000
00000000
00000000
00000000
00001000
00000000
00000000
00000000
00310000
00000000
00000000
00000000
00001000
00010000
00001000
00010000
,
00001000
00000000
00000000
00000000
00010000
00000000
00000010
00000000
00010000
00000000
00000000
00000000
00000010
00000100
00000010
00000100
,
00000010
00000000
00000000
00000000
00001000
00000000
00000001
00000000
00001000
00000000
00000000
00000000
00000100
00010000
00000100
00010000
,
00000100
00000000
00000000
00000000
00010000
00000000
00001000
00000000
00010000
00000000
00000000
00000000
00001000
00100000
00001000
00100000
,
00001000
00000000
01000000
00100000
10000000
00000000
00100000
01000000
,
00010000
00000000
10000000
00000000
01000000
00000000
00010000
00000000
00001000
00000000
00000010
00000000
,
00000001
00000000
00000001
00000100
00000000
00000100
00000010
00010000
00000010
00020000
00000000
00000000
,
00031000
00022000
00000000
00000000
,
00000000
00000000
00000000
00000000
,
00033000
00000000
00001000
00000000
,
00000000
00000000
00001000
00000000
,
00000000
00000000
00000000
00000000
00000000
00100000
00000000
00000000
00000000
00000000
00202000
00000000
00000000
00000000
00000000
00000000
,
00000000
00000000
00000000
00000000
,
00303000
00000000
00000000
00000000
00000000
00000100
00000000
00000000
,
00000000
00000000
00001000
00000000
00010000
00000000
00100000
00000000
00000000
00002000
00000000
00000000
,
00000000
00000000
00000000
00000000
00000000
02003000
00000000
00000000
00000000
00000000
03010000
00000000
,
00000000
00011000
00000000
00000000
;

//---------------dance-double - ----------------
#NOTES:
     dance-double:
     :
     Hard:
     16:
     0.775,0.916,0.206,0.358,0.781: // measure 1
00000000
00000000
00000000
00000000
,  // measure 2
00000000
00000000
00000000
00000000
,  // measure 3
00000000
00000000
00000000
00000000
,  // measure 4
00000000
00000000
00000000
00000000
,  // measure 5
00000000
00000000
00000020
00000000
,  // measure 6
00000000
00000000
00000032
00000000
,  // measure 7
00000000
00000103
00000200
00000000
,  // measure 8
00000000
00000000
00000300
00000000
,  // measure 9
00000000
00000000
00000000
00020000
00000000
00000000
00000000
00000000
00000000
00000000
00031000
01000000
,  // measure 10
00100000
10000000
01000000
20000000
00000000
00000000
00000000
00000000
00000000
30010000
00100000
01000000
,  // measure 11
00100000
00001000
00010000
00001000
00010000
00000010
00000200
00000000
00000000
00000000
00000000
00000000
,  // measure 12
00000000
00000320
00000000
00000000
00000030
00000000
00000000
00000000
00022000
00000000
00000000
00000000
,  // measure 13
00000000
00000000
00000000
00033000
,  // measure 14
22000000
00000000
00000000
00000000
33000000
00000000
00000000
00000000
00100000
00000000
00010000
00100000
00010000
00000000
00100000
00000000
,  // measure 15
00001000
00000000
00010000
00001000
00010000
00000000
00000010
00000000
00000100
00000000
00000000
00000000
00000001
00000000
00001000
00000100
,  // measure 16
00001000
00000100
00010000
00000000
00001000
00000000
00100000
00000000
00010000
00000000
01000000
00100000
01000000
00000000
00100000
00000000
,  // measure 17
10000000
00000000
01000000
00000000
00100000
00000000
00010000
00000000
01000000
00000000
00000000
00000000
00001000
00000000
00010000
00001000
,  // measure 18
00010000
00000000
00000010
00000000
00000100
00000000
00000010
00000000
00001000
00000000
00000000
00000000
00000001
00000010
00000001
00001000
,  // measure 19
00000001
00000100
00000010
00010000
00001000
00000000
00010000
00000100
,  // measure 20
00010000
00001000
00010000
00000000
00001000
00000000
00100000
00000000
01100000
00000000
00000000
00100000
00010000
00000000
10000000
00000000
,  // measure 21
00010000
00000000
01010000
00000000
10000000
01000000
00010000
00001000
,  // measure 22
00000200
00000000
00000310
00000000
00000001
00000010
00000000
00000220
,  // measure 23
00000000
00000000
00000000
00000000
,  // measure 24
00000330
00000000
00000000
00000000
,  // measure 25
00000000
00000000
00000100
00010000
00002000
00000000
00103000
00000000
,  // measure 26
00002000
01003000
00020000
00130000
,  // measure 27
00020000
01030000
20000000
31000000
,  // measure 28
00020000
00030100
00000002
00000013
,  // measure 29
00000002
00000000
00000103
00000000
00000010
00001000
00000100
00001000
,  // measure 30
00000001
00000010
00000100
00001000
00010000
00000100
00010000
00001000
,  // measure 31
00100000
00000000
00000000
00010000
00000000
00000000
01000000
00000000
00000000
00100000
00000000
00000000
10000000
00000000
00000000
00000000
00000000
00000000
00100000
00000000
10000000
00000000
00100000
00000000
,  // measure 32
01000000
00000000
00010000
00000000
10000000
01000000
00100000
00001000
,  // measure 33
00010000
00000010
00000100
00000001
00001000
00000100
00000010
00000001
,  // measure 34
00000100
00000010
00002000
00000000
00003100
00010000
00001000
00100000
,  // measure 35
00010000
01000000
00200000
00000000
10300000
00100000
01000000
00001000
,  // measure 36
00100000
00001000
00020000
00000000
00030010
00001000
00000001
00000010
,  // measure 37
00000010
00000001
00000200
00000000
00000310
00001000
00000100
00010000
,  // measure 38
00002000
00000000
00103000
00000000
00010000
01000000
10000000
01000000
,  // measure 39
00020000
00000000
00031000
00000000
00000100
00000001
00000100
00001000
,  // measure 40
00000200
00000000
00010300
00000000
00010000
01000000
00100000
10000000
,  // measure 41
00020000
00000000
00000000
00000000
00000000
00000000
10030000
01000000
10000000
00010000
01000000
00010000
,  // measure 42
00100000
00001000
00100000
00001000
00010000
00001000
00010000
00000010
00010000
00000010
00000100
00000010
,  // measure 43
00001000
00000100
00001000
00000001
00000100
00000001
00001000
00000100
00000001
00000100
00001000
00010000
,  // measure 44
00001000
00100000
00001000
00010000
00100000
10000000
00100000
01000000
00100000
01000000
00010000
01000000
,  // measure 45
00010000
10000000
01000000
10000000
00010000
00100000
00001000
00000000
00000010
00000100
00000000
00000100
,  // measure 46
00010000
00001000
00010000
00000010
00000100
00000001
00000010
00000000
00000010
00000001
00000000
00000001
,  // measure 47
00000100
00001000
00000100
00001000
00100000
00010000
01000000
00000000
00000000
01100000
00000000
00000000
,  // measure 48
10010000
11000000
00110000
00011000
,  // measure 49
00010100
00000000
00001010
00000000
00000210
00000000
00000301
00001000
,  // measure 50
00000100
00000000
00001000
00000000
00000001
00000010
00000000
00000010
00000200
00000000
00000000
00000000
00010300
00000000
00001000
00000000
,  // measure 51
00010000
00001000
00010000
00001000
01000000
00001000
02000000
00000000
00000000
00000000
00000000
00000000
,  // measure 52
03100000
00000000
00000000
10000000
00000000
00000000
01000000
00000000
10000000
00000000
00010000
00000000
01000000
00000000
00001000
00000000
00010000
00000000
00000010
00000000
00000000
00000100
00000000
00000000
,  // measure 53
00000210
00000001
00000010
00001300
,  // measure 54
00000001
00000000
00000010
00000000
00000100
00000000
00000000
00000000
00001000
00000100
00001000
00000000
00000100
00010000
00000100
00010000
,  // measure 55
00000100
00000000
00010000
00000000
00001000
00000000
00100000
00000000
00010000
00000000
01000000
00100000
01000000
00100000
01000000
00100000
,  // measure 56
10000000
00000000
00010000
00000000
00100000
00000000
01000000
00100000
00001000
00000000
00010000
00000000
00001000
00000000
00010000
00000010
,  // measure 57
00010000
00000000
00000000
00000010
00000100
00000001
00000100
00000000
00000001
00000010
00000001
00000000
00001000
00000100
00001000
00000000
,  // measure 58
00000100
00000000
00000000
00000000
00010000
00001000
00010000
00001000
00010000
00000000
00001000
00000000
00100000
00010000
00100000
00000000
,  // measure 59
00010000
01000000
00100000
10000000
01000000
00100000
00001000
00010000
00000100
00010000
00000010
00000100
,  // measure 60
00000001
00000010
00001000
00010000
00100000
10000000
00100000
00010000
00001000
00000010
00000001
00000100
,  // measure 61
00000010
00000000
00000100
00000000
00000001
00001000
00000100
00001000
00000001
00000000
00001000
00000000
00000100
00000000
00001100
00000000
,  // measure 62
00021000
00000000
00000000
00000000
00000100
00000000
00000000
00000000
00001000
00000000
00000000
00000000
00030100
00000000
00010000
00001000
,  // measure 63
00010000
00000000
00001000
00000000
01000000
00000000
00100000
10000000
00100000
00000000
01000000
00010000
01000000
00010000
00100000
00001000
,  // measure 64
00100000
00000000
00001000
00000000
00010000
00000000
00000010
00000000
00000100
00000010
00000100
00000000
00000001
00001000
00000001
00001000
,  // measure 65
00000001
00000000
00000010
00000100
00010000
00000000
00000100
00000000
00010000
00001000
00010000
00000000
00001000
00100000
00001000
00100000
,  // measure 66
00010000
00000000
01000000
00000000
00100000
10000000
00010000
00000000
00100000
00010000
10000000
00000000
00010000
00100000
01000000
00100000
,  // measure 67
00001000
00000000
00010000
00000000
00000100
00010000
00000100
00010000
00000010
00000000
00000100
00000000
00000001
00001000
00000100
00000000
,  // measure 68
00001000
00000010
00000000
00001000
00000100
00000000
00010000
00001000
00000000
00001000
00100000
00000000
00010000
01000000
00010000
00000000
,  // measure 69
00100000
00000000
00000000
10000000
00000000
00000000
00000000
00000000
00000000
01000000
00000000
00000000
00000000
00000000
00000000
00010000
00000000
00000000
00000000
00000000
00000000
00001000
00000000
00000000
00000000
00000000
00000000
00000000
00000000
00000000
00000000
00000000
00000010
00000000
00000000
00000000
00000100
00000000
00000000
00000000
00001000
00000000
00000000
00000000
00000100
00000000
00000000
00000000
,  // measure 70
00001000
00000010
00000100
00000001
00000000
00000000
00000001
00000010
00000100
00010000
00000000
00000000
,  // measure 71
00000100
00010000
00001000
00100000
00000000
00000000
00010000
01000000
00100000
10000000
00000000
00000000
,  // measure 72
00100000
01000000
00100000
01000000
00001000
01000000
00001000
00100000
00001000
00010000
00000000
00000000
,  // measure 73
00010010
00000110
00010100
00011000
,  // measure 74
00101000
00000000
00001000
00000000
00100000
00001000
00100000
00001000
01000000
00000000
01100000
00000000
00100000
10000000
00100000
10000000
,  // measure 75
00010000
00000000
01010000
00000000
01000000
00001000
01000000
00001000
00100000
00000000
00101000
00000000
00001000
00010000
00001000
00010000
,  // measure 76
00000010
00001000
00000001
00001000
00000020
00000000
00001030
00000000
,  // measure 77
00000001
00000010
00000100
00001000
00000200
00000000
00010300
00000000
,  // measure 78
00001000
00100000
00010000
01000000
00200000
00000000
01300000
00000000
,  // measure 79
10000000
00100000
01000000
00001000
00020000
00000000
00031000
00000000
,  // measure 80
02000000
00001000
00100000
03010000
,  // measure 81
00000200
00000000
00000000
00000000
00001000
00000000
00000000
00000000
00000301
00000000
00000000
00000000
00000100
00000010
00000100
00000010
,  // measure 82
00001000
00000000
00000000
00000000
00000001
00000010
00000100
00010000
00000100
00000000
00000000
00000000
00010000
00001000
00100000
00001000
,  // measure 83
00100000
00000000
00000000
00000000
00001000
01000000
00100000
10000000
00010000
00000000
00000000
00000000
10000000
00100000
10000000
00100000
,  // measure 84
01000000
00000000
00000000
00000000
00100000
10000000
00010000
10000000
00100000
00000000
00000000
00000000
01000000
00001000
00100000
00001000
,  // measure 85
00010000
00000000
00000000
00000000
00000000
00000000
00000000
00000000
00000000
00000000
00000000
00000000
00000010
00000000
00000000
00010000
00000000
00000000
00000100
00000000
00000000
00010000
00000000
00000000
00000010
00000000
00000000
00000000
00000100
00000000
00000000
00000000
00000010
00000000
00000000
00000000
00001000
00000000
00000000
00000000
00000100
00000000
00000000
00000000
00001000
00000000
00000000
00000000
,  // measure 86
00000001
00000010
00000100
00010000
00000100
00001000
00000100
00010000
00001000
00100000
00010000
01000000
,  // measure 87
00010000
00000000
00000000
00000000
00100000
00000000
00000000
00000000
10000000
00000000
00000000
00000000
00100000
00000000
00000000
00000000
00010000
00000000
00000000
00000000
00001000
00000000
00000000
00000000
00000010
00000000
00000000
00000000
00000001
00000000
00000000
00000000
00000010
00000000
00000000
00000000
00000100
00000000
00000000
00000010
00000000
00000000
00000100
00000000
00000000
00000010
00000000
00000000
,  // measure 88
00010000
00020200
00000000
00000000
,  // measure 89
00000000
00000000
00000000
00000000
,  // measure 90
00030300
00000000
00000100
00000000
,  // measure 91
00000000
00000000
00000100
00000000
,  // measure 92
00000000
00000000
00000000
00000000
00000000
00010000
00000000
00000000
00000000
00000000
00020020
00000000
00000000
00000000
00000000
00000000
,  // measure 93
00000000
00000000
00000000
00000000
,  // measure 94
00030030
00000000
00000000
00000000
00000000
00000010
00000000
00000000
,  // measure 95
00000000
00000000
00000100
00000000
00001000
00000000
00010000
00000000
00000000
00002000
00000000
00000000
,  // measure 96
00000000
00000000
00000000
00000000
00000000
00003020
00000000
00000000
00000000
00000000
00001030
00000000
,  // measure 97
00000000
00011000
00000000
00000000
;

//---------------dance-double - ----------------
#NOTES:
     dance-double:
     :
     Challenge:
     18:
     0.898,1.000,0.244,0.305,1.000: // measure 1
00000000
00000000
00000000
00000000
,  // measure 2
00000000
00000000
00000000
00000000
,  // measure 3
00000000
00000000
00000000
00000000
,  // measure 4
00000000
00000000
00000000
00000000
,  // measure 5
00000000
00000000
00200000
00000000
,  // measure 6
00000000
00000000
20300000
00000000
,  // measure 7
00000000
30010000
00020000
00000000
,  // measure 8
00000000
00000000
00030000
00000000
,  // measure 9
00000000
00000000
00000000
00200000
00000000
00000000
00000000
00000000
00000000
00000000
00301000
00010000
,  // measure 10
00000010
00001000
00000010
00000200
00000000
00000000
00000000
00000000
00000000
00000301
00000010
00001000
,  // measure 11
00000010
00000100
00010000
00001000
00100000
00010000
02000000
00000000
00000000
00000000
00000000
00000000
,  // measure 12
00000000
03200000
00000000
00000000
00300000
00000000
00000000
00000000
20020000
00000000
00000000
00000000
,  // measure 13
00000000
00000000
00000000
30030000
,  // measure 14
22000000
00000000
00000000
00000000
33000000
00000000
00000000
00000000
00010000
00000000
00100000
00001000
00010000
00000000
00001000
00010000
,  // measure 15
00000010
00000000
00000100
00000010
00001000
00000000
00000010
00000000
00000100
00000000
00000001
00000010
00000100
00000000
00000010
00000001
,  // measure 16
00001000
00000000
00000010
00001000
00000100
00000000
00010000
00000000
00001000
00000000
00100000
00001000
00010000
00000000
00001000
01000000
,  // measure 17
00100000
00000000
01000000
00010000
10000000
00000000
00100000
00000000
01000000
00000000
00100000
10000000
00010000
00000000
00100000
00010000
,  // measure 18
01000000
00000000
00010000
00100000
00001000
00000000
00010000
00000000
00000010
00000000
00000100
00000010
00001000
00000000
00000010
00001000
,  // measure 19
00000001
00000000
00000010
00000000
00000100
00000000
00000010
00000000
00000001
00000000
00000100
00000001
00001000
00000000
00000001
00001000
,  // measure 20
00000100
00000000
00001000
00000100
00010000
00000000
00001000
00000000
00011000
00000000
00001000
01000000
00100000
00000000
01000000
00000000
,  // measure 21
01010000
00000000
00010000
10000000
01000000
00000000
10000000
00100000
01000000
00010000
01000000
00010000
00100000
00001000
00100000
00001000
,  // measure 22
00010000
00000000
00000000
00000000
00000000
00000000
00000000
00000000
00000000
00000000
00000000
00000000
00000000
00000000
00000000
00000000
00000010
00000000
00000000
00000000
00000000
00000000
00000000
00000000
00000000
00000000
00000000
00000000
00000000
00000000
00000000
00000000
00000100
00000000
00000000
00000000
00000000
00000000
00000000
00000000
00000000
00000000
00000000
00000000
00000000
00000000
00000000
00000000
00000001
00000000
00000000
00000000
00000000
00000000
00000000
00000000
00000000
00000000
00000000
00000000
00000000
00000000
00000000
00000000
00001000
00000000
00000000
00000000
00000000
00000000
00000000
00000000
00000000
00000000
00000000
00000000
00000000
00000000
00000000
00000000
00000001
00000000
00000000
00000000
00000000
00000000
00000000
00000000
00000000
00000000
00000000
00000000
00000000
00000000
00000000
00000000
00000010
00000000
00000000
00000000
00000000
00000000
00000000
00000000
00000000
00000000
00000000
00000000
00000000
00000000
00000000
00000000
00000000
00000000
00000000
00000000
00000000
00000000
00000000
00000000
00000001
00000000
00000000
00000000
00000000
00000000
00001000
00000000
00000000
00000000
00000000
00000000
00000000
00000000
00000000
00000000
00000000
00000000
00000000
00000000
00000000
00000000
00000000
00000000
00000000
00000000
00000000
00000000
00000000
00000000
00000000
00000000
00000000
00000000
00000000
00000000
00000000
00000000
00000000
00000000
00000000
00000000
00000000
00000000
00000000
00000000
00000000
00000000
00000220
00000000
00000000
00000000
00000000
00000000
00000000
00000000
00000000
00000000
00000000
00000000
00000000
00000000
00000000
00000000
00000000
00000000
00000000
00000000
00000000
00000000
00000000
00000000
,  // measure 23
00000000
00000000
00000000
00000000
,  // measure 24
00000330
00000000
00000000
00000000
,  // measure 25
00000000
00000000
00000010
00010000
00000200
00000000
00010300
00000000
,  // measure 26
00002000
00103000
00020000
01030000
,  // measure 27
00200000
10300000
02000000
03010000
,  // measure 28
00000100
00010100
00000020
00000130
,  // measure 29
00000010
00000000
00001010
00000000
00000001
00000010
00001000
00000010
,  // measure 30
00000001
00000100
00001000
00010000
00001000
00100000
00010000
00100000
,  // measure 31
00010000
00000000
00000000
01000000
00000000
00000000
10000000
00000000
00000000
01000000
00000000
00000000
00002000
00000000
00000000
00000000
00000000
00000000
00103000
00000000
00001000
00000000
00010000
00000000
,  // measure 32
00001000
01000000
00200000
00000000
01300000
00001000
00020000
00000000
,  // measure 33
00030010
00001000
00000001
00001000
00000001
00000010
00000100
00001000
,  // measure 34
00000100
00000100
00000010
00000010
00000001
00000100
00000010
00010000
,  // measure 35
00001000
00001000
00100000
00100000
00010000
01000000
00100000
10000000
,  // measure 36
01000000
01000000
00100000
00100000
00001000
00100000
00001000
01000000
,  // measure 37
00001000
00100000
00002000
00000000
00013000
00000010
00000100
00000001
,  // measure 38
00000010
00000010
00000001
00000001
00000200
00000000
00000320
00000000
,  // measure 39
00020030
00000000
00032000
00000000
00103000
00010000
01000000
00100000
,  // measure 40
10000000
10000000
00100000
00100000
01000000
00010000
10000000
00010000
,  // measure 41
02000000
00000000
00000000
03001000
00000000
00000000
10000000
01000000
00010000
01000000
10000000
00010000
,  // measure 42
01000000
00001000
00010000
00001000
00000010
00000001
00000100
00000010
00000100
00000001
00000010
00001000
,  // measure 43
00000100
00001000
00010000
00001000
00000100
00001000
00010000
00001000
00100000
00010000
01000000
00100000
,  // measure 44
10000000
01000000
00100000
00010000
01000000
00100000
01000000
00010000
00001000
00010000
01000000
00010000
,  // measure 45
00001000
00000100
00000010
00001000
00000001
00000010
00000100
00001000
00000001
00001000
00000001
00000010
,  // measure 46
00000100
00010000
00000100
00010000
00001000
00100000
00010000
01000000
00100000
10000000
01000000
00010000
,  // measure 47
01000000
00000000
00000000
00000000
10000000
00000000
00000000
00000000
00100000
00000000
00000000
00000000
01000000
00000000
00000000
00001000
00000000
00000000
00010000
00000000
00000000
00001000
00000000
00000000
00010000
00000000
00000000
00000000
00000100
00000000
00000000
00000000
00000001
00000000
00000000
00000000
00000100
00000000
00000000
00000000
00001000
00000000
00000000
00000000
00010000
00000000
00000000
00000000
,  // measure 48
01000000
10000000
01000000
00010000
00000100
00000001
00000100
00000000
00000000
00000110
00000000
00000000
,  // measure 49
00001010
00000000
00010100
00000000
00021000
00000000
00031000
00100000
,  // measure 50
00001000
01000000
00000000
00100000
10000000
00000000
00010000
00000000
10000000
01000000
00000000
00100000
00001000
00000000
00010000
00000000
,  // measure 51
00001000
00000000
00000000
00000000
00000000
00000000
00000000
00000000
00000000
00000000
00000000
00000000
00000000
00000000
00000000
00000000
00010000
00000000
00000000
00000000
00000000
00000000
00000000
00000000
00000000
00000000
00000000
00000000
00000000
00000000
00000000
00000000
01000000
00000000
00000000
00000000
00000000
00000000
00000000
00000000
00000000
00000000
00000000
00000000
00000000
00000000
00000000
00000000
00010000
00000000
00000000
00000000
00000000
00000000
00000000
00000000
00000000
00000000
00000000
00000000
00000000
00000000
00000000
00000000
00001000
00000000
00000000
00000000
00000000
00000000
00000000
00000000
00000000
00000000
00000000
00000000
00000000
00000000
00000000
00000000
00000100
00000000
00000000
00000000
00000000
00000000
00000000
00000000
00000000
00000000
00000000
00000000
00000000
00000000
00000000
00000000
00001000
00000000
00000000
00000000
00000000
00000000
00020000
00000000
00000000
00000000
00000000
00000000
00000000
00000000
00000000
00000000
00000000
00000000
00000000
00000000
00000000
00000000
00000000
00000000
00000000
00000000
00000000
00000000
00000000
00000000
00000000
00000000
00000000
00000000
00000000
00000000
00000000
00000000
00000000
00000000
00000000
00000000
00000000
00000000
00000000
00000000
00000000
00000000
00000000
00000000
00000000
00000000
00000000
00000000
00000000
00000000
00000000
00000000
00000000
00000000
00000000
00000000
00000000
00000000
00000000
00000000
00000000
00000000
00000000
00000000
00000000
00000000
00000000
00000000
00000000
00000000
00000000
00000000
00000000
00000000
00000000
00000000
00000000
00000000
00000000
00000000
00000000
00000000
00000000
00000000
00000000
00000000
00000000
00000000
00000000
00000000
,  // measure 52
00031000
00000000
00000000
00000000
00000000
00000000
00100000
00000000
00000000
00000000
00000000
00000000
10000000
00000000
00000000
00000000
00100000
00000000
00000000
00000000
00010000
00000000
00000000
00000000
10000000
00000000
00000000
00000000
01000000
00000000
00000000
00000000
00010000
00000000
00000000
00000000
01000000
00000000
00000000
10000000
00000000
00000000
00010000
00000000
00000000
10000000
00000000
00000000
,  // measure 53
00100000
00000000
01000000
00010000
00100000
00000000
00010000
00100000
00001000
00000000
00010000
00000100
00001000
00000000
00000010
00000100
,  // measure 54
00000001
00000000
00000010
00000000
00000011
00000000
00000001
00000010
00000001
00001000
00000001
00001000
00000010
00010000
00000010
00010000
,  // measure 55
00000100
00000000
00010000
00000100
00001000
00000000
00000100
00010000
00001000
00010000
00001000
00010000
00001000
00100000
00010000
01000000
,  // measure 56
00100000
00000000
10000000
00000000
00010000
00100000
01000000
10000000
00010000
00000000
01000000
00000000
00010000
00100000
00001000
00010000
,  // measure 57
00001000
00000000
00010000
00000000
00000010
00000100
00000001
00000000
00000010
00000100
00010000
00000000
00000100
00010000
00001000
00010000
,  // measure 58
00000100
00000000
00010000
00000000
00001000
00100000
00010000
01000000
00100000
00000000
10000000
00000000
00100000
10000000
00010000
00000000
,  // measure 59
10000000
01000000
10000000
01000000
10000000
01000000
10000000
01000000
00010000
01000000
00010000
01000000
00010000
01000000
00010000
01000000
,  // measure 60
00100000
00001000
00100000
00001000
00100000
00001000
00100000
00001000
00010000
00001000
00010000
00001000
00010000
00001000
00010000
00001000
,  // measure 61
00010000
00000010
00000100
00000001
00001000
00000001
00000010
00000100
00001000
00000000
00001100
00000000
00000110
00000000
00000011
00000000
,  // measure 62
00001001
00000000
00000001
00001000
00000100
00000000
00010000
00000100
00001000
00000000
00000100
00010000
00001000
00000000
00100000
00001000
,  // measure 63
00010000
00000000
00001000
00000000
01001000
00000000
00100000
01000000
00010000
01000000
00100000
00000000
10000000
01000000
00100000
00010000
,  // measure 64
10000000
00000000
00010000
01000000
00001000
00000000
00100000
00001000
00010000
00000000
00001000
00010000
00000010
00010000
00000010
00010000
,  // measure 65
00000010
00000000
00000100
00000001
00001000
00000000
00000001
00000010
00000100
00000000
00000010
00000001
00000010
00000001
00001000
00000001
,  // measure 66
00001000
00000000
00000010
00010000
00001000
00000000
00000100
00010000
00001000
00000000
00100000
00001000
01000000
00001000
01000000
00100000
,  // measure 67
01000000
00000000
00100000
10000000
00010000
01000000
00100000
10000000
00010000
00000000
10000000
00000000
00010000
00100000
01000000
00000000
,  // measure 68
00100000
00001000
00000000
00001000
01000000
00000000
00001000
00000000
00100000
00001000
00000000
00001000
00010000
00000000
00001000
00000000
,  // measure 69
00010000
00000000
00000000
00000010
00000000
00000000
00000000
00000000
00000000
00000110
00000000
00000000
00000000
00000000
00000000
00010100
00000000
00000000
00000000
00000000
00000000
00011000
00000000
00000000
00000000
00000000
00000000
00001000
00000000
00000000
00100000
00000000
00000000
00000000
00000000
00000000
00010000
00000000
00000000
00000000
01000000
00000000
00000000
00000000
00100000
00000000
00000000
00000000
,  // measure 70
10000000
01000000
00010000
01000000
00001000
00010000
00001000
00000100
00000001
00000100
00010000
00001000
,  // measure 71
00010000
00100000
10000000
00100000
00001000
00010000
00001000
00000010
00000001
00000010
00010000
00001000
,  // measure 72
00010000
00000100
00001000
00010000
00001000
00000100
00001000
00010000
00001000
00000100
00010000
00001000
,  // measure 73
00100000
00000000
00000000
00000000
00010000
00000000
00000000
00000000
01000000
00000000
00000000
00000000
00001000
00000000
00000000
00000000
00100000
00000000
00000000
00000000
00010000
00000000
00000000
00000000
01000000
00000000
00000000
00000000
00001000
00000000
00000000
00000000
00100000
00000000
00000000
00000000
00001000
00000000
00000000
00010000
00000000
00000000
00001000
00000000
00000000
00010000
00000000
00000000
,  // measure 74
00001000
00000000
00101000
00000000
00001000
01000000
00100000
10000000
00010000
00000000
10010000
00000000
10000000
01000000
00100000
00001000
,  // measure 75
00010000
00000000
00011000
00000000
00010000
00000010
00000100
00000001
00001000
00000000
00001001
00000000
00000001
00000010
00000100
00010000
,  // measure 76
00001000
00100000
00010000
01000000
00100000
10000000
02000000
00000000
,  // measure 77
13000000
00100000
01000000
00001000
00100000
00001000
00020000
00000000
,  // measure 78
00030010
00001000
00000001
00000100
00000010
00010000
00000200
00000000
,  // measure 79
00010300
00010000
00001000
00001000
00100000
00100000
00010000
01000000
,  // measure 80
10000000
01000000
00010000
00100000
,  // measure 81
00002000
00000000
00000000
00000000
01000000
00000000
00000000
00000000
00013000
00000000
00000000
00000000
00010000
00001000
00000100
00001000
,  // measure 82
00010000
00000000
00000000
00000000
00001000
00010000
01000000
00010000
00001000
00000000
00000000
00000000
00100000
00010000
00001000
00010000
,  // measure 83
00100000
00000000
00000000
00000000
00010000
00001000
00000010
00001000
00010000
00000000
00000000
00000000
00000010
00000100
00000001
00000100
,  // measure 84
00000010
00000000
00001000
00000000
00000001
00000010
00001000
00000010
00000001
00000000
00000000
00000000
00000100
00000010
00010000
00000100
,  // measure 85
00010000
00000000
00000000
00000000
00000000
00000000
00001000
00000000
00000000
00000000
00000000
00000000
00010000
00000000
00000000
01000000
00000000
00000000
10000000
00000000
00000000
01000000
00000000
00000000
00010000
00000000
00000000
00000000
10000000
00000000
00000000
00000000
01000000
00000000
00000000
00000000
10000000
00000000
00000000
00000000
00010000
00000000
00000000
00000000
01000000
00000000
00000000
00000000
,  // measure 86
10000000
00100000
00100000
00001000
00100000
00100000
00010000
00000010
00000010
00000001
00000010
00000010
,  // measure 87
00000001
00000000
00000000
00000000
00000100
00000000
00000000
00000000
00001000
00000000
00000000
00000000
00010000
00000000
00000000
00000000
01000000
00000000
00000000
00000000
10000000
00000000
00000000
00000000
01000000
00000000
00000000
00000000
00010000
00000000
00000000
00000000
00001000
00000000
00000000
00000000
00000100
00000000
00000000
00000001
00000000
00000000
00000010
00000000
00000000
00000100
00000000
00000000
,  // measure 88
00010000
00020200
00000000
00000000
,  // measure 89
00000000
00000000
00000000
00000000
,  // measure 90
00030300
00000000
00000110
00000000
,  // measure 91
00000000
00000000
00011000
00000000
,  // measure 92
00000000
00000000
00000000
00000000
00000000
00101000
00000000
00000000
00000000
00000000
02002000
00000000
00000000
00000000
00000000
00000000
,  // measure 93
00000000
00000000
00000000
00000000
,  // measure 94
03003000
00000000
00000000
00000000
00000000
01100000
00000000
00000000
,  // measure 95
00000000
00000000
01000000
00000000
00100000
00000000
00001000
00000000
00000000
00201000
00000000
00000000
,  // measure 96
00000000
00000000
00000000
00000000
00000000
00302000
00000000
00000000
00000000
00000000
00013000
00000000
,  // measure 97
00000000
01000100
00000000
00000000
;
