#TITLE:O La La;
#SUBTITLE:;
#ARTIST:Sinan Ceceli feat. Ece Seçkin;
#TITLETRANSLIT:;
#SUBTITLETRANSLIT:;
#ARTISTTRANSLIT:Sinan Ceceli feat. Ece Seckin;
#GENRE:;
#CREDIT:;
#MENUCOLOR:;
#METERTYPE:DDR;
#BANNER:O La La.png;
#BACKGROUND:O La La-bg.png;
#LYRICSPATH:;
#CDTITLE:./CDTITLES/NONE.PNG;
#MUSIC:O La La.ogg;
#OFFSET:0.000;
#SAMPLESTART:92.160;
#SAMPLELENGTH:15.000;
#SELECTABLE:YES;
#LISTSORT:;
#BPMS:0.000=125.000;
#STOPS:;
#BGCHANGES:0.000=O La La.avi=1.000=0=0=0,
99999=-nosongbg-=1.000=0=0=0 // don't automatically add -songbackground-
;
#ATTACKS:;

//---------------dance-single - ----------------
#NOTES:
     dance-single:
     :
     Beginner:
     1:
     0.078,0.099,0.000,0.000,0.000:
0000
0000
0000
0000
,
0000
0000
0000
0000
,
0000
0000
0000
0000
,
0000
0000
0000
0000
,
0000
0000
0000
0000
,
0001
0000
0000
0000
,
1000
0000
0000
0000
,
0010
0000
0000
0000
,
0100
0000
0100
0000
,
0010
0000
0000
0000
,
1000
0000
0000
0000
,
0001
0000
0000
0000
,
0010
0000
0010
0000
,
0100
0000
0000
0000
,
0010
0000
0000
0000
,
0001
0000
0000
0000
,
1000
0000
0001
0000
,
1000
0000
0000
0000
,
0010
0000
0000
0000
,
0100
0000
0000
0000
,
0001
0000
0000
0000
,
1000
0000
0000
0000
,
0001
0000
0000
0000
,
1000
0000
0000
0000
,
0010
0000
0000
0000
,
0100
0000
0000
0000
,
0010
0000
0000
0000
,
1000
0000
0000
0000
,
0001
0000
1000
0000
,
0001
0000
0000
0000
,
1000
0000
1000
0000
,
1000
0000
0000
0000
,
0001
0000
0001
0000
,
0001
0000
0000
0000
,
0100
0000
0100
0000
,
0100
0000
0000
0000
,
0010
0000
0010
0000
,
0010
0000
0000
0000
,
1000
0000
0000
0000
,
0001
0000
0000
0000
,
0010
0000
0000
0000
,
0100
0000
0000
0000
,
1000
0000
0000
0000
,
0001
0000
0000
0000
,
0100
0000
0000
0000
,
0010
0000
0000
0000
,
1000
0000
0000
0000
,
0001
0000
0000
0000
,
1000
0000
0001
0000
,
1000
0000
0000
0000
,
0010
0000
0100
0000
,
0010
0000
0000
0000
,
0100
0000
0001
0000
,
1000
0000
0000
0000
,
0001
0000
0010
0000
,
0100
0000
0000
0000
,
0010
0000
0000
0000
,
0000
0000
0000
0000
,
0001
0000
0000
0000
,
0000
0000
0000
0000
,
0100
0000
0000
0000
,
1000
0000
0000
0000
,
0001
0000
0000
0000
,
1000
0000
0000
0000
;

//---------------dance-single - ----------------
#NOTES:
     dance-single:
     :
     Easy:
     5:
     0.209,0.226,0.039,0.174,0.000:
0000
0000
0000
0000
,
0000
0000
0000
0000
,
0000
0000
0000
0000
,
0000
0000
0000
0000
,
0000
0000
0000
0000
,
0020
0000
0000
0130
,
0200
0000
0000
0301
,
0002
0000
0000
1003
,
2000
3000
0002
0003
,
2000
0000
0000
3100
,
0200
0000
0000
0310
,
0020
0000
0000
0031
,
0002
0003
2000
3000
,
0001
0100
0001
0000
,
1000
0100
1000
0000
,
0001
1000
0010
0000
,
0100
0000
0010
0000
,
1000
0100
0010
0000
,
0001
0100
0010
0000
,
1000
0001
0100
0000
,
0001
1000
0010
0000
,
2000
0001
0000
3001
,
1001
0000
0010
0010
,
0100
0000
0001
0001
,
1000
0000
0100
0100
,
0020
0000
0001
0031
,
1000
0000
0001
0001
,
0100
0000
0010
0010
,
1000
0000
0001
1000
,
0002
0000
0000
0003
,
1001
0000
0100
0100
,
0010
0000
1000
1000
,
0100
0000
0010
0010
,
0001
0000
1000
0001
,
1000
0000
0010
0010
,
0100
0000
0001
0001
,
0010
0000
0001
0001
,
1000
0100
0010
0001
,
2000
0000
0000
3000
,
0002
0000
0000
0003
,
0200
0000
0000
0300
,
0020
0000
0000
0030
,
2000
0000
0000
3000
,
0001
0001
0001
0000
,
1000
1000
1000
0000
,
0010
0010
0010
0000
,
0100
0010
0100
0000
,
0010
0010
0010
0010
,
1001
0000
1000
0001
,
1000
0000
0010
0100
,
0010
0000
1000
0100
,
2000
0000
0001
3010
,
0001
0000
0010
0001
,
0100
0000
0010
1000
,
0001
0000
0100
0010
,
0200
0000
0001
0301
,
0101
0000
0010
1000
,
0100
0000
0010
0001
,
1000
0000
0100
1000
,
0020
0000
0100
0130
,
1010
0000
1000
0100
,
0010
0000
0001
0100
,
1000
0000
0100
0001
,
0020
0000
0100
0130
;

//---------------dance-single - ----------------
#NOTES:
     dance-single:
     :
     Medium:
     8:
     0.345,0.377,0.047,0.158,0.178: // measure 1
0000
0000
0000
0000
,  // measure 2
0000
0000
0000
0000
,  // measure 3
0000
0000
0000
0000
,  // measure 4
0000
0000
0000
0000
,  // measure 5
0000
0000
0000
0000
,  // measure 6
1000
0000
0001
1000
0000
0001
0100
0000
,  // measure 7
0001
0000
1000
0001
0000
1000
0100
0000
,  // measure 8
1000
0000
0010
0100
0000
0010
1000
0000
,  // measure 9
0001
0010
0100
1000
,  // measure 10
0001
0000
0100
0001
0000
1000
0100
0000
,  // measure 11
0010
0000
0100
1000
0000
0001
0100
0000
,  // measure 12
0010
0000
0100
0001
0000
1000
0100
0000
,  // measure 13
1000
0010
0100
0001
,  // measure 14
1000
0000
0000
0001
0000
0000
1000
0000
1000
0100
0000
0000
,  // measure 15
1000
0000
0000
0001
0000
0000
1000
0000
1000
0010
0000
0000
,  // measure 16
0001
0000
0000
1000
0000
0000
0001
0000
0001
0100
0000
0000
,  // measure 17
0010
0000
1000
0000
0001
0000
0200
0000
0000
0301
0000
0000
,  // measure 18
0010
0000
0000
0001
0000
0000
0010
0000
0010
0001
0000
0000
,  // measure 19
1000
0000
0000
0010
0000
0000
1000
0000
1000
0010
0000
0000
,  // measure 20
0001
0000
0000
0100
0000
0000
0001
0000
0001
1000
0000
0000
,  // measure 21
0010
0000
1000
0000
0001
0000
1000
0000
0100
0000
0010
0000
,  // measure 22
0002
0100
1000
0013
,  // measure 23
0002
0000
0000
0013
0000
0000
0001
0000
0001
1000
0000
0000
,  // measure 24
0020
0000
0000
1030
0000
0000
0010
0000
0010
1000
0000
0000
,  // measure 25
0200
0000
0000
1300
0000
0000
0100
0000
0100
0010
0000
0000
,  // measure 26
0100
0000
0000
1000
0000
0000
0001
0000
0001
1000
0000
0000
,  // measure 27
0020
0000
0000
0130
0000
0000
0010
0000
0010
1000
0000
0000
,  // measure 28
0002
0000
0000
0013
0000
0000
0001
0000
0001
1000
0000
0000
,  // measure 29
0100
0000
0000
0010
0000
0000
0100
0000
0100
1000
0000
0000
,  // measure 30
0020
0000
0200
0330
,  // measure 31
0010
0000
0000
1000
0000
0000
0001
0000
0001
1000
0000
0000
,  // measure 32
0100
0000
0000
0010
0000
0000
0100
0000
0100
1000
0000
0000
,  // measure 33
0001
0000
0000
0010
0000
0000
0001
0000
0001
1000
0000
0000
,  // measure 34
0100
0000
0100
1000
0000
0000
0001
0000
0001
0100
0000
0000
,  // measure 35
0010
0000
0000
1000
0000
0000
0001
0000
0001
0010
0000
0000
,  // measure 36
1000
0000
0000
0100
0000
0000
1000
0000
1000
0010
0000
0000
,  // measure 37
0001
0100
1000
0010
,  // measure 38
0002
0000
2000
3003
,  // measure 39
0020
0000
0000
0030
,  // measure 40
2000
0000
0100
3000
,  // measure 41
0002
0000
0100
0003
,  // measure 42
2000
0000
0010
3000
,  // measure 43
0002
0000
0010
0003
,  // measure 44
0200
0010
0000
1300
,  // measure 45
0020
0100
0000
0031
,  // measure 46
1000
0100
0010
0001
,  // measure 47
1000
1000
1000
0000
0001
0001
0001
0000
,  // measure 48
0100
0010
0100
0010
1000
0001
2000
0000
,  // measure 49
3001
0000
0000
0011
0000
0000
0001
0000
0100
0001
0000
0000
,  // measure 50
1000
0000
0000
0010
0000
0000
1000
0000
0100
1000
0000
0000
,  // measure 51
0010
0000
0000
0100
0000
0000
0010
0000
1000
0001
0000
0000
,  // measure 52
1000
0000
1000
0100
0000
0000
0010
0000
0010
0001
0000
0000
,  // measure 53
1000
0000
0000
0001
0000
0000
0100
0000
0001
0100
0000
0000
,  // measure 54
0001
0000
0000
1000
0000
0000
0100
0000
1000
0100
0000
0000
,  // measure 55
0010
0001
1000
0000
0010
1000
0001
0000
,  // measure 56
1000
0100
0010
0100
1000
0100
0001
0000
,  // measure 57
0100
0000
0000
1100
0000
0000
0100
1000
0100
1000
0000
0000
,  // measure 58
0010
0000
0000
1010
0000
0000
0010
1000
0010
1000
0000
0000
,  // measure 59
0001
0000
0000
1001
0000
0000
0001
1000
0001
1000
0000
0000
,  // measure 60
0100
0000
0100
0010
0000
0000
0001
0000
0001
0100
0000
0000
,  // measure 61
0001
0000
0000
1100
0000
0000
1000
0100
0010
0001
0000
0000
,  // measure 62
1000
0000
0000
0101
0000
0000
0001
0100
0010
1000
0000
0000
,  // measure 63
0010
0100
0001
0000
0100
0010
1000
0000
,  // measure 64
0002
0000
0013
0000
1000
0001
0100
0000
;

//---------------dance-single - ----------------
#NOTES:
     dance-single:
     :
     Hard:
     12:
     0.530,0.579,0.268,0.110,0.473: // measure 1
0000
0000
0000
0000
,  // measure 2
0000
0000
0000
0000
,  // measure 3
0000
0000
0000
0000
,  // measure 4
0000
0000
0000
0000
,  // measure 5
0000
0000
0000
0000
,  // measure 6
0001
0000
0100
0001
0010
0001
0100
0000
,  // measure 7
0010
0000
1000
0100
0010
0100
1000
0000
,  // measure 8
0001
0000
0010
0001
0100
0001
0010
0000
,  // measure 9
0002
1003
0020
0130
,  // measure 10
0010
0000
1000
0100
0010
0100
1000
0000
,  // measure 11
0001
0000
1000
0001
0010
0001
1000
0000
,  // measure 12
0010
0000
0100
0010
1000
0010
0100
0000
,  // measure 13
0020
1030
0002
0103
,  // measure 14
0001
0000
0000
0000
0000
0000
1001
0000
0000
0000
0000
0000
0001
0000
0000
0000
0001
0000
0010
0000
0000
0001
0000
0000
,  // measure 15
1000
0000
0000
0000
0000
0000
1001
0000
0000
0000
0000
0000
1000
0000
0000
0000
1000
0000
0100
0000
0000
1000
0000
0000
,  // measure 16
0010
0000
0000
0000
0000
0000
0110
0000
0000
0000
0000
0000
0010
0000
0000
0000
0010
0000
1000
0000
0000
0001
0000
0000
,  // measure 17
1000
0000
0000
0000
0001
0000
0100
0000
0000
0001
0000
0000
0010
0000
0000
0000
0001
0000
1000
0000
0000
0001
0000
0000
,  // measure 18
1000
0000
0000
0000
0000
0000
1001
0000
0000
0000
0000
0000
1000
0000
0000
0000
1000
0000
0010
0000
0000
1000
0000
0000
,  // measure 19
0100
0000
0000
0000
0000
0000
1100
0000
0000
0000
0000
0000
0001
0000
0000
0000
0001
0000
0010
0000
0000
0001
0000
0000
,  // measure 20
1000
0000
0000
0000
0000
0000
1010
0000
0000
0000
0000
0000
0001
0000
0000
0000
0001
0000
0100
0000
0000
0001
0000
0000
,  // measure 21
0010
0000
0000
0000
0001
0000
0010
0000
0000
0100
0000
0000
1000
0000
0000
0000
0010
0000
0100
0000
0000
0010
0000
0000
,  // measure 22
1000
1010
0001
0101
,  // measure 23
1100
0000
0000
0000
0000
0000
0000
0000
0000
1000
0000
0000
0100
0000
0000
0000
0000
0000
1000
0000
0000
0000
0000
0000
0001
0000
0000
0000
0010
0000
0000
0000
0001
0000
0000
0000
1000
0000
0000
0000
0010
0000
0000
0000
1000
0000
0000
0000
,  // measure 24
0010
0000
0000
0000
0000
0000
0000
0000
0000
0100
0000
0000
0001
0000
0000
0000
0000
0000
0100
0000
0000
0000
0000
0000
0010
0000
0000
0000
1000
0000
0000
0000
0010
0000
0000
0000
0100
0000
0000
0000
0001
0000
0000
0000
0100
0000
0000
0000
,  // measure 25
0001
0000
0000
0000
0000
0000
0000
0000
0000
0010
0000
0000
0001
0000
0000
0000
0000
0000
0010
0000
0000
0000
0000
0000
0001
0000
0000
0000
0010
0000
0000
0000
0001
0000
0000
0000
1000
0000
0000
0000
0010
0000
0000
0000
1000
0000
0000
0000
,  // measure 26
0001
0100
0101
0000
1000
0100
1100
0000
,  // measure 27
0010
0000
0000
0000
0000
0000
0000
0000
0000
0100
0000
0000
1000
0000
0000
0000
0000
0000
0100
0000
0000
0000
0000
0000
0010
0000
0000
0000
0001
0000
0000
0000
0010
0000
0000
0000
0001
0000
0000
0000
1000
0000
0000
0000
0001
0000
0000
0000
,  // measure 28
0100
0000
0000
0000
0000
0000
0000
0000
0000
0001
0000
0000
0100
0000
0000
0000
0000
0000
0010
0000
0000
0000
0000
0000
1000
0000
0000
0000
0010
0000
0000
0000
1000
0000
0000
0000
0001
0000
0000
0000
0010
0000
0000
0000
0001
0000
0000
0000
,  // measure 29
1000
0100
1100
0000
0001
0100
0101
0000
,  // measure 30
2000
0000
0002
3003
,  // measure 31
1100
0000
0000
0000
0000
0000
0000
0000
0000
1000
0000
0000
0100
0000
0000
0000
0000
0000
1000
0000
0000
0000
0000
0000
0001
0000
0000
0000
0010
0000
0000
0000
0100
0000
0000
0000
1000
0000
0000
0000
0100
0000
0000
0000
0010
0000
0000
0000
,  // measure 32
0001
0000
0000
0000
0000
0000
0000
0000
0000
0010
0000
0000
0001
0000
0000
0000
0000
0000
0100
0000
0000
0000
0000
0000
0010
0000
0000
0000
1000
0000
0000
0000
0001
0000
0000
0000
0100
0000
0000
0000
0001
0000
0000
0000
1000
0000
0000
0000
,  // measure 33
0010
0000
0000
0000
0000
0000
0000
0000
0000
0100
0000
0000
0010
0000
0000
0000
0000
0000
1000
0000
0000
0000
0000
0000
0100
0000
0000
0000
1000
0000
0000
0000
0001
0000
0000
0000
0010
0000
0000
0000
0001
0000
0000
0000
1000
0000
0000
0000
,  // measure 34
0001
0100
0101
0000
1000
0001
1001
0000
,  // measure 35
0101
0000
0000
0000
0000
0000
0000
0000
0000
0001
0000
0000
0100
0000
0000
0000
0000
0000
0001
0000
0000
0000
0000
0000
1000
0000
0000
0000
0100
0000
0000
0000
0010
0000
0000
0000
0001
0000
0000
0000
0010
0000
0000
0000
0100
0000
0000
0000
,  // measure 36
1000
0000
0000
0000
0000
0000
0000
0000
0000
0100
0000
0000
1000
0000
0000
0000
0000
0000
0010
0000
0000
0000
0000
0000
0100
0000
0000
0000
0001
0000
0000
0000
1000
0000
0000
0000
0010
0000
0000
0000
1000
0000
0000
0000
0001
0000
0000
0000
,  // measure 37
1000
0100
1100
0000
0001
0010
0011
0000
,  // measure 38
1000
0001
0110
0000
0001
1000
0011
0000
,  // measure 39
2002
0000
0000
3003
,  // measure 40
0020
0000
0000
1000
0000
0000
0130
0000
,  // measure 41
0002
0010
0000
0000
1000
0000
0103
0000
,  // measure 42
2000
0000
0000
0100
0000
0000
3010
0000
,  // measure 43
0200
0000
0000
0010
0000
0000
1300
0000
,  // measure 44
0010
0011
0001
0001
,  // measure 45
0100
0101
0100
0100
,  // measure 46
0010
1010
1000
1000
,  // measure 47
0001
0010
0010
0010
0100
1000
1000
1000
,  // measure 48
0010
0100
0010
0100
0010
1000
0010
1000
0001
1000
0001
1000
0002
0000
0000
0000
,  // measure 49
1003
0000
0000
0000
0000
0000
0000
0000
0000
0100
0000
0000
1000
0000
0000
0000
0000
0000
0001
0000
0000
0000
0000
0000
1000
0000
0000
0000
0100
0000
0000
0000
0010
0000
0000
0000
0100
0000
0000
0000
1000
0000
0000
0000
0001
0000
0000
0000
,  // measure 50
0100
0000
0000
0000
0000
0000
0000
0000
0000
0010
0000
0000
0100
0000
0000
0000
0000
0000
0001
0000
0000
0000
0000
0000
0100
0000
0000
0000
0001
0000
0000
0000
0010
0000
0000
0000
0001
0000
0000
0000
0100
0000
0000
0000
0001
0000
0000
0000
,  // measure 51
1000
0000
0000
0000
0000
0000
0000
0000
0000
0001
0000
0000
0010
0000
0000
0000
0000
0000
0100
0000
0000
0000
0000
0000
0010
0000
0000
0000
0001
0000
0000
0000
1000
0000
0000
0000
0001
0000
0000
0000
0010
0000
0000
0000
0001
0000
0000
0000
,  // measure 52
1000
0100
1100
0000
0001
0010
0011
0000
,  // measure 53
0001
0000
0000
0000
0000
0000
0000
0000
0000
0100
0000
0000
0001
0000
0000
0000
0000
0000
1000
0000
0000
0000
0000
0000
0001
0000
0000
0000
0010
0000
0000
0000
0100
0000
0000
0000
0010
0000
0000
0000
0001
0000
0000
0000
1000
0000
0000
0000
,  // measure 54
0010
0000
0000
0000
0000
0000
0000
0000
0000
0100
0000
0000
0010
0000
0000
0000
0000
0000
0100
0000
0000
0000
0000
0000
0010
0000
0000
0000
1000
0000
0000
0000
0001
0000
0000
0000
0100
0000
0000
0000
0001
0000
0000
0000
1000
0000
0000
0000
,  // measure 55
0010
0000
0000
1000
0100
0000
1000
0000
0001
0000
0000
0010
0001
0000
1000
0000
,  // measure 56
0001
0010
0110
0010
0001
1000
1001
0000
,  // measure 57
0101
0000
0000
0000
0000
0000
0000
0000
0000
0001
0000
0000
0100
0000
0000
0000
0000
0000
0001
0000
0000
0000
0000
0000
1000
0000
0000
0000
0010
0000
0000
0000
0001
0000
0000
0000
0010
0000
0000
0000
1000
0000
0000
0000
0001
0000
0000
0000
,  // measure 58
1000
0000
0000
0000
0000
0000
0000
0000
0000
0100
0000
0000
1000
0000
0000
0000
0000
0000
0010
0000
0000
0000
0000
0000
1000
0000
0000
0000
0100
0000
0000
0000
0001
0000
0000
0000
0100
0000
0000
0000
1000
0000
0000
0000
0001
0000
0000
0000
,  // measure 59
1000
0000
0000
0000
0000
0000
0000
0000
0000
0001
0000
0000
0100
0000
0000
0000
0000
0000
0001
0000
0000
0000
0000
0000
0010
0000
0000
0000
0001
0000
0000
0000
0100
0000
0000
0000
0001
0000
0000
0000
0010
0000
0000
0000
1000
0000
0000
0000
,  // measure 60
0010
0001
0011
0001
1000
0010
1010
0000
,  // measure 61
1100
0000
0000
0000
0000
0000
0000
0000
0000
0100
0000
0000
0010
0000
0000
0000
0000
0000
0100
0000
0000
0000
0000
0000
1000
0000
0000
0000
0100
0000
0000
0000
0001
0000
0000
0000
0100
0000
0000
0000
0010
0000
0000
0000
0001
0000
0000
0000
,  // measure 62
0100
0000
0000
0000
0000
0000
0000
0000
0000
0010
0000
0000
1000
0000
0000
0000
0000
0000
0001
0000
0000
0000
0000
0000
1000
0000
0000
0000
0010
0000
0000
0000
0001
0000
0000
0000
0010
0000
0000
0000
0100
0000
0000
0000
0001
0000
0000
0000
,  // measure 63
1000
0000
0100
1000
0100
0000
1000
0000
0001
0000
0100
0001
0100
0000
0001
0000
,  // measure 64
2000
0000
3010
0000
1000
0001
0110
0000
;

//---------------dance-single - ----------------
#NOTES:
     dance-single:
     :
     Challenge:
     15:
     0.719,0.755,0.829,0.103,0.702: // measure 1
0000
0000
0000
0000
,  // measure 2
0000
0000
0000
0000
,  // measure 3
0000
0000
0000
0000
,  // measure 4
0000
0000
0000
0000
,  // measure 5
0000
0000
0000
0000
,  // measure 6
0001
0010
0100
1000
0001
0100
1000
0100
,  // measure 7
0001
0010
0100
1000
0001
0010
1000
0010
,  // measure 8
0001
0100
0010
1000
0001
0100
1000
0100
,  // measure 9
0002
0010
1003
0100
2000
0010
3001
0100
,  // measure 10
1000
0100
0010
0001
1000
0010
0001
0010
,  // measure 11
1000
0100
0010
0001
1000
0100
0001
0100
,  // measure 12
1000
0010
0100
0001
1000
0010
0001
0010
,  // measure 13
2000
0100
3001
0010
0002
0100
1003
0010
,  // measure 14
0110
0000
0000
0000
0010
0000
1000
0000
0001
0000
0000
0000
1001
0000
0000
0000
0001
0000
0010
0000
0000
0100
0000
0000
,  // measure 15
1100
0000
0000
0000
0100
0000
0010
0000
0000
0001
0000
0000
0101
0000
0000
0000
0001
0000
1000
0000
0100
0000
0000
0000
,  // measure 16
1100
0000
1000
0010
0100
0000
0110
0000
0010
1000
0001
0000
,  // measure 17
0011
0000
0001
0010
0001
0000
1001
0000
0001
0100
0010
1000
,  // measure 18
0001
0000
0000
0000
1000
0000
0100
0000
1000
0000
0000
0000
0011
0000
0000
0000
1000
0000
0010
0000
0000
0100
0000
0000
,  // measure 19
1010
0000
0000
0000
0000
0000
0000
0000
0010
0000
0000
0000
1000
0000
0000
0000
0001
0000
0000
0000
0000
0000
0000
0000
0110
0000
0000
0000
0000
0000
0000
0000
0001
0000
0000
0000
1000
0000
0000
0000
0000
0000
0100
0000
0000
1000
0000
0000
,  // measure 20
0100
0000
0000
0000
0100
0000
1000
0000
0010
0000
0000
0000
0110
0000
0000
0000
0010
0000
0100
0000
0000
0001
0000
0000
,  // measure 21
0011
0000
1001
0000
0101
0000
1001
0000
1010
0000
1001
0000
,  // measure 22
1100
0000
0100
0010
0001
0000
1000
0010
0100
0001
1000
0001
0100
0001
1000
0000
,  // measure 23
0101
0000
0000
0000
0000
0000
0000
0000
0000
0001
0000
0000
0100
0000
0000
0000
0000
0000
0001
0000
0000
0000
0000
0000
1001
0000
0000
0000
0001
0000
0000
0000
0010
0000
0000
0000
0001
0000
0000
0000
0100
0000
0000
0000
0001
0000
0000
0000
,  // measure 24
1001
0000
0000
0000
0000
0000
0000
0000
0000
1000
0000
0000
0010
0000
0000
0000
0000
0000
1000
0000
0000
0000
0000
0000
1001
0000
0000
0000
1000
0000
0000
0000
0100
0000
0000
0000
1000
0000
0000
0000
0010
0000
0000
0000
1000
0000
0000
0000
,  // measure 25
1010
0000
0000
0000
0000
0000
0000
0000
0000
0010
0000
0000
0100
0000
0000
0000
0000
0000
0010
0000
0000
0000
0000
0000
1010
0000
0000
0000
0010
0000
0000
0000
1000
0000
0000
0000
0001
0000
0000
0000
0010
0000
0000
0000
0100
0000
0000
0000
,  // measure 26
0110
0000
0000
0001
0000
0000
0011
0000
0000
1000
0000
0000
1001
0000
0001
0000
0100
0000
0001
0000
0000
1000
0000
0000
,  // measure 27
1001
0000
0000
0000
0000
0000
0000
0000
0000
0001
0000
0000
0100
0000
0000
0000
0000
0000
0001
0000
0000
0000
0000
0000
1001
0000
0000
0000
1000
0000
0000
0000
0010
0000
0000
0000
0100
0000
0000
0000
0010
0000
0000
0000
1000
0000
0000
0000
,  // measure 28
1010
0000
0000
0000
0000
0000
0000
0000
0000
1000
0000
0000
0100
0000
0000
0000
0000
0000
1000
0000
0000
0000
0000
0000
1001
0000
0000
0000
0001
0000
0000
0000
0010
0000
0000
0000
0100
0000
0000
0000
0010
0000
0000
0000
0001
0000
0000
0000
,  // measure 29
0100
0001
0100
0001
0010
0001
0010
0001
0010
1000
0010
1000
0010
0001
0100
0010
,  // measure 30
1000
0010
0100
0001
2000
0001
3001
0000
,  // measure 31
1001
0000
0000
0000
0000
0000
0000
0000
0000
1000
0000
0000
0100
0000
0000
0000
0000
0000
1000
0000
0000
0000
0000
0000
1001
0000
0000
0000
1000
0000
0000
0000
0010
0000
0000
0000
0110
0000
0000
0000
0010
0000
0000
0000
1000
0000
0000
0000
,  // measure 32
1001
0000
0000
0000
0000
0000
0000
0000
0000
0001
0000
0000
0100
0000
0000
0000
0000
0000
0001
0000
0000
0000
0000
0000
0101
0000
0000
0000
0001
0000
0000
0000
0010
0000
0000
0000
0110
0000
0000
0000
0010
0000
0000
0000
0001
0000
0000
0000
,  // measure 33
0011
0000
0000
0000
0000
0000
0000
0000
0000
0001
0000
0000
0010
0000
0000
0000
0000
0000
0001
0000
0000
0000
0000
0000
1001
0000
0000
0000
0001
0000
0000
0000
1000
0000
0000
0000
1010
0000
0000
0000
1000
0000
0000
0000
0001
0000
0000
0000
,  // measure 34
0110
0000
0000
0001
0000
0000
0101
0000
0000
1000
0000
0000
1100
0000
0010
0000
0001
0000
1000
0001
1000
0010
0000
0000
,  // measure 35
1001
0000
0000
0000
0000
0000
0000
0000
0000
0010
0000
0000
0100
0000
0000
0000
0000
0000
0010
0000
0000
0000
0000
0000
1010
0000
0000
0000
0010
0000
0000
0000
1000
0000
0000
0000
1100
0000
0000
0000
0100
0000
0000
0000
0001
0000
0000
0000
,  // measure 36
0101
0000
0000
0000
0000
0000
0000
0000
0000
0100
0000
0000
1000
0000
0000
0000
0000
0000
0100
0000
0000
0000
0000
0000
0110
0000
0000
0000
0010
0000
0000
0000
0001
0000
0000
0000
0101
0000
0000
0000
0001
0000
0000
0000
1000
0000
0000
0000
,  // measure 37
0010
0000
1000
0010
0100
0000
0001
0000
1000
0000
0001
1000
0010
0000
1000
0000
,  // measure 38
0001
0000
0010
0100
1000
0000
0110
0000
0001
0000
0100
0001
0010
0000
1001
0000
,  // measure 39
0020
0000
0000
0030
,  // measure 40
2000
0000
0000
3020
0000
0000
1030
0000
,  // measure 41
0001
0020
0000
0000
0032
0000
1003
0000
,  // measure 42
0020
0000
0000
0230
0000
0000
0301
0000
,  // measure 43
1000
0000
0000
0000
0100
0000
0000
0000
0001
0000
0000
0000
1000
0000
0000
0000
0000
0000
0010
0000
0000
0100
0000
0000
,  // measure 44
1000
1001
0010
0110
,  // measure 45
0001
0101
1000
1100
,  // measure 46
0001
0000
0000
0000
0011
0000
0000
0001
0010
0000
0001
1000
0001
0000
0010
0100
,  // measure 47
0010
0010
0001
0001
1000
1000
0100
0100
,  // measure 48
1000
0010
1000
0010
0100
0001
0100
0001
1000
0100
0010
0001
1000
0000
0001
0001
,  // measure 49
1001
0000
0000
0000
0000
0000
0000
0000
0000
0001
0000
0000
0100
0000
0000
0000
0000
0000
0001
0000
0000
0000
0000
0000
0011
0000
0000
0000
0001
0000
0000
0000
0100
0000
0000
0000
0110
0000
0000
0000
0010
0000
0000
0000
1000
0000
0000
0000
,  // measure 50
1010
0000
0000
0000
0000
0000
0000
0000
0000
1000
0000
0000
0010
0000
0000
0000
0000
0000
1000
0000
0000
0000
0000
0000
1100
0000
0000
0000
0100
0000
0000
0000
1000
0000
0000
0000
1001
0000
0000
0000
1000
0000
0000
0000
0001
0000
0000
0000
,  // measure 51
0011
0000
0000
0000
0000
0000
0000
0000
0000
0001
0000
0000
0100
0000
0000
0000
0000
0000
0001
0000
0000
0000
0000
0000
0101
0000
0000
0000
0001
0000
0000
0000
1000
0000
0000
0000
1001
0000
0000
0000
1000
0000
0000
0000
0010
0000
0000
0000
,  // measure 52
0110
0000
0000
0010
0000
0000
1010
0000
0000
0001
0000
0000
1100
0000
0100
0000
0001
0000
0100
1000
0001
1000
0000
0000
,  // measure 53
1100
0000
0000
0000
0000
0000
0000
0000
0000
0100
0000
0000
1000
0000
0000
0000
0000
0000
0100
0000
0000
0000
0000
0000
0110
0000
0000
0000
0010
0000
0000
0000
0001
0000
0000
0000
0101
0000
0000
0000
0001
0000
0000
0000
1000
0000
0000
0000
,  // measure 54
1010
0000
0000
0000
0000
0000
0000
0000
0000
0010
0000
0000
1000
0000
0000
0000
0000
0000
0001
0000
0000
0000
0000
0000
1001
0000
0000
0000
0001
0000
0000
0000
0010
0000
0000
0000
0110
0000
0000
0000
0010
0000
0000
0000
0001
0000
0000
0000
,  // measure 55
0100
0000
0001
0100
0010
0000
1000
0000
0001
0000
0010
0100
1000
0000
0001
0000
,  // measure 56
0101
0000
0001
1000
0100
0000
1100
0000
1010
0000
0100
0001
0010
0000
0110
0000
,  // measure 57
0011
0000
0000
0000
0000
0000
0000
0000
0000
1000
0000
0000
1100
0000
0000
0000
0000
0000
1000
0000
0000
0000
0000
0000
1001
0000
0000
0000
0010
0000
0000
0000
0100
0000
0000
0000
1100
0000
0000
0000
0010
0000
0000
0000
0001
0000
0000
0000
,  // measure 58
1001
0000
0000
0000
0000
0000
0000
0000
0000
0001
0000
0000
0101
0000
0000
0000
0000
0000
1000
0000
0000
0000
0000
0000
1001
0000
0000
0000
0010
0000
0000
0000
0100
0000
0000
0000
0101
0000
0000
0000
0010
0000
0000
0000
1000
0000
0000
0000
,  // measure 59
1010
0000
0000
0000
0000
0000
0000
0000
0000
0010
0000
0000
0110
0000
0000
0000
0000
0000
0010
0000
0000
0000
0000
0000
1100
0000
0000
0000
0100
0000
0000
0000
0001
0000
0000
0000
0101
0000
0000
0000
0100
0000
0000
0000
0010
0000
0000
0000
,  // measure 60
0011
0000
0000
0001
0000
0000
1001
0000
0000
0010
0000
0000
1100
0000
0100
0000
1000
0000
0010
0100
0001
0100
0000
0000
,  // measure 61
0101
0000
0000
0000
0000
0000
0000
0000
0000
0010
0000
0000
0110
0000
0000
0000
0000
0000
0010
0000
0000
0000
0000
0000
1010
0000
0000
0000
0010
0000
0000
0000
1000
0000
0000
0000
0101
0000
0000
0000
0001
0000
0000
0000
1000
0000
0000
0000
,  // measure 62
0110
0000
0000
0000
0000
0000
0000
0000
0000
0010
0000
0000
0011
0000
0000
0000
0000
0000
0001
0000
0000
0000
0000
0000
0101
0000
0000
0000
1000
0000
0000
0000
0001
0000
0000
0000
1100
0000
0000
0000
0001
0000
0000
0000
1000
0000
0000
0000
,  // measure 63
0110
0000
0001
1000
0010
0000
1000
0000
1100
0000
0010
0001
0100
0000
0001
0000
,  // measure 64
0101
1000
0010
0001
0200
1000
0310
0000
;
