#TITLE:Nebulas;
#SUBTITLE:;
#ARTIST:BEMANI Sound Team "Yvya";
#TITLETRANSLIT:;
#SUBTITLETRANSLIT:;
#ARTISTTRANSLIT:Yvya;
#GENRE:;
#CREDIT:;
#MENUCOLOR:;
#METERTYPE:DDR;
#BANNER:Nebulas.png;
#BACKGROUND:Nebulas-bg.png;
#LYRICSPATH:;
#CDTITLE:./CDTITLES/GITADORA.PNG;
#MUSIC:Nebulas.ogg;
#OFFSET:0.000;
#SAMPLESTART:68.357;
#SAMPLELENGTH:15.000;
#SELECTABLE:YES;
#LISTSORT:;
#BPMS:0.000=140.000;
#STOPS:;
#BGCHANGES:;
#ATTACKS:;

//---------------dance-single - ----------------
#NOTES:
     dance-single:
     :
     Beginner:
     3:
     0.123,0.166,0.008,0.000,0.000:
0000
0000
0000
0000
,
0000
0000
0000
0000
,
0000
0000
0000
0000
,
0000
0000
0000
0000
,
0000
0000
0000
0000
,
0010
0000
0000
0000
,
1000
0000
0000
0000
,
0001
0000
0000
0000
,
0100
0000
0000
0000
,
0001
0000
0001
0000
,
0001
0000
0000
0000
,
1000
0000
1000
0000
,
1000
0000
0000
0000
,
0010
0000
0010
0000
,
0010
0000
0000
0000
,
0100
0000
0100
0000
,
0100
0000
0000
0000
,
0010
0000
0000
1000
,
0000
0000
0000
0001
,
0000
0000
1000
0000
,
0000
0000
0100
0000
,
0000
0010
0000
0000
,
0000
0001
0000
0000
,
0000
1000
0000
0000
0000
0000
0000
0000
,
0000
0010
0000
0000
0000
0010
0000
0000
,
0000
0010
0000
0000
0000
0100
0000
0000
,
0000
0000
0000
0000
0000
0001
0000
0000
,
0000
1000
0000
0000
0000
1000
0000
0000
,
0000
0001
0000
0001
0000
0001
0000
0000
,
0000
1000
0000
1000
0000
1000
0000
0000
,
0000
0010
0000
0000
0000
0010
0000
0000
,
0000
0100
0000
0000
0000
0000
0000
0000
,
0000
0001
0000
0000
0000
1000
0000
0000
,
0000
0001
0000
0000
0000
0000
0000
0000
,
0000
1000
0000
0000
0000
0001
0000
0000
,
0000
1000
0000
0000
0000
0000
0000
0000
,
0000
0010
0000
0000
0000
0000
0000
0100
,
0000
0000
0000
0000
0000
0000
0000
0001
,
0000
0000
0000
1000
0000
0000
0000
0001
,
0000
0000
0000
0000
0000
0000
0000
1000
,
0000
0000
0000
0000
0000
0000
0000
0100
,
0000
0000
0000
0000
0000
0000
0000
0010
,
0000
0000
0000
0000
0000
0000
0000
0001
,
0000
0000
0000
0000
0000
0000
0000
0010
,
0000
0000
0000
0100
0000
0000
0000
0100
,
0000
0000
0000
0000
0000
0000
0000
1000
,
0000
0000
0000
0001
0000
0000
0000
0001
,
0000
0000
0000
0000
0000
0000
0000
1000
,
0000
0000
0000
0001
0000
0000
0000
1000
,
0000
0000
0000
0010
0000
0000
0000
0100
,
0000
0000
0000
0001
0000
0000
0000
0010
,
0000
0000
0000
0100
0000
0000
0000
0010
,
0000
0000
0000
0000
0000
0000
0000
0001
,
0000
0000
0000
1000
0000
0000
0000
0001
,
0000
0000
0000
0000
0000
0000
0000
1000
,
0000
0000
0000
0010
0000
0000
0000
0100
,
0000
0000
0000
0000
0000
0000
0000
0010
,
0000
0000
0000
1000
0000
0000
0000
0001
,
0000
0001
0000
0001
0000
0000
0000
1000
,
0000
1000
0000
1000
0000
0000
0000
0010
,
0000
0000
0000
0000
0000
0000
0000
0100
,
0000
0000
0000
0100
0000
0000
0000
0010
,
0000
0000
0000
0010
0000
0000
0000
0000
,
0000
1000
0000
1000
0000
0000
0000
0001
,
0000
0000
0000
0001
0000
0000
0000
1000
,
0000
1000
0000
1000
0000
0000
0000
0001
,
0000
0001
0000
0001
0000
0000
0000
0100
,
0000
0100
0000
0100
0000
0000
0000
0010
,
0000
0010
0000
0010
0000
0000
0000
1001
;

//---------------dance-single - ----------------
#NOTES:
     dance-single:
     :
     Easy:
     8:
     0.413,0.388,0.137,0.185,0.040:
0000
0000
0000
0000
,
0000
0000
0000
0000
,
0000
0000
0000
0000
,
0000
0000
0000
0000
,
0000
0000
0000
0000
,
0001
0000
0000
0100
0000
0000
0002
0000
0000
0000
0000
0000
1003
0000
0000
0000
,
0001
0010
0001
0000
1000
0000
0001
0000
,
1000
0000
0000
0100
0000
0000
2000
0000
0000
0000
0000
0000
3001
0000
0000
0000
,
1000
0010
1000
0000
0010
0000
0100
0000
,
0010
0000
1000
0001
1000
0000
0001
0000
,
0010
0000
0001
1000
0001
0000
1000
0000
,
0100
0000
1000
0001
1000
0000
0010
0000
,
0100
0000
0001
1000
0001
0000
0010
0000
,
0001
0000
0100
0001
0100
0000
0001
0000
,
1000
0000
0100
1000
0100
0000
1000
0000
,
0010
0000
1000
0010
1000
0000
0010
0000
,
0100
0000
0001
0010
0001
0000
1000
0000
,
0002
0000
0000
0000
0000
0000
0103
0200
,
0000
0000
0310
2000
,
0000
0000
0000
0000
3100
0100
0000
0000
,
0010
0001
1000
0001
0100
0000
0001
0000
,
0100
0001
0100
0010
0000
1000
0100
1000
,
0001
1000
0001
0000
0100
0010
1000
0010
,
0100
0002
0000
0000
0000
0000
0000
0000
,
0000
1003
0000
0100
0000
1100
0000
1000
,
0000
0001
0000
0010
0000
0001
0100
0010
,
2000
0000
3010
0010
0000
0100
0000
0100
,
0000
0001
1000
0100
0000
1000
0001
0100
,
0000
0001
0000
1001
0000
1000
0000
1001
,
0000
1000
0000
1010
0000
0001
0000
0100
,
0002
0000
0013
0100
0000
0010
0001
1000
,
0000
0001
0100
0001
1000
0001
0010
0001
,
0000
1000
0100
0010
0000
0100
0000
1000
,
0000
0001
0100
0010
0000
0100
0000
0001
,
0000
1000
0010
1000
0001
1000
0000
0001
,
0000
0010
0001
1000
0001
0100
0010
0100
,
0000
0010
0000
1000
0001
0100
0000
0001
,
0000
0010
0000
0001
1000
0100
0000
1000
,
0000
1001
0000
0001
0100
0010
0000
0100
,
0001
1000
0000
0001
0010
0100
1000
0020
,
0000
1030
0000
0010
0100
0001
0100
0000
,
0100
0010
0000
2000
0000
3100
0000
0010
,
0000
0001
0000
0000
1000
0000
0002
0000
0000
0103
0000
0000
0020
0000
0000
0000
,
1030
0010
0000
1000
0100
1000
0000
0002
,
0000
0103
0000
0010
0000
1000
0002
0000
,
0013
0001
0000
1000
1000
0001
0001
0200
,
0000
0310
0200
0000
0301
2000
0000
0100
,
0000
0001
0000
0010
0000
3001
0000
1000
,
0000
1001
0000
1000
0100
0010
0002
0000
,
0013
0000
0100
0000
0000
0000
0010
0000
0000
0001
0000
0000
1000
0000
0010
0000
,
0000
0100
0000
0000
0001
0000
2000
0000
0000
0000
3001
0000
0200
0000
0000
0000
,
0310
0100
0000
0001
1000
0100
0000
1000
,
0000
1100
0000
1000
0100
0010
0000
0001
,
0010
0001
0000
1000
0010
1000
0000
0001
,
0000
0101
0000
0001
0100
0001
0000
1000
,
0010
1000
0000
0010
0100
0001
0000
1000
,
0000
1001
0000
0100
0010
0001
0000
0010
,
0100
1000
0000
0010
0100
0001
0000
1000
,
0000
0100
0000
0000
0000
0000
0001
0000
0000
0100
0000
0000
0000
0000
1000
0000
,
0000
0010
0000
0000
0000
0000
0001
0000
0000
0010
0000
0000
0000
0000
2000
0000
,
0000
0000
0000
0000
0000
3001
0000
1100
,
0000
0100
0000
1001
0000
1000
0000
0101
,
0000
0100
0000
1001
0000
0001
2000
0000
,
3001
0010
0000
0001
0100
0001
0000
1000
,
0010
1000
0000
0001
1000
0001
0000
0010
,
0000
0011
0000
0001
0000
1001
0000
1000
,
0000
1100
0000
0010
0000
0100
0002
0000
,
1003
0010
0000
0100
0010
0100
0000
0010
,
1000
0001
0000
0010
0001
1000
0000
0110
;

//---------------dance-single - ----------------
#NOTES:
     dance-single:
     :
     Medium:
     11:
     0.559,0.555,0.210,0.290,0.262:
0000
0000
0000
0000
,
0000
0000
0000
0000
,
0000
0000
0000
0000
,
0000
0000
0000
0000
,
0000
0000
0000
0000
,
0010
0000
0000
1100
0000
0000
0102
0000
0000
0000
1003
0000
0001
0000
0000
0000
,
1000
0000
0000
0100
0000
1000
0000
0000
0001
0000
0100
0000
0001
0000
1000
0000
,
0010
0000
0000
0101
0000
0000
2100
0000
0000
0000
3001
0000
0010
0000
0000
0000
,
0001
1000
0100
0000
1000
0001
0200
0000
,
0301
0000
0000
0000
1000
0000
0010
0000
1000
0000
0000
0001
0000
1000
0000
0001
,
0000
0010
0001
1000
0001
0000
0100
0010
,
1000
0000
0000
0000
0100
0000
0010
0000
0100
0000
0000
1000
0000
0001
0000
1000
,
0000
0010
0100
0001
1000
0100
0010
0001
,
1000
0000
0100
0000
0010
0000
0100
0000
1000
0000
0000
0001
0000
0100
0000
0001
,
0000
0010
0001
1000
0001
0010
0100
1000
,
0001
0000
0010
0000
0100
0000
0010
0000
0001
0000
0000
1000
0000
0010
0000
1000
,
0000
0010
0100
0001
1000
1000
0001
0010
,
0002
0000
0100
0000
0010
0000
1003
2000
,
0100
0001
3010
0002
,
0100
0000
1003
0000
0010
0010
0100
1000
,
0001
0000
0100
0000
0001
0000
1000
0000
0010
0000
0000
0100
0000
0000
0001
0000
,
1000
0000
0000
0001
0000
0000
0010
0000
0001
0000
0000
1000
0000
0000
0001
0000
,
0100
0001
1001
0000
1100
0000
0001
0010
,
0100
2000
0000
0000
0000
0000
0000
0000
,
0000
0000
3001
0000
0000
0100
0000
0000
0001
0000
0010
0000
0000
0001
0000
0000
,
1000
0000
0100
0000
0000
1000
0000
0000
0010
0000
1000
0000
0000
0000
0010
0000
,
0200
0000
0310
1000
0000
0001
1000
0100
,
0000
1000
0001
0100
0010
1000
0001
0010
,
0001
0000
1000
0000
0000
0000
1100
0000
0000
0000
1000
0100
0000
0000
1100
0000
,
0000
0000
0001
0000
0000
0000
1001
0000
0000
0000
0001
1000
0000
1000
0010
0000
,
2000
0000
3010
0100
0000
0001
1000
0100
,
0000
0010
0001
1000
0100
0001
0100
1000
,
0010
0000
0100
0000
0010
0000
1000
0000
0000
0001
0000
0010
0000
0001
1000
0000
,
0000
0010
0100
0001
0000
1000
0100
0020
,
0000
0000
0130
0000
1000
0000
0001
0000
0100
0000
0010
0000
0000
0110
0000
0000
,
0001
1000
0010
0001
0010
1000
0100
0002
,
0000
0103
1000
0010
0010
0100
0001
0010
,
0010
0100
1000
0001
0100
0001
1000
0020
,
0000
1030
0000
0001
0100
0001
0000
1000
,
0100
0010
0100
1000
0010
0100
0001
0020
,
0000
0000
0031
0000
1000
0100
2000
0000
0000
0000
3001
0000
0200
0000
0000
0000
,
0301
0000
1000
0000
0001
0000
0010
0000
0001
0010
0000
0000
0001
0000
2000
0000
,
0000
3010
0000
0000
0100
0000
0002
0000
0000
1003
0000
0000
0200
0000
0000
0000
,
0310
0000
0100
0000
1000
0000
0010
0100
0010
0000
0100
0000
0001
0000
2000
0000
,
0000
0000
3010
0000
0000
0000
0100
0001
0100
0000
0001
0000
2000
0000
0000
0000
,
3001
0010
0000
0001
0100
0001
1001
1200
,
0000
1300
0020
0000
0130
0002
0000
1003
,
0100
0001
0100
1000
0010
0001
0010
2000
,
0000
0000
3001
0000
0010
0001
0010
0000
0001
0000
0100
0000
0020
0000
0000
0000
,
0130
0000
0001
0000
1000
0000
0001
0000
0010
0100
0000
0100
0010
0000
0002
0000
,
0000
0103
0000
0000
1000
0000
0200
0000
0000
0000
0301
0000
2000
0000
0000
0000
,
3001
0000
0020
0000
0000
0000
0031
0000
1000
0000
0001
0100
0001
0000
2000
0000
,
0000
3100
0000
1000
0010
0100
0001
1000
,
0100
0000
0010
0000
0001
0000
1000
0000
0010
0000
1000
0001
1000
0000
0020
0000
,
0000
0130
0000
0001
0010
0100
1000
0001
,
0100
0000
1000
0000
0100
0000
0001
0000
0010
0000
0001
1000
0001
0000
0200
0000
,
0000
0000
0310
0000
0000
0000
1000
0000
0010
0100
0000
0000
0102
0000
0000
0000
,
1003
0001
0000
0010
0001
0100
0000
0101
,
0000
1001
0000
0000
0000
0000
1100
0000
0000
1001
0000
0000
0000
0000
0110
0000
,
0000
0101
0000
0000
0000
0000
0001
0000
0010
0000
0100
1000
0001
2000
0000
0000
,
0000
0000
0000
0000
0000
3010
0000
0110
,
0010
0100
0000
0000
0001
0000
1000
0000
0100
1000
0000
0000
0100
0000
0010
0000
,
0001
0010
0000
0000
0001
0000
1000
0000
0001
0100
0001
0000
2000
0000
0000
0000
,
3010
0000
0100
0010
0000
0100
0010
0000
1000
0000
0001
0000
0010
0000
0001
0000
,
0001
0000
1000
0100
0000
1000
0100
0000
1000
0000
0001
0000
0100
0000
0010
0000
,
0000
0000
1010
0000
0000
1000
0001
1000
0000
0000
1001
0000
0000
0000
1000
0000
,
0000
0000
1100
0000
0000
0010
0001
0010
0000
0001
1000
0000
1002
0000
0000
0000
,
0103
0000
0010
0100
0000
0100
0001
0000
1000
0000
0100
0000
1000
0000
0001
0000
,
0100
0000
0010
0000
1010
0000
0001
0100
0001
0000
1000
0100
1000
0000
1001
0000
;

//---------------dance-single - ----------------
#NOTES:
     dance-single:
     :
     Hard:
     16:
     0.797,0.749,0.250,0.226,0.931: // measure 1
0000
0000
0000
0000
,  // measure 2
0000
0000
0000
0000
,  // measure 3
0000
0000
0000
0000
,  // measure 4
0000
0000
0000
0000
,  // measure 5
0000
0000
0000
0000
,  // measure 6
0010
0000
0000
0101
0000
0000
2100
0000
0000
3001
0010
0000
0001
0000
0100
0000
,  // measure 7
0010
0000
0000
1010
0000
1000
0100
0000
1000
0000
0010
0000
0100
0000
0001
0000
,  // measure 8
1000
0000
0000
1100
0000
0000
0102
0000
0000
1003
0010
0000
0100
0000
0010
0000
,  // measure 9
1000
0000
0001
0000
1000
0000
0100
0000
0010
0000
0001
1000
0002
0000
0000
0000
,  // measure 10
1003
0000
0010
0000
1000
0000
0100
0000
1000
0000
0010
1000
0000
0001
0000
1000
,  // measure 11
0100
0000
1000
0000
0010
0000
0100
0000
0001
0000
0010
0001
1000
0000
0001
0000
,  // measure 12
0100
0000
0001
0000
0010
0000
0100
0000
0010
0000
0001
0100
0000
0010
0000
1000
,  // measure 13
0100
0000
1000
0000
0010
0000
0100
0000
0001
0000
1000
0010
1000
0000
0001
0000
,  // measure 14
1000
0000
0001
0100
0001
0000
1000
0000
0001
0000
0010
0100
0000
1000
0000
0100
,  // measure 15
0010
0000
0001
0010
0001
0000
1000
0000
0010
0000
0100
0001
0000
0100
0000
0010
,  // measure 16
1000
0000
0010
0100
0010
0000
1000
0000
0010
0000
1000
0100
0000
1000
0000
0001
,  // measure 17
1000
0000
0010
1000
0010
0000
1000
0000
0001
1000
0001
0010
0000
0011
0000
0001
,  // measure 18
0100
0100
0100
0010
1000
1000
1000
0001
,  // measure 19
0001
0001
0010
0010
0010
0001
0001
0001
,  // measure 20
0100
0000
0100
0000
0100
0000
0010
0000
0010
0000
0010
0000
1000
0001
1000
0000
,  // measure 21
0001
0100
0001
0000
1000
0010
1000
0010
0100
0000
0000
0100
0010
0000
0100
0001
,  // measure 22
0100
0010
0000
0100
0001
0000
1000
0100
1000
0000
0001
0010
0001
0010
0100
1000
,  // measure 23
0100
1000
0000
0001
1000
0000
0000
0010
0100
0000
0100
0010
1000
0000
0001
0010
,  // measure 24
0100
0010
0002
0000
0000
0000
0000
0000
0000
0000
0000
0000
0000
0000
0000
0000
,  // measure 25
0000
0000
1003
0000
0100
1000
0000
0100
1000
0001
0100
0000
0001
0100
0000
0001
,  // measure 26
0100
0010
0100
0000
0010
1000
0010
0000
1000
0001
0100
0000
0001
0010
0100
0000
,  // measure 27
0210
0000
0000
0000
0310
0000
0001
0010
0000
0010
0001
0000
1000
0010
0100
0001
,  // measure 28
1000
0000
0010
0000
1000
0000
0100
0010
0000
0100
1000
0010
0000
0100
0001
0000
,  // measure 29
1000
0001
1000
0100
0000
0100
1000
0100
0000
0100
0010
0100
0000
0100
1000
0000
,  // measure 30
0001
0100
0010
0100
0000
0100
0001
0100
0000
0100
0010
0000
0100
0001
1000
0000
,  // measure 31
2001
0000
0000
0000
3001
0000
0010
0100
0000
0010
0001
1000
0000
0001
0100
0000
,  // measure 32
0001
1000
0001
0000
1001
0000
0010
1000
0010
1000
0001
0100
0001
0100
0001
0000
,  // measure 33
0011
0000
1001
0000
1000
0000
0100
1000
0010
0100
0000
0010
0000
1000
0001
0100
,  // measure 34
0001
0000
1000
0000
0100
0000
0010
0001
1000
0001
0010
0001
0100
0010
0200
0000
,  // measure 35
0000
0000
0301
0010
0001
0010
0100
1000
0100
1000
0000
0000
1010
0000
0000
0000
,  // measure 36
0110
0000
0010
1000
0010
1000
0001
0100
0001
0100
0001
1000
0100
0010
0200
0000
,  // measure 37
0000
0000
1300
0001
1000
0001
0100
0001
0100
0001
0010
0001
0010
0001
1000
0001
,  // measure 38
1000
0001
1000
0100
0010
0000
0001
0100
0010
0000
1000
0010
0100
0001
1000
0000
,  // measure 39
0000
1000
0010
0000
1000
0000
0001
0100
0000
0001
0000
0001
1000
0000
0001
0010
,  // measure 40
0100
0000
1000
0010
0100
0000
0010
1000
0001
0100
0010
1000
0001
0100
0020
0000
,  // measure 41
0000
0000
1030
0000
0010
1000
0020
0000
0000
0000
1030
0100
0020
0000
0000
0000
,  // measure 42
0130
1000
0001
0000
0100
0001
1000
0000
0010
0100
0000
0100
0001
1000
0010
0000
,  // measure 43
0000
1010
0000
0000
1000
0000
0200
0000
0000
1300
0000
0000
0002
0000
0000
0000
,  // measure 44
0103
0000
0010
0000
0100
0000
0001
0010
0001
0010
0100
1000
0100
1000
0002
0000
,  // measure 45
0000
0000
0013
0000
0001
0100
0001
0000
1000
0100
1000
0000
0002
0000
0000
0000
,  // measure 46
1003
0001
0100
0000
0010
0000
0100
0000
0110
0000
0101
0000
1001
0000
1100
0000
,  // measure 47
0010
0000
0001
0100
0010
0000
1000
0000
0001
1000
0200
0000
0000
0000
1300
0000
,  // measure 48
0001
0100
0000
0100
0010
0000
1000
0000
1001
0000
0001
0100
0001
0000
2000
0000
,  // measure 49
0000
3001
0100
0000
0001
0010
0001
0000
1000
0000
0100
0010
0200
0000
0000
0000
,  // measure 50
0310
0001
0010
0000
0001
0100
0001
0000
1000
0010
0000
0010
1000
0001
0200
0000
,  // measure 51
0000
0310
0100
0000
0010
1000
0001
0000
1000
0001
0100
0000
0102
0000
0000
0000
,  // measure 52
1003
0100
0010
0000
0100
1000
0001
1000
0001
1000
0010
0100
0001
0000
0200
0000
,  // measure 53
0000
0000
0310
0000
0000
0000
1000
0100
1000
0001
1000
0000
2001
0000
0000
0000
,  // measure 54
3010
0000
0100
0000
0001
0000
0100
0000
0010
0000
1000
0001
0100
0000
0002
0000
,  // measure 55
0000
0000
0013
0000
0000
0000
0001
1000
0001
0100
0001
0000
0101
0000
0001
0000
,  // measure 56
1000
0100
0000
0100
0010
0000
0100
0000
1100
0000
0100
1000
0010
0000
0200
0000
,  // measure 57
0000
0000
0310
0000
1000
0000
0001
0000
1000
0001
0000
0000
0120
0000
0000
0000
,  // measure 58
1030
0000
0010
0000
0100
0000
0001
1000
0001
1000
0001
0100
0001
0000
1000
0000
,  // measure 59
0100
1000
0000
1100
0000
0000
0010
0000
0100
0001
0000
0101
0000
0000
0001
0000
,  // measure 60
0010
0100
0000
0110
0000
0000
0010
0001
1000
0001
0100
0010
1000
0001
2000
0000
,  // measure 61
0000
0000
0000
0000
0000
3001
0000
1100
,  // measure 62
0100
1000
0000
0100
1000
0010
0100
0000
0001
0100
0000
0001
0100
0001
0010
0000
,  // measure 63
0001
1000
0000
0001
1000
0010
0100
0000
0010
1000
0100
0000
2100
0000
0000
0000
,  // measure 64
3001
0000
0010
0001
0000
0010
0001
0000
0100
0001
0100
0000
0001
0000
1000
0000
,  // measure 65
0010
0100
0001
1000
0000
1000
0001
0010
0000
0010
0001
0000
1000
0000
0010
0100
,  // measure 66
0000
0100
0001
0100
0000
0100
0010
0100
0000
0100
1000
0100
0000
0100
0010
0100
,  // measure 67
0000
0100
0001
0100
0000
0100
0010
0100
0010
0100
0010
1000
0002
0000
0000
0000
,  // measure 68
1003
0000
0100
1000
0000
1000
0001
0100
0000
0100
0001
0000
1000
0001
0100
0000
,  // measure 69
0001
0000
1001
0000
1100
0000
0001
0010
0100
1000
0100
0010
0001
1000
0001
0000
;

//---------------dance-single - ----------------
#NOTES:
     dance-single:
     :
     Challenge:
     18:
     1.000,1.000,0.242,0.234,1.000: // measure 1
0000
0000
0000
0000
,  // measure 2
0000
0000
0000
0000
,  // measure 3
0000
0000
0000
0000
,  // measure 4
0000
0000
0000
0000
,  // measure 5
0000
0000
0000
0000
,  // measure 6
0110
0000
0000
0101
0000
0000
2010
0000
0000
3001
1000
0000
0001
0010
0001
0000
,  // measure 7
1000
0000
0000
0010
0000
0000
1000
0000
0000
0010
0000
0000
0100
0000
0000
0001
0000
0000
0100
0000
0000
0001
0000
0000
1000
0000
0010
0000
1000
0000
0010
0000
1000
0000
0010
0000
1000
0000
0001
0000
1000
0000
0001
0000
1000
0000
0001
0000
,  // measure 8
0100
0000
0000
0000
0000
0000
0010
0000
0000
0100
0000
0000
0001
0000
0000
0100
0000
0000
0010
0000
0000
0000
0000
0000
1000
0000
0000
0001
0000
0000
0100
0000
0000
0001
0000
0000
1000
0000
0001
0000
1000
0000
0001
0000
1000
0000
0010
0000
,  // measure 9
0100
0000
0110
0000
0001
1000
0100
1000
0001
0010
0100
1000
0020
0000
0000
0000
,  // measure 10
1030
0100
1000
0100
0010
0100
0010
0100
1000
0100
0010
0100
1000
0010
0100
0001
,  // measure 11
0010
0100
0010
0100
0010
0001
0010
0001
0010
1000
0010
0100
1000
0010
0100
0001
,  // measure 12
1000
0010
1000
0010
0100
0001
0100
0001
1000
0100
0010
0001
1000
0010
0100
0001
,  // measure 13
0100
0010
0100
0010
0100
1000
0100
1000
0100
0001
0010
0100
1000
0001
0100
0001
,  // measure 14
1000
0010
0001
0010
1000
0010
0001
0010
1000
0100
0010
0100
1000
0001
0100
0001
,  // measure 15
1000
0100
0010
0100
1000
0100
0010
0100
1000
0001
0100
0001
1000
0001
0010
0100
,  // measure 16
1000
0010
0001
0010
1000
0010
0001
0010
1000
0100
0010
0100
1000
0001
0100
0001
,  // measure 17
0010
0100
1000
0100
0010
0001
0100
0001
1000
0010
0100
0001
1000
0100
0010
0001
,  // measure 18
1000
0100
1000
0100
1000
0000
0001
0100
0001
0100
0001
0000
0101
0000
1001
0000
,  // measure 19
0001
1000
0100
1000
0001
0010
0100
0000
0010
0001
1000
0001
1000
0000
0010
0000
,  // measure 20
0100
0001
1000
0001
0010
0000
0001
1000
0100
1000
0010
0000
0100
0001
1000
0001
,  // measure 21
1000
0100
0010
0001
1000
0010
0100
0001
1000
0000
0000
1100
0000
1000
0100
1000
,  // measure 22
0001
0000
0000
0100
0000
0000
0000
0000
0000
0100
0000
0000
0010
0000
0000
0000
0000
0000
0100
0000
0000
0000
0000
0000
0001
0000
0000
0010
0000
0000
0100
0000
0000
1000
0000
0000
0010
0000
0000
0100
0000
0000
0001
0000
1000
0000
0001
0000
,  // measure 23
1000
0000
0001
0000
1000
0000
0001
0000
0000
0000
0000
0000
1001
0000
0000
0000
0000
0000
0000
0000
0000
0100
0000
0000
0010
0000
0000
0000
0000
0000
1000
0000
0000
0010
0000
0000
0100
0000
0000
0001
0000
0000
0010
0000
0000
0001
0000
0000
,  // measure 24
1000
0100
2000
0000
0000
0000
0000
0000
0000
0000
0000
0000
0000
0000
3000
0000
,  // measure 25
0000
0000
1001
0000
0010
0100
0000
0010
1000
0001
0100
0000
0001
0010
0000
0001
,  // measure 26
0010
0100
1000
0000
0010
0100
0000
0010
1000
0001
0100
0000
0001
1000
0100
0000
,  // measure 27
1200
0000
0000
0000
1300
0100
0010
0100
1000
0100
0001
0100
1000
0100
0010
0100
,  // measure 28
1000
0100
0010
0000
0011
0000
0001
0100
0000
0100
0001
0100
0000
0100
0010
1000
,  // measure 29
0001
0010
0100
0010
0001
0010
0100
1000
0100
1000
0010
0100
0001
1000
0010
1000
,  // measure 30
0001
0010
0001
0100
0010
1000
0001
0100
0010
1000
0001
0010
0100
1000
0001
1000
,  // measure 31
0002
0000
0000
0000
0013
0000
0100
1000
0000
0001
0100
0001
0000
0001
0010
0000
,  // measure 32
0100
0000
0000
1000
0000
0000
0001
0000
0000
0100
0000
0000
0001
0000
1000
0000
0001
0000
1000
0000
0000
0000
0000
0000
0001
0000
0010
0000
0001
0000
0010
0000
0001
0000
0100
0000
0001
0000
0000
0000
0000
0000
1010
0000
0000
0000
0000
0000
,  // measure 33
1010
0000
0110
0000
1000
0000
0001
0100
0001
0010
0000
0001
1000
0001
0010
0001
,  // measure 34
0100
0010
1000
0100
0010
0100
1000
0100
0000
0100
1000
0010
0100
0001
0020
0000
,  // measure 35
0000
0000
0031
0100
1000
0100
0001
0100
1000
0100
0001
0000
0010
0001
1000
0000
,  // measure 36
0010
0100
0000
0000
1000
0000
0010
0000
0100
0000
0001
0000
1000
0000
0010
0000
0100
0000
0001
0000
1000
0000
0100
0000
0001
0000
0100
0000
2000
0000
0000
0000
,  // measure 37
0000
0000
3010
1000
0010
1000
0001
0100
0001
0100
0001
0010
1000
0010
0001
0010
,  // measure 38
1000
0000
0000
0010
0000
0000
0001
0000
0000
0100
0000
0000
1000
0000
0000
0100
0000
0000
0001
0000
0010
0000
0001
0000
0010
0000
0001
0000
0010
0000
0001
0000
1000
0000
0001
0000
1000
0000
0001
0000
1000
0000
0020
0000
0000
0000
0000
0000
,  // measure 39
0000
0130
0000
0000
0001
1000
0010
0100
0000
0010
0000
0010
1000
0000
0001
0010
,  // measure 40
0100
1000
0001
0010
0100
1000
0001
0100
1000
0100
0001
1000
0100
0010
0200
0000
,  // measure 41
0000
1300
0000
0000
0100
1000
0010
0100
0000
0010
1000
0000
2010
0000
0000
0000
,  // measure 42
3001
0010
0001
0000
1000
0010
1000
0000
0010
0100
0000
0010
1000
0001
0020
0000
,  // measure 43
0000
0130
0000
1000
0001
1000
0010
1000
0100
1000
0001
0000
0120
0000
0000
0000
,  // measure 44
1030
0000
0100
1000
0100
1000
0010
0100
0010
0100
0010
1000
0001
1000
0002
0000
,  // measure 45
0000
0013
0001
0000
0100
0001
1000
0001
0010
0001
0100
0000
0210
0000
0000
0000
,  // measure 46
0310
0000
1000
0100
0001
0100
1000
0000
1100
0000
0110
0000
0011
0000
1002
0000
,  // measure 47
0103
0000
0000
0010
1000
0010
0100
0000
0000
0010
0000
0000
0100
0001
1000
0001
0100
0000
0001
0000
0000
1000
0000
0000
,  // measure 48
0100
1000
0000
0001
1000
0000
0001
0010
0100
1000
0100
0010
0001
1000
0002
0000
,  // measure 49
0000
0000
0103
0000
0001
0000
0000
0000
1000
0000
0001
0000
0020
0000
0000
0000
0000
0000
0031
1000
0010
0000
0000
0000
0210
0000
0000
0000
0000
0000
0000
0000
,  // measure 50
0301
1000
0100
0000
1000
0001
0010
0000
0001
0100
0000
0001
0010
0100
2000
0000
,  // measure 51
0000
0000
0000
3010
0000
0000
0100
0000
0000
0000
0000
0000
0010
0000
0000
1000
0000
0000
0010
0000
0100
0000
0010
0000
0100
0000
0010
0000
1000
0000
0010
0000
0000
0000
0000
0000
0210
0000
0000
0000
0000
0000
0000
0000
0000
0000
0000
0000
,  // measure 52
0301
0000
0000
0100
0000
0000
0001
0000
0000
1000
0000
0000
0001
0000
0000
1000
0000
0000
0001
0000
0000
0010
0000
0000
0100
0000
0000
1000
0000
0000
0001
0000
0100
0000
0001
0000
0100
0000
0001
0000
0010
0000
0002
0000
0000
0000
0000
0000
,  // measure 53
0000
0000
0000
0000
0000
0000
0103
0000
0000
0000
0000
0000
0000
0000
0000
0000
0000
0000
0010
0000
0000
1000
0000
0000
0001
0000
0000
0100
0000
0000
0010
0000
1000
0000
0010
0000
2000
0000
0000
0000
0000
0000
0000
0000
0000
3001
0000
0000
,  // measure 54
0010
0000
0001
0100
0001
0000
1000
0010
1000
0000
0001
0010
0100
1000
0020
0000
,  // measure 55
0000
0000
0000
0000
0000
0000
0130
0000
0000
0000
0000
0000
0000
0000
0000
0000
0000
0000
0010
0000
1000
0000
0010
0000
1000
0000
0000
0000
0000
0000
0001
0000
1000
0000
0001
0000
1000
0000
0000
0000
0000
0000
0001
0000
0000
0100
0000
0000
,  // measure 56
1000
0100
0001
0100
1000
0100
0001
0010
1000
0010
0001
0010
1000
0010
0002
0000
,  // measure 57
0000
0000
0103
0000
0000
0000
0010
1000
0100
1000
0010
0100
0020
0000
0000
0000
,  // measure 58
1030
0000
0000
0000
0000
0000
0001
0000
0000
1000
0000
0000
0100
0000
0000
0000
0000
0000
1000
0000
0100
0000
0001
0000
0100
0000
1000
0000
0100
0000
1000
0000
0100
0000
0001
0000
0100
0000
0000
1000
0000
0000
0001
0000
0000
0010
0000
0000
,  // measure 59
0100
0010
0001
0100
1000
0100
0001
0010
0100
0010
0001
0010
1000
0010
0001
0100
,  // measure 60
0010
1000
0001
0100
0010
1000
0001
0010
0100
1000
0001
1000
0001
1000
0002
0000
,  // measure 61
0000
0000
0000
0000
0000
1003
0000
1001
,  // measure 62
0010
0100
0000
0010
1000
0010
0100
0000
0010
0100
0000
0010
1000
0001
1000
0100
,  // measure 63
0010
0001
1000
0100
0010
0001
1000
0010
0100
0001
0100
0000
0120
0000
0000
0000
,  // measure 64
1030
0000
0001
0010
0000
0001
1000
0001
0000
0100
0001
0100
0010
0100
0010
0000
,  // measure 65
0110
0000
0010
1000
0000
0001
1000
0001
0000
1000
0100
1000
0001
0010
0001
0100
,  // measure 66
0001
0100
0001
0010
0001
0010
0001
0010
0100
1000
0001
0010
0100
1000
0001
0100
,  // measure 67
0001
0100
0001
0010
0001
0010
0001
0100
1000
0100
0001
1000
2001
0000
0000
0000
,  // measure 68
3010
0000
0100
0001
0000
1000
0100
1000
0000
0001
0010
0001
1000
0002
0000
1003
,  // measure 69
0010
0000
0000
0000
0000
0000
0110
0000
0000
0000
0000
0000
0110
0000
0000
0000
0000
0000
0001
0000
0010
0000
0100
0000
1000
0000
0100
0000
0010
0000
0001
0000
0010
0000
0100
0000
1000
0000
0000
0001
0000
0000
1001
0000
0000
0000
0000
0000
;
