#TITLE:夏の匂い。キミの残像。 ft. Kanae Asaba;
#SUBTITLE:;
#ARTIST:Xceon;
#TITLETRANSLIT:Natsu no nioi. Kimi no zanzou. ft. Kanae Asaba;
#SUBTITLETRANSLIT:;
#ARTISTTRANSLIT:Xceon;
#GENRE:;
#CREDIT:;
#MENUCOLOR:;
#METERTYPE:DDR;
#BANNER:Natsu no nioi. Kimi no zanzou. ft. Kanae Asaba.png;
#BACKGROUND:Natsu no nioi. Kimi no zanzou. ft. Kanae Asaba-bg.png;
#LYRICSPATH:;
#CDTITLE:./CDTITLES/BEATMANIA IIDX.PNG;
#MUSIC:Natsu no nioi. Kimi no zanzou. ft. Kanae Asaba.ogg;
#OFFSET:0.000;
#SAMPLESTART:49.193;
#SAMPLELENGTH:15.000;
#SELECTABLE:YES;
#LISTSORT:;
#BPMS:0.000=161.000;
#STOPS:;
#BGCHANGES:0.000=Natsu no nioi. Kimi no zanzou. ft. Kanae Asaba.avi=1.000=0=0=0,
99999=-nosongbg-=1.000=0=0=0 // don't automatically add -songbackground-
;
#ATTACKS:;

//---------------dance-single - ----------------
#NOTES:
     dance-single:
     :
     Beginner:
     3:
     0.143,0.188,0.000,0.060,0.000:
0000
0000
0000
0000
,
0000
0000
0000
0000
,
0000
0000
0000
0000
,
0000
0000
0000
0000
,
0000
0000
0000
0000
,
0010
0000
0000
0000
,
0100
0000
0000
0000
,
0001
0000
1000
0000
,
0001
0001
0001
0000
,
0000
1000
0000
1000
,
0000
0100
0000
0100
,
0000
0010
0000
0010
,
0010
0000
0001
0000
,
0000
0001
0000
0001
,
0000
0100
0000
0100
,
0000
0010
0000
0010
,
0010
0000
1000
0000
,
0001
0000
0000
0000
,
1000
0000
0000
0000
,
0100
0000
0000
0000
,
0010
0000
0000
0000
,
0001
0000
0000
0000
,
1000
0000
0000
0000
,
0010
0000
0000
0000
,
0100
0000
0100
0100
,
0100
0000
0010
0000
,
1000
1000
1000
0000
,
0001
0000
1000
0000
,
0001
0001
0001
0000
,
0010
0000
0100
0000
,
0010
0010
0010
0000
,
0001
0000
0000
0000
,
0100
0000
0000
0000
,
0000
0010
0000
0010
,
0000
1000
0000
1000
,
0000
0001
0000
0001
,
0001
0000
0100
0000
,
0000
0001
0000
0001
,
0000
0010
0000
0010
,
0000
0100
0000
0100
,
0100
0000
1000
0000
,
0001
0000
0001
0000
,
1000
0000
1000
0000
,
0010
0000
0010
0000
,
0100
0000
0100
0000
,
0010
0000
0000
0000
,
0100
0000
0000
0000
,
0001
0000
0000
0000
,
1000
0000
0000
0000
,
0200
0000
0000
0300
,
0020
0000
0000
0030
,
0002
0000
0000
0003
,
2000
0000
0000
3000
,
0020
0000
0000
0030
,
0200
0000
0000
0300
,
0002
0000
0000
0003
,
2000
0000
0000
3000
,
0001
0000
0000
0000
,
0001
0001
0001
0000
,
1000
0000
0000
0000
,
1000
1000
1000
0000
,
0100
0000
0000
0000
,
0100
0100
0100
0000
,
0010
0000
0000
0000
,
0001
0000
0000
0000
,
1000
0000
0000
0000
,
0000
0010
0010
0000
,
0000
0000
0100
0000
,
0000
0000
0001
0000
,
0000
0000
1000
0000
,
0000
0000
0100
0000
,
0000
0010
0010
0000
,
0000
0000
0001
0000
,
0000
1000
1000
0000
,
0010
0000
1000
0000
,
1000
0000
0001
0000
,
0000
0000
0100
0000
,
0100
0000
0010
0000
,
0000
0000
1000
0000
,
0000
0000
0100
0000
,
0000
0000
0010
0000
,
0000
0000
0001
0000
,
0000
0000
1000
0000
,
0000
0000
0010
0000
;

//---------------dance-single - ----------------
#NOTES:
     dance-single:
     :
     Easy:
     6:
     0.330,0.353,0.120,0.271,0.000:
0000
0000
0000
0000
,
0000
0000
0000
0000
,
0000
0000
0000
0000
,
0000
0000
0000
0000
,
0000
0000
0000
0000
,
1000
0100
2000
3000
,
0002
0003
0200
0300
,
0010
0100
0002
0003
,
0020
0030
0200
0300
,
1000
0001
1000
0001
,
0010
0100
1000
0000
,
0001
1000
0001
1000
,
0010
0100
0001
0000
,
0010
0100
0010
0001
,
0100
0010
1000
0000
,
0010
0100
0010
1000
,
0001
1000
0100
0010
,
0001
0001
0200
0300
,
0001
0010
0100
1000
,
0010
0010
2000
3000
,
1000
0100
0010
0001
,
0100
0100
0020
0030
,
1000
0010
0100
0001
,
0010
0010
0200
0300
,
0010
0001
0100
0010
,
1000
0001
1000
1001
,
0010
0100
0020
0030
,
0100
0001
0010
0110
,
0010
0001
2000
3000
,
0001
0010
0100
1100
,
1000
0010
0100
0001
,
2000
3000
0200
0300
,
0020
0030
0002
0003
,
1000
0010
0100
0001
,
1000
0100
0010
0000
,
0001
0010
0100
1000
,
0010
0100
0001
0000
,
1000
0010
0001
0010
,
1000
0100
0010
0000
,
0001
0010
1000
0010
,
0001
0100
0010
0000
,
1000
0001
1001
0000
,
0010
0100
0001
0000
,
0010
0100
0110
0000
,
0010
0001
1000
0000
,
0100
0010
0110
0000
,
0100
1000
0001
0000
,
0100
0010
1010
0000
,
0010
1000
0200
0000
,
0320
0000
0000
0030
,
0002
0000
0000
0003
,
2000
0000
0000
3000
,
0020
0000
0000
0030
,
0100
0010
0200
0300
,
0001
1000
0002
0003
,
1000
0100
0020
0030
,
0001
0100
0010
0010
,
1000
0001
1000
1001
,
0010
0100
0020
0030
,
0100
0010
0100
0110
,
0001
0010
0200
0300
,
0010
0001
0010
0011
,
0100
1000
0010
1000
,
0002
0003
2000
3000
,
0200
0300
0020
0030
,
0002
0003
2002
0000
,
0000
3003
0010
0100
,
0010
1000
0001
0010
,
0100
0000
0010
0100
,
0010
0001
1000
0100
,
0010
0000
0001
0010
,
0100
1000
0010
0100
,
0001
0000
1000
0010
,
0100
0001
1000
0100
,
0010
0000
0001
0010
,
0100
1100
1000
0010
,
0100
0000
0010
1000
,
0001
0101
0001
0010
,
0001
2000
3001
0100
,
0010
1010
1000
0010
,
0100
0000
0010
1000
,
0100
0110
0010
0001
,
1000
1001
0001
0100
,
0020
0030
1000
0100
,
0010
0200
0000
0000
,
0000
0000
0300
0000
;

//---------------dance-single - ----------------
#NOTES:
     dance-single:
     :
     Medium:
     10:
     0.469,0.482,0.150,0.241,0.139:
0000
0000
0000
0000
,
0000
0000
0000
0000
,
0000
0000
0000
0000
,
0000
0000
0000
0000
,
0000
0000
0000
0000
,
0010
0000
0000
0000
1000
0000
0000
0000
0010
0000
0000
1000
0000
0000
0001
0000
,
0010
0000
0000
0000
0001
0000
0000
0000
0010
0000
0000
0001
0000
0000
1000
0000
,
0100
1000
0020
0030
,
0200
0300
0220
0330
,
0001
0000
0000
0000
1000
0000
0000
0000
0001
0000
0000
0010
0000
0000
0100
0000
,
0010
0000
0000
0000
0001
0000
0000
0000
1000
0000
0000
0010
0000
0000
0100
0000
,
0010
0000
0000
0000
1000
0000
0000
0000
0001
0000
0000
1000
0000
0000
0001
0000
,
0010
0000
0100
0010
0002
0000
0003
0000
,
0100
0000
0000
0000
0010
0000
0000
0000
1000
0000
0000
0010
0000
0000
1000
0000
,
0001
0000
0000
0000
0010
0000
0000
0000
0100
0000
0000
0010
0000
0000
0001
0000
,
0100
0000
0000
0000
0010
0000
0000
0000
1000
0000
0000
0010
0000
0000
1000
0000
,
0001
0000
0000
0100
0000
0000
0010
0000
1000
0000
0000
0000
1001
0000
0000
0000
,
1000
0000
0000
0000
0100
0000
0000
0000
0010
0000
0000
0010
0000
0000
0001
0000
,
0100
0000
0000
0100
0000
0000
0001
0000
0000
0000
1000
0000
0002
0000
0000
0000
,
0013
0000
0000
0000
0001
0000
0000
0000
0100
0000
0000
0100
0000
0000
0010
0000
,
1000
0000
0000
1000
0000
0000
0100
0000
0000
0000
0100
0000
0020
0000
0000
0000
,
0130
0000
0000
0000
1000
0000
0000
0000
0010
0000
0000
0010
0000
0000
0100
0000
,
0001
0000
0000
0001
0000
0000
1000
0000
0000
0000
0100
0000
2000
0000
0000
0000
,
3010
0000
0000
0000
0100
0000
0000
0000
0010
0000
0000
0010
0000
0000
1000
0000
,
0001
0000
0000
0010
0000
0000
0100
0000
2000
0000
0000
0000
3020
0000
0000
0000
,
0130
0000
0110
0000
0100
0001
0010
0000
,
0100
0000
0110
0000
0100
1000
0010
0000
,
0100
0000
0101
0000
0001
1000
0100
0000
,
0010
0000
0011
0000
0001
1000
0010
0000
,
1000
0100
1000
0000
0001
0100
0001
0000
,
1000
0000
1010
0000
0001
0010
0001
0000
,
0100
0000
0101
0000
0001
0010
0100
0000
,
0010
0000
0000
0001
0000
0000
1000
0000
0002
0000
0000
0000
1003
0000
0000
0000
,
0001
0000
0000
0000
0010
0000
0000
0000
0001
0000
0000
0100
0000
0000
0010
0000
,
1000
0010
0100
0000
0001
0010
0001
0000
,
1000
0000
0000
0000
0100
0000
0000
0000
1000
0000
0000
0010
0000
0000
1000
0000
,
0001
1000
0010
0100
0002
0000
1003
0000
,
0001
0000
0000
0000
0010
0000
0000
0000
0001
0000
0000
0100
0000
0000
0001
0000
,
1000
0100
0010
0000
0100
1000
0010
0000
,
0100
0000
0000
0000
0010
0000
0000
0000
0100
0000
0000
0001
0000
0000
1000
0000
,
0001
1000
0100
1000
0020
0000
0130
0000
,
0010
0000
0000
0000
1010
0000
0000
0000
0100
0000
0000
0001
0000
0000
1000
0000
,
0001
0010
0100
0000
1000
0010
0100
0000
,
0001
0000
0000
0000
0011
0000
0000
0000
0100
0000
0000
1000
0000
0000
0001
0000
,
1000
0010
0100
0001
2000
0000
3020
0000
,
1030
0000
0000
0000
1100
0000
0000
0000
0100
0000
0000
0010
0000
0000
0100
0000
,
1000
0010
0100
0000
0001
1000
0010
0000
,
0100
0000
0000
0000
0101
0000
0000
0000
0001
0000
0000
0010
0000
0000
0001
0000
,
1000
0010
0100
0001
0020
0000
0130
0000
,
0020
0000
0000
0030
,
0002
0000
0000
0003
,
2000
0000
0000
3000
,
0020
0000
0000
0030
,
0100
0010
0200
0300
,
0001
1000
0002
0003
,
1000
0100
0020
0030
,
0001
1000
2002
3003
,
0010
0000
1000
0000
0010
1000
0100
0000
,
0010
0000
0001
0000
0100
0001
1000
0000
,
0001
0000
0010
0000
0100
1000
0010
0000
,
0100
0000
0010
0000
1000
0100
0010
0000
,
0001
0000
0011
0000
0001
0100
0010
0000
,
1000
0000
1010
0000
1000
0010
0100
0000
,
0010
0000
1000
0000
0001
1000
0100
0000
,
0010
0000
0000
0010
0000
0000
0001
0000
0200
0000
0000
0000
0310
0000
0000
0000
,
1000
0000
0000
1000
0000
0000
0100
0000
0020
0000
0000
0000
0031
0000
1000
0000
,
0001
1001
1000
0010
,
1000
0000
0000
0100
0000
0000
0010
0000
0001
0000
0100
0000
0001
0000
0000
0000
,
0100
0010
1000
0000
0010
0000
0100
0000
,
0001
0000
0000
1000
0000
0000
0001
0000
0010
0000
0001
0000
1000
0000
0100
0000
,
0020
0130
1000
0010
,
0100
0000
0000
0001
0000
0000
1000
0000
0010
0000
1000
0000
0001
0000
0000
0000
,
0100
0001
0010
0000
0001
0000
0100
0000
,
0010
0000
0000
1000
0000
0000
0001
0000
1000
0000
0100
0000
0010
0000
0001
0000
,
0200
0310
0100
0101
,
0001
0000
0000
0010
0000
0000
0001
0000
1000
0000
0010
0000
1000
0000
0000
0000
,
0001
0010
0001
0000
1000
0000
1100
0000
,
0010
0000
0000
0100
0000
0000
1000
0000
0010
0000
0100
0000
0001
0000
1000
0000
,
0020
0230
0301
0101
,
0001
0000
0000
1000
0000
0000
0001
0000
0010
0000
0001
0000
0100
0000
0000
0000
,
0010
1000
0100
0000
1000
0000
1010
0000
,
0100
0000
0000
0010
0000
0000
1000
0000
0001
0000
0001
0000
1000
0000
1000
0000
,
0100
0010
0001
0000
1000
0000
1000
0000
,
0100
0100
0010
0010
,
0001
0000
0000
1000
0000
0000
0002
0000
0000
0000
0000
0000
0000
0000
0000
0000
,
0000
0000
0003
0000
;

//---------------dance-single - ----------------
#NOTES:
     dance-single:
     :
     Hard:
     13:
     0.600,0.610,0.278,0.286,0.267:
0000
0000
0000
0000
,
0000
0000
0000
0000
,
0000
0000
0000
0000
,
0000
0000
0000
0000
,
0000
0000
0000
0000
,
0001
0000
0000
0000
0010
0000
0000
0000
0001
0100
0000
0010
0000
0000
1000
0000
,
0010
0000
0000
0000
1000
0000
0000
0000
0100
0010
0000
0100
0000
0000
1000
0000
,
0010
0100
0202
0303
,
2020
0000
3030
0000
1000
0100
0010
0000
,
0100
0000
0000
0000
2100
0000
0000
0000
3001
0000
0000
0001
0010
0000
0001
0000
,
0100
0000
0010
0000
1000
0000
0001
0000
0100
0001
0000
0010
0000
0000
0001
0000
,
1000
0000
0000
0000
1002
0000
0000
0000
0013
0000
0000
0010
0001
0000
1000
0000
,
0001
0010
1000
0010
0200
0000
1300
0000
,
0010
0000
0000
0000
0210
0000
0000
0000
0301
0000
0000
0001
0100
0000
0001
0000
,
1000
0000
0100
0000
0010
0000
0001
0000
1000
0010
0000
0100
0000
0000
0010
0000
,
1000
0000
0000
0000
1020
0000
0000
0000
0130
0000
0000
0100
0010
0000
1000
0000
,
0001
0000
0000
1100
0000
0000
0001
0000
0020
0000
0000
0000
0031
0000
0000
0000
,
1000
0000
0000
0000
0100
0000
0000
0000
0010
0000
0000
0010
0001
0000
0100
0000
,
0001
0000
0000
0001
0100
0000
0001
0000
1000
0000
0010
0000
1000
0100
0000
0000
,
0010
0000
0000
0000
0100
0000
0000
0000
1000
0000
0000
1000
0010
0000
0100
0000
,
0001
0000
0000
0001
0010
0000
0001
0000
1000
0000
0001
0000
0100
0010
0000
0000
,
0100
0000
0000
0000
0010
0000
0000
0000
0100
0000
0000
0100
0001
0000
1000
0000
,
0100
0000
0000
0100
1000
0000
0001
0000
0010
0000
0001
0000
1000
0001
0000
0000
,
0010
0000
0000
0000
0100
0000
0000
0000
0010
0000
0000
0010
0001
0000
1000
0000
,
0010
1000
0001
0100
0010
1000
0001
0010
,
0001
0000
1001
0000
0010
0100
0001
0000
,
0010
0000
0011
0000
1000
0100
0010
0000
,
0100
0000
1100
0000
0001
0010
0100
0000
,
0010
0000
1001
0000
0010
0100
0001
0000
,
1000
0000
0000
0000
1010
0000
0000
0000
0100
0010
0000
1000
0000
0000
0001
0000
,
0010
0000
0000
0000
0011
0000
0000
0000
1000
0100
0000
0010
0000
0000
0001
0000
,
1000
1001
0010
0110
,
0100
0000
0000
0101
0000
0000
0010
0000
2000
0000
0000
0000
3001
0000
0000
0000
,
1000
0000
0100
0000
0010
0000
0000
0000
0100
0000
0000
0100
1000
0000
0001
0000
,
0100
0000
0001
0000
0010
0000
0000
0000
0001
1000
0000
0010
0000
0000
0100
0000
,
0001
0000
0100
0000
0010
0000
0000
0000
0100
0000
0000
0100
0001
0000
1000
0000
,
0001
0010
0100
1000
0002
0000
1003
0000
,
0001
0000
0100
0000
0010
0000
0000
0000
0100
0000
0000
0100
0001
0000
1000
0000
,
0001
0000
0010
0000
0100
0000
0000
0000
0010
0001
0000
1000
0000
0000
0001
0000
,
1000
0000
0010
0000
0100
0000
0000
0000
0010
0000
0000
0010
1000
0000
0001
0000
,
1000
0100
0010
0001
2000
0000
3001
0000
,
0100
0000
0000
0000
0101
0000
0000
0000
0001
0000
0000
0001
0010
0000
0001
0000
,
1000
0000
0100
0000
0010
0000
0001
0000
1000
0010
0000
1000
0000
0000
0001
0000
,
0100
0000
0000
0000
0110
0000
0000
0000
0010
0000
0000
0010
1000
0000
0001
0000
,
1000
0010
0001
0010
2000
0000
3002
0000
,
1003
0000
0100
0000
0010
0000
0100
0000
1000
0001
0000
0100
0000
0000
0010
0000
,
1000
0000
0001
0000
0010
0000
0001
0000
1000
0100
0000
0010
0000
0000
0001
0000
,
0100
0000
0000
0000
0110
0000
0000
0000
0001
0000
0000
0001
1000
0000
0001
0000
,
1000
0000
0000
1100
0000
0000
0101
0000
0010
0000
1000
0000
0001
0000
0000
0000
,
2000
0000
0000
3000
,
0002
0000
0000
0003
,
0020
0000
0000
0030
,
0200
0000
0010
0310
,
2001
0010
0000
3010
,
0002
0010
0000
0013
,
1001
1100
1002
0103
,
0010
0010
0100
0100
0001
1000
0100
0000
,
1000
0000
1010
0000
1000
0100
0010
0000
,
0001
0000
0011
0000
0001
0100
0020
0000
,
0130
0000
0110
0000
0001
1000
0100
0000
,
0010
0000
0110
0000
1000
0001
0020
0000
,
0031
0000
0100
0000
0001
0000
0000
0000
1000
0010
0000
1000
0000
0000
0001
0000
,
1000
0000
0100
0000
1000
0000
0000
0000
0001
0010
0000
0001
0000
0000
1000
0000
,
0001
0100
0010
0000
1000
0100
0010
0000
,
0001
0000
0000
1001
0000
0000
0110
0000
0002
0000
0000
0000
1003
0000
0100
0000
,
0010
0000
0000
0110
0000
0000
1001
0000
0020
0000
0000
0000
0130
0000
0001
0000
,
1000
0100
0010
0000
0001
0000
0101
0000
,
0001
0000
0000
0001
0010
0000
0001
0000
1000
0000
0100
0000
0010
0000
0001
0000
,
1000
0020
0032
0013
1000
0000
1100
0000
,
1000
0000
0000
1000
0010
0000
1000
0000
0001
0000
0010
0000
1000
0000
0010
0000
,
0200
0310
0001
1001
,
0010
0000
0000
0010
0100
0000
0001
0000
1000
0000
0010
0000
0100
0000
0001
0000
,
1000
0200
0302
0103
1000
0000
1010
0000
,
1000
0000
0000
1000
0010
0000
0001
0000
0010
0000
1000
0000
0100
0000
1000
0000
,
0001
1000
0001
1000
0001
0000
0000
0000
0010
0000
0001
0000
0100
0000
0000
0000
,
0001
0000
0000
0100
0001
0000
1000
0000
0100
0000
0010
0000
0100
0000
1000
0000
,
0001
0020
2030
3010
0001
1000
0100
0000
,
1000
0000
0000
0010
1000
0000
0001
0000
1000
0000
0010
0000
0001
0000
0100
0000
,
2000
0000
3002
0000
1003
0100
0010
0100
,
1000
0001
0000
0100
0000
0000
0010
0000
1000
0000
0010
0000
0100
0000
0001
0000
,
0010
2000
3020
0031
1000
0100
0010
0001
,
0100
0001
0000
0100
0000
0000
1000
0000
0100
0000
0000
0100
0010
0000
1000
0000
,
0001
0010
0001
0010
0001
0000
1000
0000
0001
0000
0100
0000
0001
0000
0000
0000
,
1000
0010
0000
1000
0000
0000
1000
0000
0001
0000
0010
0000
0001
0000
0000
0000
,
1000
0100
0000
0001
0000
0000
0200
0000
0000
0000
0000
0000
0000
0000
0000
0000
,
0000
0000
0300
0000
;

//---------------dance-single - ----------------
#NOTES:
     dance-single:
     :
     Challenge:
     16:
     0.869,0.835,0.413,0.105,0.714:
0000
0000
0000
0000
,
0000
0000
0000
0000
,
0000
0000
0000
0000
,
0000
0000
0000
0000
,
0000
0000
0000
0000
,
0101
0000
0010
0000
1000
0000
0100
0000
0010
0100
0000
1000
0000
0000
0010
0000
,
0100
0000
0001
0000
0010
0000
0001
0000
1000
0010
0000
0100
0000
0000
0010
0000
,
1001
0000
0010
0000
1100
0000
0010
0000
0001
0100
0000
0010
0000
0000
1000
0000
,
0001
0000
0001
0000
0010
0000
0010
0000
0001
1000
0100
1000
0001
0000
1000
0000
,
1001
0000
0010
0000
0100
0000
0010
0000
1000
0010
0000
1000
0001
0000
0010
0000
,
0001
0000
0100
0000
0001
0000
0010
0000
0100
0010
0000
0001
1000
0000
0010
0000
,
1000
0000
0100
0000
0010
0000
0001
0000
1000
0010
0000
0100
0010
0000
1000
0000
,
0001
0000
0010
0100
1000
0000
0010
0000
0200
0000
0000
0000
0310
0000
0000
0000
,
1000
0000
0010
0000
0100
0000
0010
0000
1000
0100
0000
0001
0100
0000
1000
0000
,
0010
0000
0100
0000
0001
0000
1000
0000
0001
0010
0000
1000
0010
0000
0001
0000
,
0100
0000
0010
0000
1000
0000
0010
0000
0100
0001
0000
1000
0001
0000
0010
0000
,
0011
0000
0000
0101
0000
0000
1001
0000
1000
0100
1000
0001
1000
0000
0001
0000
,
0011
0000
0000
0001
0100
0000
0000
0100
0001
0000
1000
0001
0010
0000
0001
0000
,
1000
0000
0000
1000
0100
0000
1000
0000
0010
0000
0100
0010
1000
0002
0000
0000
,
0013
0000
0000
0010
0001
0000
0000
0001
0100
0000
0010
1000
0001
0000
1000
0000
,
0010
0000
0000
0010
0100
0000
0001
0000
1000
0000
0001
0010
0100
2000
0000
0000
,
3001
0000
0000
0001
0100
0000
0000
0100
0010
0000
1000
0100
0010
0000
0100
0000
,
1000
0000
0000
1000
0010
0000
0100
0000
0001
0000
1000
0001
0010
0002
0000
0000
,
0103
0000
0000
0100
0010
0000
0000
0010
1000
0000
0001
0100
0010
0000
0100
0000
,
0001
0000
1000
0100
0000
1000
0001
0000
0100
0010
1000
0001
1000
0001
1000
0001
,
0100
0000
0010
0000
1010
0000
0100
0000
0001
0010
0000
0001
1000
0000
0001
0000
,
0010
0000
0001
0000
0011
0000
0001
0000
1000
0100
0000
0010
0100
0000
1000
0000
,
0010
0000
0100
0000
0101
0000
0001
0000
1000
0010
0000
0100
0010
0000
1000
0000
,
0001
0000
0010
0000
0110
0000
0010
0000
0001
0100
0000
0001
1000
0000
0001
0000
,
1000
0000
0010
0000
0101
0000
0010
0000
1000
0100
0000
0001
0100
0000
1000
0000
,
0001
0000
0010
0000
1100
0000
0010
0000
0001
0100
0000
1000
0100
0000
0001
0000
,
0010
0000
0100
0010
0001
0000
1000
0000
0010
0000
0100
0010
1000
0000
0010
0100
,
0001
0000
0000
0101
0000
0000
1100
0000
0001
0010
0100
1000
0001
0100
0001
1000
,
0001
0000
0010
0000
1100
0000
0010
0000
0001
0100
0000
0010
1000
0000
0010
0000
,
1000
0000
0100
0000
0011
0000
0100
0000
1000
0100
0010
0000
0001
0000
1000
0000
,
0010
0000
0100
0000
1010
0000
0001
0000
0100
0001
0000
1000
0100
0000
1000
0010
,
0100
0000
0001
0010
0100
0000
1000
0000
0010
0100
0001
0100
0010
0000
1000
0000
,
0001
0000
0010
0000
0101
0000
0010
0000
1000
0100
0000
1000
0010
0000
0100
0000
,
0010
0000
1000
0000
0101
0000
1000
0000
0001
0000
0010
0100
1000
0000
0001
0000
,
1000
0000
0001
0000
0110
0000
0001
0000
0100
0010
0000
1000
0001
0000
0010
0001
,
0100
0000
0001
0000
1000
0000
0010
0100
0001
1000
0001
0010
0001
0000
1000
0000
,
0001
0000
1000
0000
0101
0000
1000
0000
0010
1000
0000
0001
0100
0000
0001
0000
,
1000
0000
0001
0000
1100
0000
0001
0000
1000
0000
0100
0010
0001
0000
1000
0000
,
0010
0000
1000
0000
0101
0000
1000
0000
0010
0100
0000
0010
1000
0000
0001
0010
,
1000
0000
0010
0000
0001
0000
1000
0100
0001
0000
0100
0000
2000
0000
0000
0000
,
3010
0000
0100
0000
1010
0000
0001
0000
0100
0001
0000
0010
0001
0000
1000
0001
,
0010
0000
0001
0000
1100
0000
0001
0000
0100
0000
0010
1000
0001
0000
1000
0000
,
0001
0000
0100
0000
0011
0000
1000
0000
0100
1000
0000
0010
0100
0000
0010
1000
,
0100
0000
0010
0100
0000
1000
0001
0000
0100
0010
1000
0001
1000
0001
1000
0100
,
0010
0001
0100
1000
0200
0000
0301
0010
,
1000
0010
0001
0100
0020
0000
1030
0001
,
1000
0100
0001
0100
2000
0000
3001
0010
,
0001
0011
1000
1100
,
1001
0000
0000
0000
1010
0000
0000
0000
2100
0000
0000
3001
1000
0000
0001
0000
,
1000
0000
0010
0000
0100
0000
0001
0000
1000
0000
0001
1000
0002
0000
0013
0000
,
0101
0000
0010
0000
0110
0000
0010
0000
2010
0000
0000
3001
0010
0000
0001
0000
,
1000
0000
1000
0000
0100
0000
0100
0000
1000
0010
0100
0001
1000
0000
0001
0000
,
1000
0000
0100
0010
0001
0000
0100
0000
0110
0000
0000
0010
1000
0000
0001
0000
,
0010
0000
0001
1000
0010
0000
0100
0000
0010
0000
1000
0001
0100
0000
0001
0000
,
1000
0000
0001
0010
0100
0000
0010
0000
0110
0000
0000
0010
0001
0000
1000
0000
,
0010
0000
1000
0010
0100
0000
0001
0100
0010
0000
1000
0000
0001
0000
1000
0000
,
0001
0000
0010
0000
0011
0000
0001
0000
0100
0000
0000
0100
0001
0000
1000
0000
,
0010
0000
1000
0000
1010
0000
1000
0000
0100
0000
0000
0100
0010
0000
0100
0000
,
1000
0000
0001
0100
0000
0001
1000
0000
0001
0000
1000
0100
0000
1000
0001
0000
,
1001
0000
0000
0110
0000
0000
1001
0000
1000
0100
0010
0100
1000
0000
0001
0000
,
1001
0000
0000
0110
0000
0000
0101
0000
0001
0100
0010
0100
0001
0000
1000
0001
,
0200
0000
0310
0000
1000
0010
0101
0010
,
1000
0100
0000
0001
0010
0000
0001
0000
0100
0000
1000
0000
0011
0000
1000
0000
,
0010
0100
0001
0000
1000
0000
0001
0000
0010
0000
0001
0000
1100
0000
0001
0000
,
1000
0010
0000
0001
0100
0000
1000
0001
0010
0000
0100
0000
1000
0010
0100
0001
,
1000
0001
1001
0001
0010
0001
1100
0001
,
0010
0001
0000
0100
1000
0000
0100
0010
1000
0000
0001
0000
0010
0000
0001
1000
,
0010
0000
0100
0001
1000
0000
0001
0000
1000
0000
0100
0000
0011
0000
0100
0000
,
0010
1000
0000
0100
0001
0000
0100
1000
0010
0000
0100
0000
0001
0000
1000
0001
,
0100
0001
1000
0001
1000
0000
0001
0000
1010
0000
0010
0100
0001
0000
1000
0100
,
0010
0001
0000
0001
1000
0000
0001
0010
0100
0000
0010
0001
1000
0000
0001
0100
,
0010
0000
1000
0001
0100
0000
0010
1000
0100
0000
0010
0100
1000
0000
0100
0010
,
0001
0100
0000
0100
0010
0000
1000
0001
0100
0000
0001
1000
0010
0000
1000
0010
,
0100
0001
2000
0010
3010
1000
0101
1000
,
0100
0001
0000
0010
1000
0000
0010
0001
0100
0000
0010
1000
0001
0000
1000
0100
,
0010
0100
0000
0100
1000
0000
0010
0000
1000
0000
0100
0000
1010
0000
0001
0000
,
0100
1000
0000
0010
0001
0000
0010
1000
0100
0000
0010
0100
0000
1000
0001
0000
,
0100
0010
0100
0010
1000
0001
1000
0001
1000
0000
0100
0000
0010
0000
0001
0000
,
1000
0100
0000
0001
0000
0000
0100
0000
1000
0000
0010
0000
0100
0000
0001
0000
,
1000
0010
0000
0001
0000
0000
0020
0000
0000
0000
0000
0000
0000
0000
0000
0000
,
0000
0000
0030
0000
;

//---------------dance-double - ----------------
#NOTES:
     dance-double:
     :
     Easy:
     6:
     0.316,0.353,0.195,0.218,0.000:
00000000
00000000
00000000
00000000
,
00000000
00000000
00000000
00000000
,
00000000
00000000
00000000
00000000
,
00000000
00000000
00000000
00000000
,
00000000
00000000
00000000
00000000
,
00000010
00000100
00000220
00000330
,
00020000
00030000
00002000
00003000
,
01000000
00100000
02200000
03300000
,
20000000
00000000
00020000
30030000
,
10000000
01000000
00010000
00010100
,
00000100
00000010
00000001
00000000
,
00000001
00000100
00010000
00010100
,
00010000
00001000
00200000
00300000
,
01000000
00010000
00001000
00000110
,
00000001
00000100
00000010
00001000
,
00000100
00001000
00010000
01100000
,
10000000
00010000
02000000
03000000
,
00100000
00100000
00200000
00300000
,
01000000
00000000
00001000
00000000
,
00010000
00010000
00020000
00030000
,
00000010
00000000
00000100
00000000
,
00000001
00000001
00000002
00000003
,
00000010
00000000
00000100
00000000
,
00010000
00010000
00020000
00030000
,
00001000
00000000
01000000
00000000
,
00100000
10000000
01000000
00010000
,
00001000
00000010
00000110
00000000
,
00000001
00000100
00001000
00010000
,
01000000
00100000
00110000
00000000
,
10000000
01000000
00010000
00001000
,
00000010
00000001
00000100
00000000
,
00000020
00000000
00001030
00000000
,
00000200
00000000
00010300
00000000
,
00001000
00010000
00011000
00000000
,
00001000
01000000
00100000
00000000
,
10000000
01000000
00010000
00001000
,
00000010
00000001
00000100
00000000
,
00000001
00000100
00000110
00000000
,
00010000
00001000
00011000
00000000
,
00001000
00100000
10000000
01000000
,
00010000
00000010
00000001
00000000
,
00000100
00000010
00000110
00000000
,
00010000
00001000
00011000
00000000
,
00001000
00100000
00010000
10000000
,
01000000
00010000
00000100
00000020
,
00000031
00000100
00000101
00000000
,
00000010
00010000
00011000
00000000
,
00001000
00100000
00010000
10000000
,
00100000
01000000
00002000
00000000
,
00013000
00000000
00000000
00000000
,
00000000
00000000
00000000
00000000
,
00000000
00000000
00000000
00000000
,
00000000
00000000
00000000
00000000
,
00000020
00000100
00000000
00000130
,
00000002
00001000
00000000
00001003
,
00000100
00010000
00011000
00000000
,
00100000
00010000
10010000
00010000
,
10000000
01000000
01000000
00010000
,
00001000
00000010
00000001
00000000
,
00000001
00000100
00000100
00001000
,
00010000
00100000
10000000
00000000
,
10000000
01000000
00010000
00001000
,
00000010
00000001
00000010
00001000
,
00020000
00000000
00002000
00033000
,
00001000
01000000
02200000
03300000
,
10000000
01000000
00202000
00000000
,
00003000
00301000
00010000
00001000
,
00011000
00000000
00010000
00000010
,
00000100
00000000
00000001
00000010
,
00000100
00001000
00010000
00100000
,
10000000
00000000
01000000
10000000
,
11000000
00000000
10000000
00100000
,
01100000
00000000
10000000
00100000
,
01000000
00010000
00001000
00000010
,
00000001
00000000
00000100
00000001
,
00000011
00000000
00000100
00010000
,
00011000
00000000
00001000
00010000
,
00100000
10000000
01000000
00010000
,
00001000
00000020
00000031
00001000
,
00001001
00000000
00000100
00010000
,
00010100
00000000
00001000
00010000
,
00100000
01000000
00010000
00001000
,
00000020
00000000
00000130
00000000
,
00000000
00000000
00000010
00000000
,
00001000
00000000
00000000
00020000
,
00000000
00000000
00030000
00000000
;

//---------------dance-double - ----------------
#NOTES:
     dance-double:
     :
     Medium:
     10:
     0.510,0.578,0.398,0.481,0.116:
00000000
00000000
00000000
00000000
,
00000000
00000000
00000000
00000000
,
00000000
00000000
00000000
00000000
,
00000000
00000000
00000000
00000000
,
00000000
00000000
00000000
00000000
,
00010000
00000100
00020200
00030300
,
00020000
00030000
00002000
00003000
,
01000000
00001000
02002000
03003000
,
00200000
00300000
02000000
03000000
,
00100000
00000000
00001000
00000000
00010000
00000000
00000000
00000000
00000010
00000000
00000000
00000100
00000000
00000000
00000001
00000000
,
00000010
00000000
00000100
00000000
00010000
00000000
00000000
00000000
00001000
00000000
00000000
00100000
00000000
00000000
00000000
00000000
,
00010000
00000000
01000000
00000000
00100000
00000000
00000000
00000000
10000000
00000000
00000000
01000000
00000000
00000000
00010000
00000000
,
00001000
00000010
00000001
00000000
00000220
00000000
00000330
00000000
,
00000001
00000000
00000100
00000000
00000010
00000000
00000000
00000000
00010000
00000000
00000000
00001000
00000000
00000000
01000000
00000000
,
00100000
00000000
10000000
00000000
00010000
00000000
00000000
00000000
10000000
00000000
00000000
01000000
00000000
00000000
00100000
00000000
,
00001000
00000000
00010000
00000000
00000010
00000000
00000000
00000000
00000100
00000000
00000000
00000001
00000000
00000000
00000100
00000000
,
00010000
00100000
10000000
00000000
00100000
00000000
01100000
00000000
,
10000000
00000000
01000000
00000000
00020000
00000000
00000000
01030000
,
10000000
00000000
00000000
00010000
00000000
00000000
01000000
00000000
00001000
00000000
00000000
00010000
00000000
00000000
00000010
00000000
,
00000001
00000000
00000010
00000000
00002000
00000000
00000000
00013000
,
00100000
00000000
00000000
10000000
00000000
00000000
00100000
00000000
01000000
00000000
00000000
00100000
00000000
00000000
00001000
00000000
,
00010000
00000000
00001000
00000000
00000200
00000000
00000000
00000310
,
00000001
00000000
00000000
00000100
00000000
00000000
00000010
00000000
00010000
00000000
00000000
00001000
00000000
00000000
00100000
00000000
,
00010000
01000000
20000000
31000000
,
00100000
01000000
00010000
00001000
,
00000010
00000100
00010000
00000000
00000100
00000000
00010100
00000000
,
00010000
00011000
00202000
00303000
,
00010000
01000000
00100000
00000000
01000000
00000000
01100000
00000000
,
01000000
01001000
00202000
00303000
,
00010000
00001000
00000010
00000000
00000001
00000100
00000010
00000000
,
00001000
00010000
00100000
00000000
10000000
01000000
00100000
00000000
,
02000000
13000000
00200000
01300000
,
00001000
00000000
00000000
00010000
00000000
00000000
00001000
00000000
00022000
00000000
00000000
00000000
00033000
00000000
00000000
00000000
,
01000000
00000000
00000000
00000000
00100000
00000000
00000000
00000000
01000000
00000000
00000000
00010000
01000000
00000000
00000000
00000000
,
00010000
00100000
00001000
00000000
00020000
00000000
00030000
00000000
,
00000010
00000000
00000000
00000000
00000100
00000000
00000000
00000000
00000001
00000000
00000000
00000010
00000100
00000000
00000000
00000000
,
00000010
00000001
00001000
00000000
00000020
00000000
00000030
00000000
,
00010000
00000000
00000000
00000000
00001000
00000000
00000000
00000000
00100000
00000000
00000000
00010000
01000000
00000000
00000000
00000000
,
00100000
10000000
01000000
00000000
00200000
00000000
00300000
00000000
,
01000000
00000000
00000000
00000000
00100000
00000000
00000000
00000000
00001000
00000000
00000000
00010000
00001000
00000000
00000000
00000000
,
00010000
00000010
00000100
00000000
00000020
00000000
00020030
00000000
,
00031000
00000000
00000000
00000000
00011000
00000000
00000000
00000000
00001000
00000000
00000000
01000000
00001000
00000000
00000000
00000000
,
01000000
00100000
10000000
00000000
02000000
00000000
03100000
00000000
,
00001000
00000000
00000000
00000000
00101000
00000000
00000000
00000000
00001000
00000000
00000000
00010000
00001000
00000000
00000000
00000000
,
00010000
00000010
00000100
00000000
00000020
00000000
00002030
00000000
,
00003001
00000000
00000000
00000000
00000011
00000000
00000000
00000000
00000100
00000000
00000000
00010000
00000100
00000000
00000000
00000000
,
00001000
00010000
01000000
00000000
01200000
00000000
10300000
00000000
,
00100000
00000000
00000000
00000000
01100000
00000000
00000000
00000000
01000000
00000000
00000000
00001000
00010000
00000000
00000000
00000000
,
00000010
00001000
00000100
00001000
00000020
00000000
00000130
00000000
,
00000220
00000000
00000000
00000000
,
00000000
00000000
00000000
00000330
,
00020000
00000000
00000000
00030000
,
00002000
00003000
02000000
03000000
,
01100000
10010000
02200000
03300000
,
02002000
03003000
00202000
00303000
,
00000110
00001001
00000220
00000330
,
00000202
00000303
00020020
00030030
,
00010000
00000000
00011000
00000000
00001000
01000000
00010000
00000000
,
10000000
11000000
02200000
03300000
,
00100000
00000000
00101000
00000000
00010000
00001000
00000010
00000000
,
00000100
00000110
00000022
00000033
,
00000100
00000000
00000101
00000000
00000010
00001000
00010000
00000000
,
00100000
00000000
00110000
00000000
00010000
00001000
00000010
00000000
,
00000120
00010030
00201000
00310000
,
01000000
00000000
00000000
01010000
00000000
00000000
00001000
00000000
00200000
00000000
00000000
00000000
00301000
00000000
00000000
00000000
,
00010000
00000000
00000000
00010010
00000000
00000000
00000100
00000000
00000020
00000000
00000000
00000000
00010030
00000000
00001000
00000000
,
00010000
00011000
00001000
01000000
,
00100000
00000000
00000000
10000000
01000000
00000000
00000000
00000000
00100000
00000000
00010000
00000000
00001000
00000000
00000000
00000000
,
00000100
00000010
00000001
00000000
00000100
00000000
00000010
00000000
,
00000100
00000000
00000000
00000010
00010000
00000000
00000000
00000000
00001000
00000000
00010000
00000000
00100000
00000000
10000000
00000000
,
02000000
03100000
00010000
01000000
,
00010000
00000000
00000000
00100000
00001000
00000000
00000000
00000000
00010000
00000000
00001000
00000000
00000010
00000000
00000000
00000000
,
00000001
00000100
00001000
00000000
00010000
00000000
00000100
00000000
,
00100000
00000000
00000000
00001000
01000000
00000000
00000000
00000000
00100000
00000000
10000000
00000000
00010000
00000000
00100000
00000000
,
00002000
00013000
00011000
00010100
,
00000010
00000000
00000000
00000100
00010000
00000000
00000000
00000000
00001000
00000000
00010000
00000000
00100000
00000000
01000000
00000000
,
00100000
00101000
00011000
00010100
,
00000110
00000000
00000000
00000001
00000100
00000000
00000000
00000000
00000010
00000000
00001000
00000000
00010000
00000000
00100000
00000000
,
10000000
01100000
11000000
01100000
,
00101000
00000000
00000000
00001000
00010000
00000000
00000000
00000000
00010000
00000000
00001000
00000000
00000010
00000000
00000001
00000000
,
00000200
00000301
00000011
00000110
,
00010100
00000000
00000000
00000100
00010000
00000000
00000000
00000000
00001000
00000000
00010000
00000000
00100000
00000000
10000000
00000000
,
02000000
13000000
00100000
01000000
,
00002000
00003000
00010000
00000010
,
00000200
00000000
00000000
00000020
,
00000000
00000000
00000330
00000000
;

//---------------dance-double - ----------------
#NOTES:
     dance-double:
     :
     Hard:
     12:
     0.581,0.578,0.233,0.158,0.256: // measure 1
00000000
00000000
00000000
00000000
,  // measure 2
00000000
00000000
00000000
00000000
,  // measure 3
00000000
00000000
00000000
00000000
,  // measure 4
00000000
00000000
00000000
00000000
,  // measure 5
00000000
00000000
00000000
00000000
,  // measure 6
00100000
00000000
00000000
00000000
01000000
00000000
00000000
00000000
00001000
00100000
00000000
00001000
00000000
00000000
00010000
00000000
,  // measure 7
00000010
00000000
00000000
00000000
00000100
00000000
00000000
00000000
00000001
00000010
00000000
00000001
00000000
00000000
00001000
00000000
,  // measure 8
00000100
00010000
00022000
00033000
,  // measure 9
00100000
00000000
00100000
00000000
01000000
00000000
00000000
00000000
10000000
00010000
00000000
01000000
00001000
00000000
00010000
00000000
,  // measure 10
00000010
00000000
00000000
00000000
00001010
00000000
00000000
00000000
00001000
00000000
00000000
00001000
00000100
00000000
00000010
00000000
,  // measure 11
00000001
00000100
00000001
00000000
00002000
00000000
00003010
00000000
,  // measure 12
00010000
00000000
00000000
00000000
00011000
00000000
00000000
00000000
00001000
00000000
00000000
00001000
01000000
00000000
00010000
00000000
,  // measure 13
00100000
01000000
10000000
01000000
00020000
00000000
00030000
00000000
,  // measure 14
00000010
00000000
00000000
00000000
00000011
00000000
00000000
00000000
00000001
00000000
00000000
00000001
00000100
00000000
00000010
00000000
,  // measure 15
00001000
00000000
00000100
00000000
00010000
00000000
00001000
00000000
01000000
00000000
00000000
01000000
00100000
00000000
10000000
00000000
,  // measure 16
01000000
00000000
00000000
00000000
11000000
00000000
00000000
00000000
10000000
00000000
00000000
10000000
00100000
00000000
01000000
00000000
,  // measure 17
00001000
00000000
00000000
00011000
00000000
00000000
00010000
00000000
00000010
00000000
00000100
00000000
00000001
00000000
00001000
00000000
,  // measure 18
00000001
00000000
00000010
00000000
00001000
00000000
00010000
01000000
,  // measure 19
10000000
00000000
00000000
01000000
00000000
00000000
00100000
00000000
00001000
00000000
00010000
00000000
00001000
00000000
00000010
00000000
,  // measure 20
00000001
00000000
00000100
00000000
00001000
00000000
00010000
00100000
,  // measure 21
10000000
00000000
00000000
00100000
00000000
00000000
01000000
00000000
00001000
00000000
00010000
00000000
00000010
00000000
00000100
00000000
,  // measure 22
00000001
00000000
00000100
00000000
00001000
00000000
00010000
01000000
,  // measure 23
10000000
00000000
00000000
00100000
00000000
00000000
01000000
00000000
00001000
00000000
00000100
00000000
00000001
00000000
00000010
00000000
,  // measure 24
00001000
00000000
00000010
00000000
00000011
00000000
00000001
00000100
,  // measure 25
00000010
00000000
00010000
00000000
00001000
01000000
00010000
00000000
,  // measure 26
10000000
00000000
01000000
00000000
00100000
00000000
00000000
00000000
01000000
00000000
00000000
01000000
10000000
00000000
00010000
00000000
,  // measure 27
01000000
00000000
01001000
00000000
00001000
00100000
00010000
00000000
,  // measure 28
00100000
00000000
00001000
00000000
00010000
00000000
00000000
00000000
00000010
00000000
00000000
00000010
00000100
00000000
00000001
00000000
,  // measure 29
00000010
00000100
00001000
00000000
00010000
01000000
10000000
00000000
,  // measure 30
01000000
00000000
00100000
00000000
10000000
00000000
00000000
00000000
01000000
00000000
00000000
01000000
00100000
00000000
00001000
00000000
,  // measure 31
00010000
00000000
00000010
00000000
00000100
00000000
00000000
00000000
00000010
00000000
00000000
00000010
00001000
00000000
00000001
00000000
,  // measure 32
00000020
00000031
00000200
00010300
,  // measure 33
01000000
00000000
00000000
01100000
00000000
00000000
00001000
00000000
00020000
00000000
00000000
00000000
00031000
00000000
00000000
00000000
,  // measure 34
01000000
00000000
00000000
00000000
01010000
00000000
00000000
00000000
00010000
00100000
00000000
00001000
00000000
00000000
00010000
00000000
,  // measure 35
00000010
00000000
00000000
00000000
00001010
00000000
00000000
00000000
00000010
00001000
00000000
00000001
00000000
00000000
00000010
00000000
,  // measure 36
00000100
00000000
00000000
00000000
00010100
00000000
00000000
00000000
00001000
00010000
00000000
00001000
00000000
00000000
01000000
00000000
,  // measure 37
00100000
10000000
01000000
00100000
02000000
00000000
13000000
00000000
,  // measure 38
00100000
00000000
00000000
00000000
01100000
00000000
00000000
00000000
00010000
01000000
00000000
00001000
00000000
00000000
00100000
00000000
,  // measure 39
00001000
00000000
00000000
00000000
00011000
00000000
00000000
00000000
00000010
00001000
00000000
00000010
00000000
00000000
00000100
00000000
,  // measure 40
00000001
00000000
00000000
00000000
00000011
00000000
00000000
00000000
00000100
00001000
00000000
00010000
00000000
00000000
01000000
00000000
,  // measure 41
00100000
00010000
10000000
00000000
00100000
01000000
00001000
00000000
,  // measure 42
00010000
00000000
00000000
00000000
00011000
00000000
00000000
00000000
00010000
00000010
00000000
00000100
00000000
00000000
00000010
00000000
,  // measure 43
00001000
00000000
00000000
00000000
00001100
00000000
00000000
00000000
00000010
00000001
00000000
00000010
00000000
00000000
00000100
00000000
,  // measure 44
00010000
00000000
00000000
00000000
00011000
00000000
00000000
00000000
00001000
01000000
00000000
00100000
00000000
00000000
01000000
00000000
,  // measure 45
00010000
00100000
10000000
00100000
02000000
00000000
13000000
00000000
,  // measure 46
00100000
00000000
00000000
00000000
01100000
00000000
00000000
00000000
01000000
00010000
00000000
00001000
00000000
00000000
00000010
00000000
,  // measure 47
00000100
00000000
00000000
00000000
00000110
00000000
00000000
00000000
00000010
00001000
00000000
00010000
00000000
00000000
01000000
00000000
,  // measure 48
00100000
00000000
10000000
00000000
01000000
00000000
00000000
00000000
00110000
00000000
00000000
00001000
00010000
00000000
00000010
00000000
,  // measure 49
00000100
00000001
00001000
00000010
00000200
00000000
00000310
00000000
,  // measure 50
00000002
00000000
00000000
00000003
,  // measure 51
00000020
00000000
00000000
00000030
,  // measure 52
00000200
00000000
00020300
00000000
,  // measure 53
00031000
01000000
00100000
10000000
,  // measure 54
20010000
00000000
00000000
00000000
00100000
00000000
00000000
00000000
31000000
00000000
00000000
01000000
00100000
00000000
00001000
00000000
,  // measure 55
00020000
00000000
00000000
00000000
00000100
00000000
00000000
00000000
00031000
00000000
00000000
00001000
00100000
00000000
00010000
00000000
,  // measure 56
01000000
00100000
10000000
01000000
00010000
00000000
00001000
00000010
,  // measure 57
00000001
00000001
00001000
00000000
00010100
00000000
00011000
00000000
,  // measure 58
00001000
00000000
01000000
00000000
00100000
00000000
00000000
00000000
01000000
00000000
00000000
00010000
01000000
00000000
00010000
00000000
,  // measure 59
10000000
01000000
00100000
00000000
00001000
00000010
00000001
00000000
,  // measure 60
00000100
00000000
00000010
00000000
00001000
00000000
00000000
00000000
00000010
00000000
00000000
00001000
00000100
00000000
00000001
00000000
,  // measure 61
00000100
00000010
00000001
00000000
00001000
00010000
00100000
00000000
,  // measure 62
00010000
00000000
01000000
00000000
00100000
00000000
00000000
00000000
10000000
00000000
00000000
01000000
00100000
00000000
00001000
00000000
,  // measure 63
00010000
00000000
00000010
00000000
00000100
00000000
00000000
00000000
00000010
00000000
00000000
00001000
00000001
00000000
00000010
00000000
,  // measure 64
00000001
00000100
00001000
00000000
00010000
00100000
10000000
00000000
,  // measure 65
00100000
00000000
00000000
01100000
00000000
00000000
00010000
00000000
02000000
00000000
00000000
00000000
03001000
00000000
00010000
00000000
,  // measure 66
00001000
00000000
00000000
00011000
00000000
00000000
00010000
00000000
00000020
00000000
00000000
00000000
00000130
00000000
00000001
00000000
,  // measure 67
00001000
00000000
00001001
00000000
00001100
00000000
00000100
00010000
,  // measure 68
00001000
00000000
00000000
00001000
00010000
00000000
00001000
00000000
01000000
00000000
00100000
00000000
10000000
00000000
01000000
00000000
,  // measure 69
00100000
01000000
01000000
10000000
01000000
00100000
00001000
00010000
,  // measure 70
00001000
00000000
00000000
00001000
00100000
00000000
00001000
00000000
00000010
00000000
00000001
00000000
00000100
00000000
00001000
00000000
,  // measure 71
00000200
00000301
00000010
00000110
,  // measure 72
00000010
00000000
00000000
00000010
00000001
00000000
00000100
00000000
00000010
00000000
00010000
00000000
00000100
00000000
00010000
00000000
,  // measure 73
00001000
00100000
00100000
00010000
01000000
10000000
01000000
00100000
,  // measure 74
10000000
00000000
00000000
10000000
01000000
00000000
00100000
00000000
00010000
00000000
00001000
00000000
00000010
00000000
00000001
00000000
,  // measure 75
00000100
00000010
00000100
00000000
00000010
00000000
00000000
00000000
00010000
00000000
00000000
00000000
00010010
00000000
00000000
00000000
,  // measure 76
00000100
00000000
00000000
00000010
00001000
00000000
00010000
00000000
01000000
00000000
00100000
00000000
10000000
00000000
01000000
00000000
,  // measure 77
00100000
01000000
01000000
10000000
01000000
00010000
00001000
00000100
,  // measure 78
00000001
00000000
00000000
00000010
00000001
00000000
00000100
00000000
00000010
00000000
00001000
00000000
00010000
00000000
00100000
00000000
,  // measure 79
20000000
30100000
01000000
01100000
,  // measure 80
00010000
00000000
00000000
01000000
00001000
00000000
00100000
00000000
00001000
00000000
00000010
00000000
00000001
00000000
00000010
00000000
,  // measure 81
00000100
00000001
00000001
00000010
00001000
00010000
00100000
10000000
,  // measure 82
00100000
00000000
00000000
01000000
10000000
00000000
00100000
00000000
01000000
00000000
00100000
01000000
00000000
00001000
01000000
00000000
,  // measure 83
00001000
00010000
00001000
00010000
00001000
00000000
00010000
00000000
00000010
00000000
00000100
00000000
00000001
00000000
00000000
00000000
,  // measure 84
00001000
00000100
00000000
00010000
00000000
00000000
00001000
00000000
00100000
00000000
00010000
00000000
01000000
00000000
00000000
00000000
,  // measure 85
00100000
10000000
00000000
01000000
00000000
00000000
00002000
00000000
00000000
00000000
00000000
00000000
00000000
00000000
00000000
00000000
,  // measure 86
00000000
00000000
00003000
00000000
;

//---------------dance-double - ----------------
#NOTES:
     dance-double:
     :
     Challenge:
     16:
     0.783,0.803,0.286,0.113,0.571:
00000000
00000000
00000000
00000000
,
00000000
00000000
00000000
00000000
,
00000000
00000000
00000000
00000000
,
00000000
00000000
00000000
00000000
,
00000000
00000000
00000000
00000000
,
00011000
00000000
01000000
00000000
00100000
00000000
10000000
00000000
01000000
00100000
00000000
00001000
00000000
00000000
00010000
00000000
,
00001000
00000000
00000010
00000000
00000001
00000000
00000010
00000000
00000100
00001000
00000000
00010000
00000000
00000000
00100000
00000000
,
10010000
00000000
00100000
00000000
11000000
00000000
00100000
00000000
00010000
00001000
00000000
00000010
00000000
00000000
00000001
00000000
,
00000100
00000000
00000100
00000000
00000010
00000000
00000010
00000000
00010000
00000100
00010000
00000100
00010000
00000000
00001000
00000000
,
00100000
00000000
00010000
00000000
01000000
00000000
10000000
00000000
01000000
00010000
00000000
00001000
00000000
00000000
00000010
00000000
,
00000001
00000000
00000100
00000000
00001000
00000000
00000100
00000000
00000001
00000010
00000000
00001000
00000000
00000000
00010000
00000000
,
01000000
00000000
10000000
00000000
01000000
00000000
00010000
00000000
00100000
00001000
00000000
00010000
00000000
00000000
00000010
00000000
,
00000100
00000010
00001000
00000100
00002000
00000000
00003001
00000000
,
00001000
00000000
00000100
00000000
00000001
00000000
00000100
00000000
00001000
00010000
00000000
00100000
00000000
00000000
10000000
00000000
,
00100000
00000000
00010000
00000000
01000000
00000000
10000000
00000000
01000000
00010000
00000000
00001000
00000000
00000000
00000100
00000000
,
00001000
00000000
00000010
00000000
00000001
00000000
00000010
00000000
00001000
00000100
00000000
00010000
00000000
00000000
00001000
00000000
,
01001000
00000000
00000000
01100000
00000000
00000000
10000000
00000000
01000000
00100000
00001000
00010000
00001000
00000000
00010000
00000000
,
00000010
00000000
00000000
00000010
00001000
00000000
00000000
00001000
00000100
00000000
00000000
00000100
00000010
00000000
00000001
00000000
,
00000100
00000000
00000000
00000100
00000010
00000000
00001000
00000000
00000100
00000000
00010000
00001000
00010000
00002000
00000000
00000000
,
01003000
00000000
00000000
01000000
00100000
00000000
00000000
00100000
10000000
00000000
00000000
10000000
00010000
00000000
00100000
00000000
,
01000000
00000000
00000000
01000000
00100000
00000000
00001000
00000000
00010000
00000000
00000010
00000100
00000010
00002000
00000000
00000000
,
00003001
00000000
00000000
00000001
00000010
00000000
00000000
00000010
00000100
00000000
00000000
00000100
00010000
00000000
00001000
00000000
,
00100000
00000000
00000000
00100000
00010000
00000000
01000000
00000000
00100000
00000000
10000000
01000000
00100000
02000000
00000000
00000000
,
13000000
00000000
00000000
10000000
00100000
00000000
00000000
00100000
01000000
00000000
00000000
01000000
00001000
00000000
00010000
00000000
,
00001000
00010000
00001000
00010000
00001000
00010000
00001000
00010000
00001000
00010000
00001000
00010000
00001000
00000000
00010000
00000000
,
00000010
00000000
00001000
00000000
00001100
00000000
00000000
00000000
00000010
00000000
00000000
00000010
00000001
00000000
00000100
00000000
,
00001000
00010000
00100000
00000000
10000000
01000000
00100000
00000000
,
00010000
00000000
00000000
00010000
01000000
00000000
00010000
00000000
00100000
00000000
00001000
00000000
00010000
00000000
00001000
00000000
,
00000010
00000001
00000100
00000000
00000010
00010000
00011000
00001000
,
01000000
00000000
00100000
00000000
10000000
00000000
01000000
00000000
00100000
00001000
00000000
00010000
00001000
00000000
00010000
00000000
,
00000010
00000000
00001000
00000000
00000001
00000000
00000010
00000000
00000001
00000100
00000000
00000010
00000100
00000000
00000001
00000000
,
00001000
00000000
00000100
00000000
00000001
00000000
00000100
00000000
00010000
00001000
00000000
00100000
00010000
00000000
01000000
00100000
,
10000000
00000000
00000000
01100000
00000000
00000000
01010000
00000000
00001000
00010000
00001000
00010000
00000010
00001000
00000001
00001000
,
00000001
00000000
00000000
00000000
00000011
00000000
00000000
00000000
00000101
00000000
00000000
00000001
00000100
00000000
00000001
00000000
,
00001000
00000100
00000001
00000100
00001000
00010000
00110000
10000000
,
01000000
00000000
00010000
00000000
01000000
00000000
10000000
00000000
00100000
00000000
00000000
00100000
01000000
00000000
00100000
00000000
,
10000000
01000000
00100000
00001000
00010000
00000000
00001000
00000000
00010000
00000010
00000100
00000001
00001000
00000000
00000001
00000000
,
00001000
00000000
00000000
00000000
00001100
00000000
00000000
00000000
00001001
00000000
00000000
00001000
00000100
00000000
00001000
00000000
,
00010000
00100000
10000000
00100000
00010000
01000000
01010000
00001000
,
00000010
00000000
00000001
00000000
00000010
00000000
00001000
00000000
00000010
00000000
00000000
00000010
00000100
00000000
00000001
00000000
,
00001000
00000000
00000100
00000001
00000000
00000100
00010000
00000000
00001000
00010000
00001000
00010000
00001000
00000000
00010000
00000000
,
00001000
00000000
01000000
00000000
00100000
00000000
10000000
00000000
01000000
00100000
00000000
00001000
00010000
00000000
00000010
00000000
,
00001000
00000000
00000010
00000000
00000100
00000000
00000001
00000000
00001000
00000100
00000000
00001000
00000010
00000000
00001000
00000000
,
00000100
00000000
00001000
00000000
00010000
00000000
00100000
00000000
10000000
00100000
00000000
00010000
01000000
00000000
00010000
00000000
,
00100000
00000000
00001000
00010000
00000010
00000000
00001000
00000000
00000100
00000000
00000001
00000000
00000110
00000000
00000000
00000000
,
00000001
00000000
00000100
00000000
00001000
00000000
00000100
00000000
00000010
00010000
00000000
00001000
00010000
00000000
00001000
00000000
,
00010000
00000000
00100000
00000000
10000000
00000000
00100000
00000000
01000000
00100000
00000000
00001000
00010000
00000000
00001000
00000000
,
00010000
00000000
00000010
00000000
00000100
00000000
00000001
00000000
00001000
00000100
00000000
00010000
00001000
00000000
00010000
00000000
,
00001000
00000000
00000000
01001000
00000000
00000000
11000000
00000000
01000000
00100000
00001000
00010000
00001000
00000000
00010000
00000000
,
00021000
00000000
00030010
00001000
00000200
00000000
00000000
00001300
,
00000001
00000010
00000100
00001000
00020000
00000000
00031000
00010000
,
00001000
01000000
00100000
10000000
02000000
00000000
03100000
00010000
,
00002000
00003010
00000002
00000103
,
00000110
00000000
00000000
00000000
00000101
00000000
00000000
00000000
00002010
00000000
00000000
00003100
00001000
00000000
00000100
00000000
,
00010000
00000000
00001000
01000000
00001000
00000000
00100000
00010000
00100000
00000000
00010000
10000000
00010000
00000000
10000000
00000000
,
11000000
00000000
00000000
00000000
01100000
00000000
00000000
00000000
00201000
00000000
00000000
00301000
00010000
00000000
00001000
00000000
,
00010000
00000000
00010000
00000000
00001000
00000000
00001000
00000000
00010000
00000010
00010000
00000010
00010000
00000000
00000010
00000000
,
00000100
00000000
00000001
00000000
00001000
00000000
00000100
00000000
00000001
00000100
00000000
00001000
00000100
00000000
00010000
00000000
,
00001000
00000000
00100000
00000000
00010000
00000000
01000000
00000000
00100000
00000000
10000000
00010000
01000000
00000000
00000000
00000000
,
00010000
00000000
00100000
00000000
01000000
00000000
10000000
00000000
01000000
00010000
00000000
01000000
10000000
00000000
01000000
00000000
,
00100000
00000000
00010000
00000000
00001000
00000000
00000010
00000000
00000001
00000000
00000100
00000010
00001000
00000000
00000000
00000000
,
00000001
00000000
00000010
00000000
00000100
00000000
00000010
00000000
00000001
00000100
00000000
00000001
00001000
00000000
00000100
00000000
,
00010000
00000000
00001000
00000000
00100000
00000000
00010000
00000000
01000000
00100000
00000000
10000000
01000000
00000000
10000000
00000000
,
00100000
00000000
10000000
00000000
01000000
00000000
00000000
00100000
00001000
00000000
00010000
00000000
00001000
00000000
00010000
00001000
,
00010000
00000000
00000000
00011000
00000000
00000000
00001100
00000000
00000210
00000000
00000000
00000000
00000301
00000100
00000001
00000010
,
00000001
00000000
00000000
00000011
00000000
00000000
00000110
00000000
00020100
00000000
00000000
00000000
00031000
00010000
00001000
00100000
,
00010000
00000000
01000000
00100000
10000000
00000000
00000000
00000000
01100000
00000000
00010000
00000000
01000000
00000000
10000000
00000000
,
01000000
00100000
00000000
01000000
00001000
00000000
00100000
00000000
00001000
00000000
00010000
00000000
00000010
00000000
00000100
00000000
,
00000001
00000010
00000011
00000001
00000100
00000001
00001000
00000100
,
00000001
00000100
00000000
00001000
00000100
00000000
00010000
00000000
00001000
00000000
01000000
00001000
01000000
00000000
00010000
00000000
,
00110000
00000000
10010000
00000000
10000000
01000000
00010000
01000000
,
00100000
01000000
00000000
00100000
00001000
00000000
00010000
00000000
00001000
00000000
00010000
00000000
00000010
00000000
00000100
00000000
,
00000010
00001000
00001010
00001000
00000100
00000001
00000100
00000010
,
00000001
00000100
00000000
00000001
00001000
00000000
00000100
00000000
00010000
00000100
00010000
00001000
00010000
00000000
00001000
00000000
,
00100000
00010000
01000000
00010000
10000000
00000000
00010000
00000000
10000000
00000000
00100000
00000000
00010000
00000000
00001000
00000000
,
00000010
00000001
00000000
00000010
00000100
00000000
00001000
00000000
00000001
00000000
00000010
00000000
00001000
00000000
00010000
00000000
,
00100000
10000000
10100000
00100000
01000000
00010000
01000000
10000000
,
01000000
00001000
00000000
00010000
00001000
00000000
00010000
00000000
00000010
00000000
00000100
00000001
00001000
00000000
00000001
00000000
,
00000010
00000100
00010000
00000100
00010000
00000000
00001000
00000000
00010000
00000000
01000000
00000000
10000000
00000000
01000000
00000000
,
00010000
00000100
00000000
00000010
00000100
00000000
00000010
00000000
00000001
00000000
00000100
00000000
00000010
00000000
00010000
00000000
,
00001000
01000000
01010000
00010000
10000000
00100000
01000000
00001000
,
00010000
00001000
00000000
00010000
00000010
00000000
00000100
00000000
00000001
00000010
00000100
00001000
00010000
00000000
00100000
00000000
,
00010000
01000000
00010000
01000000
00001000
00010000
00001000
00010000
00001000
00000000
00100000
00000000
00001000
00000000
00010000
00000000
,
00000010
00000100
00000000
00000001
00000000
00000000
00000100
00000000
00001000
00000000
00010000
00000000
00100000
00000000
10000000
00000000
,
00100000
01000000
00000000
00001000
00000000
00000000
00020000
00000000
00000000
00000000
00000000
00000000
00000000
00000000
00000000
00000000
,
00000000
00000000
00030000
00000000
;
