#TITLE:Lethal Weapon;
#SUBTITLE:;
#ARTIST:BEMANI Sound Team "HuΣeR";
#TITLETRANSLIT:;
#SUBTITLETRANSLIT:;
#ARTISTTRANSLIT:HuΣeR;
#GENRE:;
#CREDIT:;
#MENUCOLOR:;
#METERTYPE:DDR;
#BANNER:Lethal Weapon.png;
#BACKGROUND:Lethal Weapon-bg.png;
#LYRICSPATH:;
#CDTITLE:./CDTITLES/BEATMANIA IIDX.PNG;
#MUSIC:Lethal Weapon.ogg;
#OFFSET:0.000;
#SAMPLESTART:46.667;
#SAMPLELENGTH:15.000;
#SELECTABLE:YES;
#LISTSORT:;
#BPMS:0.000=180.000,204.000=90.000,220.000=180.000;
#STOPS:;
#BGCHANGES:4.000=Lethal Weapon.avi=1.000=0=0=0,
99999=-nosongbg-=1.000=0=0=0 // don't automatically add -songbackground-
;
#ATTACKS:;

//---------------dance-single - ----------------
#NOTES:
     dance-single:
     :
     Beginner:
     2:
     0.114,0.198,0.032,0.000,0.000:
0000
0000
0000
0000
,
0000
0000
0000
0000
,
0000
0000
0000
0000
,
0000
0000
0000
0000
,
0000
0000
0000
0000
,
0000
0000
0000
0000
,
0000
0000
0000
0000
,
0010
0000
0000
0000
,
1000
0000
0000
0000
,
0001
0000
0000
0000
,
0100
0000
0000
0000
,
0010
0000
0010
0000
,
0010
0000
0000
0000
,
0100
0000
0100
0000
,
0100
0000
0000
0000
,
0001
0000
0001
0000
,
0001
0000
0000
0000
,
1000
0000
1000
0000
,
1000
0000
0000
0000
,
1001
0000
0000
0000
,
0000
0000
0000
0000
,
1000
0000
0000
0000
,
0000
0000
0000
0000
,
0001
0000
0000
0000
,
0000
0000
0000
0000
,
0010
0000
0010
0000
,
0010
0000
0000
0000
,
0100
0000
0000
0000
,
0000
0000
0000
0000
,
0010
0000
0000
0000
,
0000
0000
0000
0000
,
0001
0000
0000
0000
,
0000
0000
0000
0000
,
1000
0000
1000
0000
,
1000
0000
0000
0000
,
0001
0000
0001
0000
,
0001
0000
0001
0000
,
1000
0000
0000
0000
,
1000
0000
0000
0000
,
0010
0000
0010
0000
,
0010
0000
0010
0000
,
0100
0000
0000
0000
,
0100
0000
0000
0000
,
0010
0000
0010
0000
,
0010
0000
0010
0000
,
1000
0000
0000
0000
,
0001
0000
0000
0000
,
1000
0000
1000
0000
,
1000
0000
1000
0000
,
0100
0000
0000
0000
,
0010
0000
0000
0000
,
0001
0000
0000
0000
,
1000
0000
0000
0000
,
0010
0000
0000
0000
,
0100
0000
0010
0000
,
0100
0000
0000
0000
,
0100
0000
0000
0000
,
0010
0000
0000
0000
,
0010
0000
0000
0000
,
1000
0000
0000
0000
,
1000
0000
0000
0000
,
0001
0000
0000
0000
,
0001
0001
0001
0000
,
1000
0000
0000
0000
,
0000
0000
0110
0000
,
1000
0000
0000
0000
,
1000
0000
0000
0000
,
0001
0000
0000
0000
,
0001
0000
0000
0000
,
0010
0000
0000
0000
,
0010
0000
0000
0000
,
0100
0000
0100
0000
,
0100
0000
0000
0000
,
0010
0000
0010
0000
,
0010
0000
0000
0000
,
0001
0000
1000
0000
,
0001
0000
0000
0000
,
1000
0000
0001
0000
,
1000
0000
0000
0000
,
0010
0000
0100
0000
,
0010
0000
0100
0000
,
0001
0000
1000
0000
,
0001
0000
1000
0000
,
1001
0000
0000
0110
;

//---------------dance-single - ----------------
#NOTES:
     dance-single:
     :
     Easy:
     6:
     0.353,0.369,0.063,0.229,0.000:
0000
0000
0000
0000
,
0000
0000
0000
0000
,
0000
0000
0000
0000
,
0000
0000
0000
0000
,
0000
0000
0000
0000
,
0000
0000
0000
0000
,
0000
0000
0000
0000
,
0020
0000
1000
0030
,
2000
0000
0001
3000
,
0002
0000
0100
0003
,
0100
0010
0100
0110
,
1000
1000
0100
0100
,
0010
0010
0001
0001
,
0010
0010
0100
0100
,
1000
1000
0001
0001
,
0100
0100
0010
0010
,
1000
1000
0001
0001
,
0010
0100
0010
0001
,
1000
0001
1001
0010
,
0200
0010
0000
0310
,
1000
0100
1000
0001
,
0200
0010
0000
0310
,
0001
1000
0001
0100
,
0002
0010
0000
0013
,
1000
0100
1000
0010
,
0100
0100
0010
0010
,
1000
0001
0100
0020
,
2030
0100
0000
3001
,
1000
0100
0010
0001
,
0200
0001
0000
0310
,
0100
0010
1000
0001
,
0020
0001
0000
0130
,
1000
0100
0010
0001
,
1000
0001
0100
0010
,
1000
1000
0001
1000
,
0001
0010
0001
0010
,
0100
1000
0100
1000
,
0010
0100
0001
0000
,
0010
0100
2000
3020
,
1030
0100
1000
0100
,
0010
0001
0010
0001
,
1000
0010
0100
0000
,
0010
1000
0001
1000
,
0001
0010
0001
0010
,
0100
1000
0100
1000
,
0010
0100
0001
0000
,
1000
0100
0020
0230
,
1300
1000
0001
0001
,
0100
0100
0010
0010
,
1000
0001
0100
0000
,
0001
1000
0010
0100
,
0110
1000
0100
0001
,
0010
0001
0100
1000
,
0100
0001
0010
1000
,
0010
0000
0001
0000
1000
0001
2002
3003
,
0010
0000
0000
0010
0000
0000
0010
0000
,
0000
0010
0000
0000
0100
0000
0001
0000
,
0100
0000
0000
0100
0000
0000
0100
0000
,
0000
0100
0000
0000
0010
0000
1000
0000
,
0001
0000
0000
0010
0000
0000
0100
0000
,
0000
1000
0000
0000
0001
0000
0010
0000
,
0001
1000
0010
0100
,
0001
1000
0020
0030
,
2020
0000
0000
0000
,
0000
3030
0220
0330
,
1000
0100
1000
0100
,
0010
0001
0200
0302
,
0013
0001
0010
0001
,
1000
0010
1000
0010
,
0100
0010
1000
0000
,
0010
0100
0001
1000
,
0100
1000
0100
1000
,
0010
0100
0010
0100
,
0001
0010
0100
0000
,
1000
0010
0200
0302
,
1003
0100
1000
0100
,
0010
0001
0010
0001
,
1000
0010
0001
0100
,
0001
0010
1000
0100
,
1000
0100
1000
0100
,
0010
0001
0010
0001
,
1000
0001
0100
0010
,
1000
1000
0001
1000
,
0220
0000
0330
2002
,
0000
0000
0000
0000
,
3003
0000
0000
0000
;

//---------------dance-single - ----------------
#NOTES:
     dance-single:
     :
     Medium:
     10:
     0.548,0.671,0.331,0.150,0.110: // measure 1
0000
0000
0000
0000
,  // measure 2
0000
0000
0000
0000
,  // measure 3
0000
0000
0000
0000
,  // measure 4
0000
0000
0000
0000
,  // measure 5
0000
0000
0000
0000
,  // measure 6
0000
0000
0000
0000
,  // measure 7
0000
0000
0000
0000
,  // measure 8
0020
0000
1000
0030
,  // measure 9
2000
0000
0100
3000
,  // measure 10
0200
0000
0001
0300
,  // measure 11
0001
0010
0100
0120
,  // measure 12
0031
0000
0100
0000
0001
0010
0001
0000
,  // measure 13
1000
0000
0100
0000
1000
0010
1000
0000
,  // measure 14
0010
0000
0100
0000
0010
1000
0010
0000
,  // measure 15
0100
0000
0010
0000
0100
0001
0100
0000
,  // measure 16
0001
0000
1000
0000
0100
1000
0100
0000
,  // measure 17
1000
0000
0001
0000
0100
0001
0100
0000
,  // measure 18
0001
0000
1000
0000
0010
1000
0010
0000
,  // measure 19
0100
0010
1000
1010
,  // measure 20
0120
0000
1030
0000
1000
0100
1000
0001
,  // measure 21
0000
0001
0100
0000
0001
0010
0100
0000
,  // measure 22
0010
0000
0001
0000
0100
0001
0100
0010
,  // measure 23
0000
0010
0100
0001
0000
0001
0010
0000
,  // measure 24
0100
0000
0010
0000
0001
0010
0100
1000
,  // measure 25
0000
1000
0010
0000
1000
0010
0100
0000
,  // measure 26
0010
1000
0001
1001
,  // measure 27
1000
0001
1000
0001
0010
0100
2000
0000
,  // measure 28
3010
0000
0100
0000
0010
1000
0010
0100
,  // measure 29
0000
0100
0001
0000
1000
0100
0010
0000
,  // measure 30
0100
0000
1000
0000
0010
0100
0010
1000
,  // measure 31
0000
1000
0100
1000
0000
1000
0001
0010
,  // measure 32
0001
0000
0100
0000
0010
0100
0001
1000
,  // measure 33
0000
1000
0010
0000
1000
0100
0010
0000
,  // measure 34
0001
0000
0101
0000
0001
0010
0100
0000
,  // measure 35
1000
0010
1000
0010
0100
0010
2000
0000
,  // measure 36
3001
1001
0001
0101
,  // measure 37
0011
0000
0001
0010
0100
0000
1000
0100
,  // measure 38
0010
0100
1000
0000
0010
1000
0001
0000
,  // measure 39
0100
0001
1000
0000
0010
0000
0110
0000
,  // measure 40
0010
1010
1000
1100
,  // measure 41
0110
0000
1000
0100
0010
0000
0100
1000
,  // measure 42
0010
0100
0010
0000
1000
0001
0100
0000
,  // measure 43
0001
0010
0100
1000
0001
1000
0020
0000
,  // measure 44
0130
0110
0100
0101
,  // measure 45
0011
0000
0001
1000
0100
0000
1000
0010
,  // measure 46
0100
0010
1000
0000
0100
0010
0001
0000
,  // measure 47
0100
0010
1000
0000
0010
0000
0110
0000
,  // measure 48
0100
0101
0001
1001
,  // measure 49
1010
0000
1000
0001
0100
0000
0001
1000
,  // measure 50
0010
0100
0010
0000
1000
0100
0010
0000
,  // measure 51
0001
0010
0100
1000
0001
0000
1001
0000
,  // measure 52
0110
0010
1000
0100
0001
0100
1000
0010
,  // measure 53
0110
0100
0001
0010
1000
0010
0001
0100
,  // measure 54
0010
0000
1000
0100
1000
0000
0001
0000
0100
0000
0001
0010
0001
0000
1000
0000
,  // measure 55
0001
0000
0100
0010
0100
0000
0010
0000
0100
0000
0110
0000
2002
0000
3003
0000
,  // measure 56
1000
0000
0000
0100
0000
0000
1000
0000
0000
0001
0000
0000
0100
0000
0000
0001
,  // measure 57
0000
0000
0010
0000
0000
0001
0000
0000
0100
0000
0000
0100
0010
0000
0000
0000
,  // measure 58
1000
0000
0000
0100
0000
0000
0010
0000
0000
0001
0000
0000
0010
0000
0000
0100
,  // measure 59
0000
0000
1000
0000
0000
0001
0000
0000
1000
0000
0000
1000
0010
0000
0000
0000
,  // measure 60
0100
0000
0000
0010
0000
0000
1000
0000
0000
0001
0000
0000
0010
0000
0000
0100
,  // measure 61
0000
0000
0010
0000
0000
0001
0000
0000
0100
0000
0000
0100
0010
0000
0100
0000
,  // measure 62
0002
0000
0000
0000
1003
0000
0000
0000
0010
0000
0000
0010
1000
0000
0001
0000
,  // measure 63
1000
0000
0000
1000
0100
0000
0010
0000
0002
0000
0000
0000
1003
0000
0000
0000
,  // measure 64
2020
0000
0000
0000
,  // measure 65
0000
3030
0220
0330
,  // measure 66
1000
0100
1000
0000
0001
0100
0001
0000
,  // measure 67
1000
0010
1000
0000
0110
0000
0101
0000
,  // measure 68
0011
0001
1001
0101
,  // measure 69
1001
0000
0010
1000
0100
0000
1000
0100
,  // measure 70
0010
0001
1000
0000
0001
0100
0010
0000
,  // measure 71
1000
0010
0100
0001
1000
0001
0200
0000
,  // measure 72
0310
0110
0001
0101
,  // measure 73
1010
0000
1000
0001
0100
0000
0001
1000
,  // measure 74
0010
1000
0001
0000
1000
0100
1000
0000
,  // measure 75
0001
0010
0001
0000
1010
0000
0110
0000
,  // measure 76
1010
0000
0000
1000
0100
0000
1000
0000
0001
0000
0000
0001
0100
0000
0001
0000
,  // measure 77
0010
0000
0000
0010
0001
0000
1000
0000
0100
0000
0000
0100
1000
0000
0010
0000
,  // measure 78
0100
0010
1000
0000
0010
0100
0001
0000
,  // measure 79
0110
1001
0010
0100
,  // measure 80
1000
0000
0000
1000
0100
0000
0010
0000
0001
0000
0000
0001
0010
0000
0100
0000
,  // measure 81
1000
0000
0000
1000
0010
0000
0100
0000
0001
0000
0000
0001
0100
0000
0010
0000
,  // measure 82
1000
0100
0001
0100
1000
0001
0100
0010
,  // measure 83
1000
0010
0001
0010
1000
0001
0100
0000
,  // measure 84
0110
0000
0001
0100
0000
0010
2002
0000
,  // measure 85
0000
0000
0000
0000
,  // measure 86
3003
0000
0000
0000
;

//---------------dance-single - ----------------
#NOTES:
     dance-single:
     :
     Hard:
     15:
     0.763,1.000,0.679,0.118,0.351: // measure 1
0000
0000
0000
0000
,  // measure 2
0000
0000
0000
0000
,  // measure 3
0000
0000
0000
0000
,  // measure 4
0000
0000
0000
0000
,  // measure 5
0000
0000
0000
0000
,  // measure 6
0000
0000
0000
0000
,  // measure 7
0000
0000
0000
0000
,  // measure 8
0020
0000
1000
0030
,  // measure 9
2000
0000
0100
3000
,  // measure 10
0200
0000
0001
0300
,  // measure 11
0001
0010
0110
1001
,  // measure 12
1000
0100
1000
0100
0010
0100
0010
0100
,  // measure 13
1000
0100
0010
0100
1000
0010
0001
0010
,  // measure 14
1000
0100
1000
0100
0010
0100
1000
0100
,  // measure 15
1000
0000
0010
0000
0100
0000
0001
0000
1000
0000
0001
0010
0100
0000
1000
0000
,  // measure 16
0001
0010
0001
0010
0100
0010
0100
0010
,  // measure 17
0001
0010
0100
0010
0001
0010
0100
1000
,  // measure 18
0001
0100
1000
0100
0001
0010
1000
0010
,  // measure 19
0001
0000
0000
0000
0100
0000
0001
0000
0100
0000
0000
0000
0001
0000
0000
0000
1000
0010
0000
0000
0000
0000
0000
0000
0110
0000
0000
0000
0000
0000
0000
0000
,  // measure 20
1010
0000
0001
0000
0100
0001
1000
0020
,  // measure 21
0000
1030
0100
0010
0100
1000
1010
0000
,  // measure 22
0110
0000
0001
0000
0100
0001
0010
0100
,  // measure 23
0010
0000
0001
0010
0001
0000
1000
0000
0010
0000
0100
0000
0001
0000
1000
0000
,  // measure 24
1100
0000
0001
0000
1000
0010
0100
0010
,  // measure 25
0000
0000
1000
0000
0100
0000
0010
0000
0100
0000
1000
0100
1000
0000
0001
0000
,  // measure 26
1000
0000
0100
0010
0001
0000
0010
0000
0100
0000
1000
0000
0010
0000
0100
0000
,  // measure 27
0001
0000
0100
0010
1000
0000
0010
0000
0100
0000
0001
0000
0012
0000
0000
0000
,  // measure 28
1003
0000
0001
0000
1000
0100
1000
0010
,  // measure 29
0100
0000
0010
1000
0010
0000
1000
0000
0001
0000
0100
0000
1010
0000
0000
0000
,  // measure 30
1100
0000
0000
0000
0001
0000
0000
0000
1000
0000
0100
1000
0100
0000
1000
0000
,  // measure 31
0001
0000
0010
0001
0010
0000
0001
0000
0100
0000
0001
0000
0011
0000
0000
0000
,  // measure 32
0110
0000
0000
0000
0001
0000
0000
0000
1000
0000
0010
0100
0010
0000
1000
0000
,  // measure 33
0001
0000
0010
0100
0010
0000
0001
0000
1000
0000
0001
0000
0100
0000
0000
0000
,  // measure 34
0001
0000
0010
0100
1000
0000
0100
0000
0010
0000
0001
0000
1000
0000
0010
0000
,  // measure 35
0100
0100
0010
0010
0100
0010
1010
0000
,  // measure 36
1001
1100
1001
1010
,  // measure 37
1100
0000
1010
0010
0100
0000
0010
1000
,  // measure 38
0100
0001
0100
1000
0100
0001
0100
1000
,  // measure 39
0010
0001
0010
1000
1010
0000
0110
0000
,  // measure 40
0011
1001
0101
1001
,  // measure 41
0011
0000
0101
0001
0100
0000
0001
0010
,  // measure 42
1000
0010
0001
0010
1000
0010
0001
0010
,  // measure 43
0100
0010
0001
0100
1000
0100
1010
0000
,  // measure 44
0110
0101
0110
1010
,  // measure 45
0110
0000
1010
0010
1000
0000
0100
1000
,  // measure 46
0010
0100
0010
0001
0010
0100
0010
1000
,  // measure 47
0100
0001
0100
1000
1100
0000
0110
0000
,  // measure 48
0011
0000
0000
0001
0010
0000
0001
0000
1000
0000
0000
0010
1000
0000
0010
0000
,  // measure 49
0100
0000
0000
0010
1000
0000
0100
0000
0010
0000
0000
0100
1000
0000
0001
0000
,  // measure 50
1000
0000
0100
0010
0001
0000
0010
0000
0100
0000
1000
0010
0100
0000
0010
0000
,  // measure 51
0100
0010
0100
0000
0001
1000
0001
0000
1001
0000
0000
0000
1100
0000
0000
0000
,  // measure 52
0011
0001
0100
0001
0010
0100
1000
0100
1000
0010
0100
0010
1000
0100
0010
0001
,  // measure 53
1000
0100
0010
0100
1000
0010
0100
0010
1000
0100
0010
0001
1000
0100
0010
0001
,  // measure 54
0100
0000
0010
0000
1000
0000
0010
0100
0010
0000
0100
0000
0001
0000
1000
0000
0001
0000
0010
0000
0100
0000
0010
0100
0010
0000
0001
0000
1000
0000
0001
0000
,  // measure 55
1000
0000
0100
0000
0010
0000
0001
0010
0001
0000
0100
0000
0010
0000
1000
0000
0010
0000
0000
0000
0110
0000
0000
0000
2002
0000
0000
0000
3003
0000
0000
0000
,  // measure 56
1100
0000
0000
1100
0000
0000
1010
0000
0000
1010
0000
0000
1001
0000
0000
1001
,  // measure 57
0000
0000
0101
0000
0000
0101
0000
0000
0011
0000
0000
0001
1000
0000
0000
0000
,  // measure 58
0101
0000
0000
0101
0000
0000
0110
0000
0000
0110
0000
0000
1010
0000
0000
1010
,  // measure 59
0000
0000
1001
0000
0000
1001
0000
0000
1100
0000
0000
0100
0010
0000
0100
0000
,  // measure 60
1000
0000
0100
1000
0100
0000
1000
0000
0010
1000
0010
0000
1000
0000
0100
1000
,  // measure 61
0100
0000
1000
0000
0010
1000
0010
0000
1010
0000
0000
1000
0001
0000
1000
0000
,  // measure 62
0001
0000
0010
0100
1000
0000
0100
0000
0010
0000
0001
0100
0010
0000
1000
0000
,  // measure 63
0010
1000
0010
0000
0100
0001
0100
0000
0110
0000
0000
0000
1001
0000
0000
0000
,  // measure 64
2020
0000
0000
0000
,  // measure 65
0000
3030
0220
0330
,  // measure 66
1000
0100
0010
0100
1000
0100
0010
0001
,  // measure 67
1000
0010
0001
0010
1010
0000
0110
0000
,  // measure 68
0001
0100
0010
0100
0001
0010
0100
0010
,  // measure 69
0001
0010
1000
0010
0001
0100
0010
1000
,  // measure 70
0100
1000
1010
0000
0100
0001
0011
0000
,  // measure 71
0001
1000
0100
1000
0010
0100
0120
0000
,  // measure 72
1030
0100
0001
0100
1000
0010
0100
0010
,  // measure 73
1000
0001
0100
0001
0011
0000
1010
0010
,  // measure 74
1000
0100
1000
0010
0100
0010
1000
0100
,  // measure 75
0001
0100
1000
0001
0101
0000
0110
0000
,  // measure 76
1001
0000
0000
0001
0100
0000
0001
0000
0011
0000
0000
0001
1000
0000
0001
0000
,  // measure 77
1001
0000
0000
1000
0100
0000
1000
0000
1010
0000
0000
0010
1000
0000
0010
0000
,  // measure 78
0110
0010
0010
0010
0100
0100
0100
0100
,  // measure 79
0001
1000
0100
0000
1000
0001
0100
0000
0010
1000
0100
0000
1010
0000
0000
0000
,  // measure 80
0110
0000
0000
0010
0100
0000
0001
0000
0101
0000
0000
0001
1000
0000
0100
0000
,  // measure 81
1100
0000
0000
0100
1000
0000
0010
0000
1010
0000
0000
0010
1000
0000
0001
0000
,  // measure 82
1000
0000
0100
0010
0001
0000
0010
0000
0100
0000
1000
0010
0100
0000
0010
0000
,  // measure 83
1000
0100
1000
0000
0001
0100
0001
0000
1000
0001
0100
0000
0120
0000
0000
0000
,  // measure 84
1030
0000
0001
1000
0010
0000
1000
0001
0100
0000
0001
0000
2002
0000
0000
0000
,  // measure 85
0000
0000
0000
0000
,  // measure 86
3003
0000
0000
0000
;

//---------------dance-single - ----------------
#NOTES:
     dance-single:
     :
     Challenge:
     18:
     0.988,1.000,0.971,0.110,0.923: // measure 1
0000
0000
0000
0000
,  // measure 2
0000
0000
0000
0000
,  // measure 3
0000
0000
0000
0000
,  // measure 4
0000
0000
0000
0000
,  // measure 5
0000
0000
0000
0000
,  // measure 6
0000
0000
0000
0000
,  // measure 7
0000
0000
0000
0000
,  // measure 8
0010
0000
1000
0000
0100
0000
1000
0001
1000
0000
0100
0000
1000
0000
0010
0000
,  // measure 9
0100
0000
0001
0000
0010
0000
0001
1000
0001
0000
1000
0000
0100
0000
0010
0000
,  // measure 10
0001
0100
0001
0100
0010
1000
0010
1000
0001
0010
0100
1000
0100
0010
0001
0010
,  // measure 11
0001
1000
0001
1000
0010
0100
0010
0100
0001
0000
0100
0000
2020
0000
3030
0000
,  // measure 12
1100
0000
0100
0000
0110
0000
0100
0000
1100
0000
1000
0001
0100
0000
0001
0000
,  // measure 13
0101
0000
0001
0000
0101
0000
0100
0000
0110
0000
0100
0001
1000
0000
0001
0000
,  // measure 14
0011
0000
0001
0000
1001
0000
1000
0000
1010
0000
1000
0001
0100
0000
0001
0000
,  // measure 15
0101
0000
0001
0000
1001
0000
1000
0000
1100
0000
0010
0100
1000
0000
0010
0000
,  // measure 16
0110
0000
0010
1000
0001
0000
0100
0001
1000
0000
0010
1000
0001
0000
1000
0000
,  // measure 17
0001
0000
0010
0001
0100
0000
0010
1000
0100
0000
0010
0100
1000
0000
0010
0100
,  // measure 18
0001
0100
0001
0100
0010
1000
0010
1000
0001
0010
0100
1000
0100
0010
0001
1000
,  // measure 19
0001
0000
0100
0000
0001
0000
0000
0000
1000
0000
0100
0000
1000
0000
0000
0000
0001
0010
0000
0000
0000
0000
0000
0000
0110
0000
0000
0000
0000
0000
0000
0000
,  // measure 20
0011
0000
1001
0000
0001
0100
0010
0110
,  // measure 21
0000
0000
0100
0001
0100
0000
0001
0000
0100
0000
0001
0000
1001
0000
0000
0000
,  // measure 22
1100
0000
1001
0000
1000
0100
0010
0110
,  // measure 23
0000
0000
0100
0000
1000
0000
1100
0000
1000
0000
0001
1000
0010
0000
0100
0000
,  // measure 24
0110
0000
0000
0000
0101
0000
0000
0000
0001
0010
0001
0010
0001
0000
0011
0000
,  // measure 25
0000
0000
0001
1000
0001
0000
1001
0000
0000
0000
1000
0000
0010
0000
0100
0000
,  // measure 26
0010
1000
0010
1000
0001
0100
0001
0100
0001
0010
0100
1000
0100
0010
0001
1000
,  // measure 27
0001
0101
1000
1100
0001
0011
2020
3030
,  // measure 28
1001
0000
0000
0000
1100
0000
0000
0000
1000
0001
1000
0001
1000
0000
1100
0000
,  // measure 29
0000
0000
0001
0010
0100
0000
0010
0000
0001
0000
1000
0000
1001
0000
0000
0000
,  // measure 30
1100
0000
0000
0000
0110
0000
0000
0000
1000
0000
0100
0000
0010
0001
0000
1000
,  // measure 31
0001
0000
1000
0000
0010
0000
1010
0000
1000
0001
1000
0001
0010
0100
1000
0001
,  // measure 32
0010
0000
0000
0000
0011
0000
0000
0000
0001
0100
0001
0000
0010
0000
0011
0000
,  // measure 33
0000
0000
0001
1000
0001
0000
1001
0000
0000
0000
0100
0000
1010
0000
0000
0000
,  // measure 34
0010
0100
0010
0100
0001
1000
0001
1000
0001
0010
0100
1000
0100
0010
0001
0100
,  // measure 35
0001
1100
1000
0101
0010
0110
1000
0010
,  // measure 36
1001
MMMM
0011
1001
,  // measure 37
0101
0000
1010
0010
0100
0000
1010
0010
,  // measure 38
1000
0000
0100
1000
0100
1000
0010
0100
0001
0000
0000
0001
0010
0000
0001
0000
,  // measure 39
1000
0001
0010
0100
1000
0100
0010
0001
1000
0000
0000
0000
MMMM
0000
0000
0000
,  // measure 40
1001
MMMM
0011
1001
,  // measure 41
0101
0000
0110
0010
0100
0000
1010
0010
,  // measure 42
1000
1100
0001
0011
0001
0101
1000
1100
,  // measure 43
0001
0110
1000
0110
0001
0101
0110
0000
,  // measure 44
1010
MMMM
1100
0110
,  // measure 45
1001
0000
0011
0001
1000
0000
1010
0010
,  // measure 46
0100
0000
0010
1000
0010
1000
0001
0100
0001
0000
0000
0001
0010
0000
0001
0000
,  // measure 47
1000
0100
0010
0001
0010
0100
1000
0001
1000
0000
0000
0000
1100
0000
0000
0000
,  // measure 48
0110
0000
MMMM
0100
1000
0000
0100
0000
0110
0000
MMMM
0100
0001
0000
0100
0000
,  // measure 49
1100
0000
MMMM
0100
1000
0000
0001
0000
1001
0000
MMMM
0001
0100
0000
0001
0000
,  // measure 50
0010
0001
0010
0001
1000
0100
1000
0100
1000
0010
0100
0001
0100
0010
1000
0001
,  // measure 51
1000
0100
0010
0000
0001
0100
0010
0000
1000
0010
0100
0000
0110
0000
0000
0000
,  // measure 52
1010
0000
0010
0000
1000
0000
0100
0000
0010
0000
0100
0000
1000
0000
0001
0000
0010
0000
0001
0000
0100
0000
1000
0000
0100
0000
0001
1000
0001
0000
1000
0000
,  // measure 53
0001
0000
0010
0000
0100
0000
1000
0000
0010
0000
0100
0000
0001
0000
1000
0000
0010
0000
1000
0000
0100
0000
0001
0000
0100
0000
1000
0001
1000
0000
0001
0000
,  // measure 54
1001
0000
0010
0000
0100
0000
0001
0010
0100
0000
0010
0000
0001
0000
1000
0010
0100
0000
0010
0000
1000
0000
0001
0000
0100
0000
0001
1000
0001
0000
1000
0000
,  // measure 55
0010
0000
0010
0000
0100
0000
0001
0100
0001
0000
1000
0000
0100
0000
0100
0000
0010
0100
1000
0000
0010
0100
0001
0000
0220
0000
0000
0000
0330
0000
0000
0000
,  // measure 56
1000
0100
1000
0100
0010
0100
1000
0100
1000
0100
0010
0100
1000
0100
1000
0100
,  // measure 57
0010
0100
1000
0100
1000
0100
0010
0100
1000
0100
0010
0001
0010
0100
1000
0001
,  // measure 58
0100
0001
0100
0001
0010
0001
0100
0001
0100
0001
0010
0001
0100
0001
0100
0001
,  // measure 59
0010
0001
0100
0001
0100
0001
0010
0001
1000
0010
0100
0001
0100
0010
1000
0001
,  // measure 60
1000
0001
1000
0001
0100
0001
1000
0001
1000
0001
0100
0001
1000
0001
1000
0001
,  // measure 61
0100
0001
1000
0001
1000
0001
0100
0001
1000
0100
0010
0001
0010
0100
1000
0001
,  // measure 62
1000
0100
1000
0100
1000
0000
MMMM
0000
0001
0100
0001
0100
0001
0000
MMMM
0000
,  // measure 63
0010
1000
0100
0000
0010
0001
0100
0000
2001
0000
0000
0000
3010
0000
0000
0000
,  // measure 64
0220
0000
0000
0000
,  // measure 65
0000
0330
2020
3030
,  // measure 66
1100
0000
0100
1000
0010
0100
0001
1000
0001
0000
0000
0001
0010
0000
0001
0000
,  // measure 67
1000
0001
0100
0001
1000
0001
0010
0000
1001
0000
0000
0000
1100
0000
0000
0000
,  // measure 68
0110
MMMM
0011
1001
,  // measure 69
0101
0000
0110
0010
0100
0000
0101
0001
,  // measure 70
1000
1100
0001
0011
1000
1010
0001
0101
,  // measure 71
0001
0110
1000
0110
0011
1001
0110
0000
,  // measure 72
1010
MMMM
1100
0011
,  // measure 73
1001
0000
0110
0010
0100
0000
1010
0010
,  // measure 74
1000
0010
0100
0010
1000
0001
1000
0001
0100
0000
0000
0100
0010
0000
1000
0000
,  // measure 75
0001
1000
0100
1000
0001
1000
0010
0000
1001
0000
0000
0000
1100
0000
0000
0000
,  // measure 76
0011
0000
MMMM
0010
1000
0000
0010
0000
0011
0000
MMMM
0010
0001
0000
0010
0000
,  // measure 77
0110
0000
MMMM
0010
0001
0000
1000
0000
1001
0000
MMMM
1000
0010
0000
1000
0000
,  // measure 78
0001
0101
0001
1001
0001
0011
0001
1001
,  // measure 79
0001
0100
0001
0000
1000
0100
1000
0000
0001
0010
0100
1000
0001
0000
1000
0000
,  // measure 80
1001
0000
MMMM
0001
0100
0000
0001
0000
1010
0000
MMMM
1000
0100
0000
1000
0000
,  // measure 81
0011
0000
MMMM
0001
0100
0000
0001
0000
0110
0000
MMMM
0010
1000
0000
0001
0000
,  // measure 82
1000
0100
1000
0100
0010
0001
0010
0001
1000
0010
0100
0001
0100
0010
1000
0001
,  // measure 83
1000
0100
0001
0000
0100
1000
0001
0000
0100
0001
1000
0000
0210
0000
0000
0000
,  // measure 84
0301
0010
0100
1000
0100
0010
0001
0100
1000
0100
0001
0000
2002
0000
0000
0000
,  // measure 85
0000
0000
0000
0000
,  // measure 86
3003
0000
0000
0000
;

//---------------dance-double - ----------------
#NOTES:
     dance-double:
     :
     Easy:
     7:
     0.370,0.402,0.134,0.134,0.000:
00000000
00000000
00000000
00000000
,
00000000
00000000
00000000
00000000
,
00000000
00000000
00000000
00000000
,
00000000
00000000
00000000
00000000
,
00000000
00000000
00000000
00000000
,
00000000
00000000
00000000
00000000
,
00000000
00000000
00000000
00000000
,
00200000
00000000
00010000
00300000
,
00002000
00000000
00010000
00003000
,
00000020
00000000
00001000
00000030
,
00000001
00000010
00001000
00201000
,
00301000
00010000
00100000
10000000
,
01000000
00010000
00001000
00000010
,
00000001
00000100
00001000
00010000
,
00100000
10000000
01000000
00010000
,
00001000
00010000
00001000
00011000
,
00010000
00000010
00000100
00000110
,
00000010
00010000
00001000
01000000
,
00100000
01000000
00100000
01000000
00100000
00000000
01100000
00000000
,
10000000
01000000
00000000
10000000
,
00010000
00100000
00001000
00010000
,
00000010
00000100
00000000
00000001
,
00000010
00000100
00001000
00010000
,
00100000
10000000
00000000
00100000
,
01000000
00010000
00001000
00000010
,
00000001
00000100
00000010
00010000
,
00001000
00010000
00001000
00010000
00001000
00000000
00020000
00000000
,
00031000
01000000
00000000
00100000
,
10000000
01000000
00010000
00001000
,
00000010
00000001
00000000
00000100
,
00001000
00010000
00001000
00100000
,
00010000
01000000
00000000
00100000
,
10000000
01000000
00010000
00001000
,
00000010
00000001
00000100
00001000
,
00010000
00001000
00010000
00001000
00010000
00000000
00001000
00000000
,
00010000
00001000
01000000
00100000
,
10000000
01000000
00100000
00001000
,
00010000
00000010
00000010
00000100
,
00000001
00000010
00000200
00020300
,
00031000
00100000
00010000
01000000
,
00100000
10000000
01000000
00100000
,
00001000
00010000
00010000
00001000
,
00010000
00000010
00010000
00000010
00010000
00000000
00000010
00000000
,
00000100
00000001
00000010
00001000
,
00010000
00100000
10000000
01000000
,
00010000
00001000
00000010
00000001
,
00000100
00010000
00002000
00023000
,
00031000
00010000
00001000
00011000
,
00001000
01000000
00100000
01100000
,
10000000
01000000
00100000
00101000
,
00001000
00010000
00001000
00010000
00001000
00000000
00010000
00000000
,
00000010
00000000
00000000
00000000
,
00000100
00000000
00000000
00000000
,
00011000
00000000
00000000
00000000
,
00100000
00000000
00010000
00000000
10000000
00010000
10010000
00000000
,
10000000
00000000
00000000
01000000
00000000
00000000
00100000
00000000
,
00000000
00010000
00000000
00000000
00001000
00000000
00000010
00000000
,
00000001
00000000
00000000
00000100
00000000
00000000
00000010
00000000
,
00000000
00001000
00000000
00000000
00010000
00000000
00100000
00000000
,
10000000
00000000
00000000
00100000
00000000
00000000
01000000
00000000
,
00000000
00010000
00000000
00000000
00001000
00000000
00000010
00000000
,
00000001
00000100
00000010
00010000
,
00001000
00010000
00001000
00010000
00002000
00000000
00013000
00000000
,
02100000
00000000
00000000
00000000
,
00000000
00000000
00020000
03030000
,
10000000
01000000
00100000
00010000
,
00001000
00000010
00000002
00000203
,
00000301
00000010
00000100
00001000
,
00010000
00100000
10000000
01000000
,
00100000
00001000
00010000
00011000
,
00000010
00000100
00000010
00000100
00000010
00000000
00000100
00000000
,
00000010
00001000
00000100
00000001
,
00000100
00001000
00010000
01000000
,
10000000
01000000
00100000
00100000
,
01000000
00001000
00020000
00032000
,
00013000
00001000
00010000
00011000
,
00010000
00000010
00000100
00000110
,
00000010
00010000
00001000
00011000
,
00001000
01000000
00001000
00000000
10000000
01000000
10000000
00000000
,
00100000
00001000
00010000
00011000
,
00010000
00000010
00000100
00000110
,
00000001
00000010
00000100
00010100
,
00001000
00000000
00010000
00000000
00001000
00010000
00001000
00000000
,
01000000
00000000
10000000
01000000
00000000
00010000
00002000
00000000
,
00000000
00000000
00000000
00000000
,
00003000
00000000
00000000
00000000
;

//---------------dance-double - ----------------
#NOTES:
     dance-double:
     :
     Medium:
     10:
     0.525,0.537,0.300,0.197,0.028:
00000000
00000000
00000000
00000000
,
00000000
00000000
00000000
00000000
,
00000000
00000000
00000000
00000000
,
00000000
00000000
00000000
00000000
,
00000000
00000000
00000000
00000000
,
00000000
00000000
00000000
00000000
,
00000000
00000000
00000000
00000000
,
00000020
00000000
00001000
00000030
,
00000200
00000000
00010000
00000300
,
00020000
00000000
00001000
00030000
,
00001000
00100000
00001000
00100000
00001000
00000000
02100000
00000000
,
03010000
00000000
01000000
00010000
01000000
00000000
00010000
00000000
,
10000000
01000000
10000000
01000000
10000000
00000000
00100000
00000000
,
01000000
00000000
00001000
00100000
00001000
00000000
00010000
00000000
,
00000010
00010000
00000010
00010000
00000010
00000000
00000100
00000000
,
00000010
00000000
00001000
00000100
00000010
00000000
00000001
00000000
,
00000010
00000100
00010000
00000100
00010000
00000000
00001000
00000000
,
00100000
00001000
00100000
00001000
00010000
00001000
00010000
00000000
,
00001000
01000000
00100000
01000000
00010000
00000000
01100000
00000000
,
10010000
00000000
01000000
00000000
00100000
01000000
10000000
01000000
,
00000000
01000000
00100000
00000000
00001000
00010000
00001000
00000000
,
00010000
00000000
00000010
00000000
00000100
00000010
00010000
00000100
,
00000000
00000100
00001000
00000100
00000000
00000100
00000010
00000001
,
00000100
00000000
00000010
00000000
00010000
00000010
00010000
00000100
,
00000000
00000100
00010000
00000000
00001000
00010000
00001000
00000000
,
01000000
01010000
00010000
00110000
,
00010000
01000000
00100000
10000000
00010000
00000000
20010000
00000000
,
31000000
00000000
00100000
00000000
00001000
00100000
00001000
00010000
,
00000000
00010000
00000010
00000100
00000010
00000000
00001000
00000000
,
00000001
00000000
00000010
00000000
00000100
00001000
00010000
00100000
,
00000000
00100000
00010000
01000000
00000000
01000000
00100000
01000000
,
00010000
00000000
10000000
00000000
01000000
10000000
00100000
01000000
,
00000000
01000000
00001000
00000000
00010000
00001000
00010000
00000000
,
00010000
00010100
00000100
00000110
,
00000001
00000100
00000001
00001000
00000001
00000000
00001001
00000000
,
00000001
00000011
00000001
00000100
,
00000101
00000000
00000001
00001000
00000100
00000000
00010000
00000100
,
00010000
00001000
00020000
00000000
00001000
00000000
01030000
00000000
,
00020000
01030000
00200000
20300000
,
30010000
00110000
00010000
01000000
,
01010000
00000000
00010000
10000000
01000000
00000000
10000000
00100000
,
01000000
00001000
01000000
00000000
00001000
00010000
00001000
00000000
,
00010000
00001000
00000010
00000001
00000010
00000100
00010000
00000000
,
00001000
00011000
00001000
00010000
,
00010010
00000000
00000010
00000100
00000001
00000000
00001000
00000100
,
00001000
00000010
00002000
00000000
00000001
00000000
00003100
00000000
,
00020000
00031000
02000000
03200000
,
10300000
11000000
00010000
01010000
,
00100000
00101000
00010000
00011000
,
00001000
00010000
00001000
00000000
00010000
00000010
00010000
00000000
,
00000010
00000100
00000010
00001000
00100000
00000000
01100000
00000000
,
10010000
01000000
00100000
00000000
00010000
00001000
00000010
00000000
,
00000100
00000010
00001000
00000000
00000001
00000010
00000100
00000000
,
00011000
00001000
00100000
00000000
00010000
01000000
10000000
00000000
,
01000000
00000000
00010000
00000000
00002000
00000000
00000000
00000000
00013000
00001000
00010000
00000000
00011000
00000000
00000000
00000000
,
00010000
00000000
00001000
01000000
00000000
00001000
00010000
00000000
,
00001000
00100000
00000000
00001000
00010000
00000000
00001000
00000000
,
00010000
00000000
00000010
00000100
00000000
00000010
00001000
00000000
,
00000010
00000100
00000000
00000001
00001000
00000000
00000001
00000000
,
00000010
00000000
00001000
00010000
00000000
00001000
00100000
00000000
,
00010000
01000000
00000000
00100000
10000000
00000000
00010000
00000000
,
10000000
01000000
10000000
00000000
01000000
00001000
01000000
00000000
,
00010000
00000010
00010000
00000010
00010000
00000000
00000110
00000000
,
00002002
00000000
00000000
00000000
,
00000000
00003003
00002020
00003030
,
00001000
00000000
00000100
00000000
00001000
00000000
00000000
00000000
00000100
00000000
00000000
00010000
00000000
00000000
00001000
00000000
,
01000000
00010000
01000000
00000000
00020000
00000000
00230000
00000000
,
00310000
10010000
00010000
01000000
,
01010000
00000000
00010000
00100000
01000000
00000000
00100000
00001000
,
00010000
00001000
00010000
00000000
00000100
00000001
00000100
00000000
,
00001000
00010000
01000000
10000000
01000000
00010000
00001000
00000000
,
00010000
00010010
00010000
00000100
,
00000110
00000000
00000010
00000001
00001000
00000000
00000001
00000100
,
00000010
00000000
00010000
00000000
00001000
00000000
00000000
00000000
00010000
00000000
00000000
00001000
00000000
00000000
01000000
00000000
,
00010000
10000000
01000000
00000000
00200000
00000000
00302000
00000000
,
00013000
00011000
00010000
00010100
,
00000100
00000110
00000010
00000011
,
00000001
00000100
00001000
00000000
00010000
01000000
10000000
00000000
,
01000000
00001000
00010000
00000000
00001000
00000000
00011000
00000000
,
00000010
00000000
00000000
00000100
00000010
00000000
00010000
00000000
00000100
00000000
00000000
00010000
00001000
00000000
00100000
00000000
,
00010000
00000000
00000000
01000000
00100000
00000000
10000000
00000000
00010000
00000000
00000000
10000000
01000000
00000000
00100000
00000000
,
00010000
00001000
00000010
00000001
00000020
00000000
00000130
00000000
,
00010000
01000000
10000000
00000000
00010000
00001000
00000010
00000000
,
00000110
00000000
00010000
00010100
00000000
00010000
00022000
00000000
,
00000000
00000000
00000000
00000000
,
00033000
00000000
00000000
00000000
;

//---------------dance-double - ----------------
#NOTES:
     dance-double:
     :
     Hard:
     14:
     0.707,1.000,0.608,0.142,0.304:
00000000
00000000
00000000
00000000
,
00000000
00000000
00000000
00000000
,
00000000
00000000
00000000
00000000
,
00000000
00000000
00000000
00000000
,
00000000
00000000
00000000
00000000
,
00000000
00000000
00000000
00000000
,
00000000
00000000
00000000
00000000
,
00200000
00000000
00001000
00300000
,
00002000
00000000
00010000
00003000
,
00000200
00000000
00001000
00000300
,
00010000
01000000
00100000
10000000
00010000
00000000
02100000
00000000
,
03010000
00000000
01000000
00010000
00100000
00000000
00001000
00000000
,
00010000
00000100
00000010
00000001
00001000
00000000
00000001
00000000
,
00000010
00000000
00000100
00010000
00001000
00000000
00010000
00000000
,
00001000
01000000
00100000
10000000
00010000
00000000
10000000
00000000
,
00010000
00100000
00010000
00100000
01000000
00100000
00010000
00001000
,
00000010
00000100
00000010
00000100
00000001
00000010
00000100
00001000
,
00010000
00100000
00010000
00100000
10000000
00100000
10000000
00100000
,
00001000
00000000
00000000
00000000
00010000
00000000
00000000
00000000
00000010
00000000
00000000
00000000
00000100
00000000
00000000
00000000
00000001
00000010
00000000
00000000
00000000
00000000
00000000
00000000
00000110
00000000
00000000
00000000
00000000
00000000
00000000
00000000
,
00001001
00000000
00000010
00000000
00001000
00000100
00010000
00002000
,
00000000
00000000
00013000
00001000
00010000
00000000
00001000
00000000
01000000
00000000
00100000
00000000
10000000
00000000
00000000
00000000
,
01000000
00000000
11000000
00000000
10000000
01000000
00100000
00001000
,
00000000
00001000
00010000
00001000
00000010
00000001
00000010
00000100
,
00001000
00000000
00001100
00000000
00000001
00000100
00000010
00002000
,
00000000
00000000
00003001
00000100
00000001
00000000
00001000
00000000
00000100
00000000
00010000
00000000
00001000
00000000
00000000
00000000
,
01000000
00010000
01000000
00010000
00100000
00001000
00100000
00001000
,
00010000
00001000
00000100
00000010
00001000
00010000
00200000
00000000
,
00310000
00000000
01010000
00000000
00010000
00100000
01000000
20000000
,
00000000
00000000
30100000
01000000
00100000
00000000
01000000
00000000
00001000
00000000
00010000
00000000
00001000
00000000
00000000
00000000
,
00010000
00000000
00000000
00000000
00010100
00000000
00000000
00000000
00010000
00000000
00000010
00000000
00000100
00000010
00000100
00000000
,
00000001
00000000
00000010
00000000
00001000
00000000
00000010
00000000
00000100
00000000
00010000
00001000
00010000
00000000
00001000
00000000
,
01000000
00000000
01001000
00000000
00001000
00100000
00001000
00020000
,
00000000
00000000
00030010
00000100
00000010
00000000
00001000
00000000
00000100
00000000
00000010
00000000
00000001
00000000
00000000
00000000
,
00000011
00000001
00000100
00000000
00001010
00000010
00010000
00000000
,
00001000
00001000
00010000
00010000
00001000
01000000
02100000
00000000
,
03010000
01010000
11000000
01100000
,
00101000
00000000
00011000
00001000
00010000
00000000
00001000
00010000
,
00000010
00000000
00000100
00000000
00000001
00000000
00000100
00000000
00001000
00000000
00000000
00000100
00000001
00000000
00000010
00000000
,
00000100
00001000
00010000
00100000
10000000
00000000
01100000
00000000
,
10000000
11000000
01100000
00101000
,
00011000
00000000
00010100
00000100
00010000
00000000
00000010
00000100
,
00000001
00000010
00000001
00000010
00001000
00010000
00001000
00010000
,
00001000
01000000
00100000
10000000
01000000
00010000
01100000
00000000
,
01010000
00011000
00010100
00000110
,
00000011
00000000
00000110
00000100
00010000
00000000
00011000
00001000
,
01000000
00000000
00100000
00000000
10000000
00000000
01000000
00000000
00010000
00000000
00000000
01000000
10000000
00000000
00100000
00000000
,
01000000
00010000
00001000
00000010
00000001
00000000
00000110
00000000
,
00000001
00000000
00000000
00000100
00000001
00000000
00001000
00000000
00000100
00000000
00000000
00010000
00000100
00000000
00010000
00000000
,
00001000
00000000
00000000
00100000
00001000
00000000
00100000
00000000
01000000
00000000
00000000
00100000
00010000
00000000
10000000
00000000
,
00010000
01000000
00010000
01000000
10000000
01000000
00010000
00001000
,
00000010
00000100
00000010
00000000
00001000
00000001
00001000
00000000
00001001
00000000
00000000
00000000
00010100
00000000
00000000
00000000
,
00011000
00001000
01000000
00100000
10000000
01000000
00100000
00010000
00001000
00000010
00000001
00000010
00000100
00000000
00000110
00000000
,
00000001
00000100
00000010
00000100
00000001
00000010
00000100
00001000
00010000
00100000
10000000
00100000
01000000
00000000
01100000
00000000
,
10000000
00000000
00100000
00000000
01000000
00000000
00001000
00000000
00010000
00000000
00001000
00010000
00001000
00000000
00010000
00000000
00000010
00000000
00000100
00000000
00000001
00000000
00000010
00000000
00000100
00000000
00010000
00000100
00010000
00000000
00001000
00000000
,
00100000
00010000
01000000
10000000
01000000
00010000
00001000
00000100
00000001
00000001
00000100
00000100
00000220
00000000
00000330
00000000
,
00000001
00000000
00000000
00000101
00000000
00000000
00000100
00000000
00000000
00000110
00000000
00000000
00000010
00000000
00000000
00010010
,
00000000
00000000
00010000
00000000
00000000
00011000
00000000
00000000
01001000
00000000
00000000
00001000
01000000
00000000
00000000
00000000
,
00100000
00000000
00000000
01100000
00000000
00000000
00100000
00000000
00000000
10100000
00000000
00000000
10000000
00000000
00000000
11000000
,
00000000
00000000
01000000
00000000
00000000
01100000
00000000
00000000
00101000
00000000
00000000
00001000
00010000
00000000
00000000
00000000
,
00000010
00000000
00001000
00000100
00000000
00000000
00000001
00000000
00000100
00010000
00000000
00000000
00001000
00000000
00100000
00001000
,
00000000
00000000
01000000
00000000
00100000
10000000
00000000
00000000
00010000
00000000
00000000
00010000
10000000
00000000
00010000
00000000
,
10000000
01000000
10000000
01000000
00010000
00001000
00010000
00001000
,
00000010
00000001
00000010
00000000
00000001
00001000
00000001
00000000
00000100
00000000
00000000
00000000
00010100
00000000
00000000
00000000
,
00022000
00000000
00000000
00000000
,
00000000
00033000
00202000
00303000
,
00001000
00000000
01000000
00000000
00100000
00000000
10000000
00000000
01000000
00000000
00100000
01000000
00000000
10000000
01000000
00000000
,
00100000
00001000
00010000
00001000
00010000
00000000
00010010
00000000
,
00000011
00000110
00010100
00011000
,
00101000
00000000
01010000
00010000
01000000
00000000
00100000
10000000
,
01000000
00010000
01000000
00010000
00001000
00010000
00001000
00010000
,
00000010
00001000
00000100
00000001
00000100
00001000
00000110
00000000
,
00000011
00000101
00000110
00010010
,
00011000
00000000
00101000
00001000
00010000
00000000
00001000
01000000
,
00100000
00000000
10000000
00000000
00100000
00000000
00010000
00000000
00100000
00000000
01000000
00001000
00000000
00010000
00001000
00000000
,
00010000
00000010
00000100
00000001
00000010
00000000
00000011
00000000
,
00000101
00000000
00000000
00000001
00000100
00000000
00000001
00000000
00001001
00000000
00000000
00001000
00000100
00000000
00010000
00000000
,
00011000
00000000
00000000
00001000
00100000
00000000
00010000
00000000
10010000
00000000
00000000
00010000
01000000
00000000
00010000
00000000
,
10000000
10000000
01000000
01000000
00010000
00010000
00001000
00001000
,
00000010
00000001
00001000
00000000
00000010
00010000
00001000
00000000
00101000
00000000
00000000
00000000
01100000
00000000
00000000
00000000
,
11000000
00000000
00000000
01000000
10000000
00000000
00010000
00000000
10010000
00000000
00000000
00010000
01000000
00000000
00001000
00000000
,
00011000
00000000
00000000
00001000
00100000
00000000
00001000
00000000
00011000
00000000
00000000
00001000
01000000
00000000
00001000
00000000
,
00010000
00000000
00010000
00000000
00000100
00000000
00000010
00000001
00000010
00000000
00000001
00000000
00000100
00000000
00001000
00000000
,
00010000
00010000
00100000
00100000
10000000
00100000
01100000
00000000
,
10000000
00000000
00100000
01000000
00001000
00000000
00010000
00001000
00010000
00000000
00001000
00000000
00022000
00000000
00000000
00000000
,
00000000
00000000
00000000
00000000
,
00033000
00000000
00000000
00000000
;

//---------------dance-double - ----------------
#NOTES:
     dance-double:
     :
     Challenge:
     18:
     0.944,1.000,0.639,0.095,0.959:
00000000
00000000
00000000
00000000
,
00000000
00000000
00000000
00000000
,
00000000
00000000
00000000
00000000
,
00000000
00000000
00000000
00000000
,
00000000
00000000
00000000
00000000
,
00000000
00000000
00000000
00000000
,
00000000
00000000
00000000
00000000
,
00000100
00000000
00010000
00000000
00001000
00000000
01000000
00000000
00100000
00000000
10000000
01000000
10000000
00000000
00010000
00000000
,
10000000
00000000
01000000
00000000
00100000
00000000
00001000
00000000
00010000
00000000
00000010
00010000
00000010
00000000
00001000
00000000
,
00000001
00000010
00000001
00000010
00000100
00001000
00000100
00001000
00010000
00100000
00010000
00100000
01000000
10000000
01000000
10000000
,
00100000
01000000
00010000
00000000
00100000
00001000
00010000
00000000
00000100
00001000
00000010
00000000
00000120
00000000
00000000
00000000
,
00001030
00000000
00000010
00000000
00001000
00000000
00000100
00000000
00000001
00000000
00000100
00010000
00000100
00000000
00010000
00000000
,
00001000
00000000
01000000
00000000
00100000
00000000
10000000
00000000
00010000
00000000
10000000
01000000
10000000
00000000
00010000
00000000
,
10000000
00000000
00100000
00000000
10000000
00000000
01000000
00000000
00010000
00000000
00000100
00010000
00000100
00000000
00010000
00000000
,
00000010
00000000
00000100
00000000
00000001
00000000
00001000
00000000
00000010
00000000
00010000
00001000
00010000
00000000
00001000
00000000
,
01000000
00000000
00010000
00000000
00110000
00000000
00010000
00000000
10010000
00000000
10000000
01000000
00100000
00000000
00001000
00000000
,
00010000
00000000
00000010
00000000
00000110
00000000
00000010
00000000
00001010
00000000
00000010
00001000
00000001
00000000
00001000
00000000
,
00000001
00000010
00000001
00000010
00000100
00001000
00000100
00001000
00010000
00100000
00010000
00100000
01000000
10000000
01000000
10000000
,
00100000
00000000
01000000
00000000
00001000
00000000
00000000
00000000
00100000
00000000
00001000
00000000
00010000
00000000
00000000
00000000
00000010
00001000
00000000
00000000
00000000
00000000
00000000
00000000
00000110
00000000
00000000
00000000
00000000
00000000
00000000
00000000
,
00001010
00000000
00000100
00000000
00010000
00000100
00010000
00001000
,
00000000
00000000
01000000
00010000
01000000
00000000
00010000
00000000
00100000
00000000
01000000
00000000
11000000
00000000
00000000
00000000
,
00100000
00000000
00000000
00000000
10010000
00000000
00000000
00000000
01000000
00000000
00010000
01000000
00010000
00000000
00100000
00000000
,
00001000
00000000
00010000
00001000
00010000
00000000
00000010
00000000
00000100
00000000
00000001
00000000
00001000
00000000
00000100
00000000
,
00001100
00000000
00000000
00000000
00011000
00000000
00000000
00000000
00001000
01000000
00001000
01000000
00001000
00000000
01000000
00000000
,
00100000
00000000
10000000
01000000
10000000
00000000
01000000
00000000
00100000
00000000
00010000
00000000
00001000
00000000
00000100
00000000
,
00000001
00000010
00000001
00000010
00000100
00001000
00000100
00001000
00010000
00100000
00010000
00100000
01000000
10000000
01000000
10000000
,
00100000
01000000
00001000
00000000
00100000
00001000
00010000
00000000
00001000
00000000
00010000
00000000
00021000
00000000
00000000
00000000
,
00030010
00000000
00000000
00000000
00000110
00000000
00000000
00000000
00000100
00000001
00000000
00000100
00001000
00000000
00000100
00000000
,
00000001
00000000
00000010
00000100
00010000
00000000
00001000
00000000
00100000
00000000
00010000
00000000
01010000
00000000
00000000
00000000
,
00100000
00000000
00000000
00000000
01100000
00000000
00000000
00000000
10000000
01000000
00000000
00010000
01000000
00000000
00100000
00000000
,
00001000
00000000
00010000
00001000
00010000
00000000
00000010
00000000
00001000
00000010
00000100
00000001
00001000
00000100
00010000
00001000
,
00010000
00000000
00000000
00000000
00011000
00000000
00000000
00000000
00001000
01000000
00000000
00100000
01000000
00000000
00010000
00000000
,
10000000
00000000
01000000
00010000
01000000
00000000
00001000
00000000
00010000
00000000
00000010
00000000
00000110
00000000
00000000
00000000
,
00000001
00000010
00000001
00000010
00000100
00001000
00000100
00001000
00010000
00100000
00010000
00100000
01000000
10000000
01000000
10000000
,
00100000
01100000
01000000
01001000
00001000
00101000
00022000
00033000
,
00010100
MMMMMMMM
01100000
00101000
,
00011000
00000000
00101000
00001000
00010000
00000000
00010010
00000010
,
00000100
00000000
00000001
00001000
00000001
00000100
00000001
00000100
00000010
00000000
00010000
00000100
00000000
00010000
00001000
00000000
,
00100000
00010000
00100000
00010000
01000000
00000000
00100000
10000000
00010000
00000000
00000000
00000000
MMMMMMMM
00000000
00000000
00000000
,
11000000
MMMMMMMM
00101000
00011000
,
00010100
00000000
00000110
00000010
00000001
00000000
00000110
00000010
,
00001000
00001100
00010000
00011000
01000000
01010000
00100000
01100000
,
00001000
01001000
00100000
00101000
00001000
00011000
00010100
00000000
,
00000110
MMMMMMMM
01001000
01100000
,
10100000
00000000
11000000
01000000
00100000
00000000
00101000
00001000
,
00010000
00000000
00000010
00001000
00000010
00001000
00000001
00000000
00000010
00000000
00000100
00010000
00000000
00001000
00010000
00000000
,
00100000
00010000
10000000
00010000
01000000
00000000
00010000
00100000
00001000
00000000
00000000
00000000
MMMMMMMM
00000000
00000000
00000000
,
01100000
00000000
MMMMMMMM
00010000
10000000
00000000
01000000
00000000
11000000
00000000
MMMMMMMM
00100000
00001000
00000000
00010000
00000000
,
00011000
00000000
MMMMMMMM
00000100
00000010
00000000
00000001
00000000
00000101
00000000
MMMMMMMM
00001000
00000100
00000000
00001000
00000000
,
00000001
00000010
00000001
00000010
00000100
00001000
00000100
00001000
00010000
00100000
00010000
00100000
01000000
10000000
01000000
10000000
,
00100000
01000000
00001000
00000000
00100000
00001000
00010000
00000000
00000010
00000100
00000001
00000000
00000010
00000100
00010000
00000000
,
00011000
00000000
00001000
00000000
01000000
00000000
00100000
10000000
00100000
00000000
10000000
00000000
01000000
00000000
00100000
00000000
00010000
00000000
00001000
00000000
00000100
00000000
00000010
00000001
00000010
00000000
00000001
00000000
00000100
00000000
00000010
00000000
,
00010000
00000000
00000100
00000000
00000010
00000000
00000100
00010000
00000100
00000000
00010000
00000000
00001000
00000000
00100000
00000000
00010000
00000000
01000000
00000000
00100000
00000000
10000000
00100000
10000000
00000000
00010000
00000000
01000000
00000000
00001000
00000000
,
00100000
00000000
00001000
00000000
00010000
00000000
00001000
00000100
00000010
00000000
00001000
00000000
00000100
00000000
00000010
00000000
00000001
00000000
00000010
00000000
00000100
00000000
00000001
00000010
00000100
00000000
00001000
00000000
00100000
00000000
10000000
00000000
,
00100000
00000000
01000000
10000000
00010000
00000000
01000000
00001000
00010000
00000000
00001000
00000000
00010000
00000000
00000010
00000000
00000100
00000010
00001000
00000000
00000100
00000010
00000001
00000000
00000022
00000000
00000000
00000000
00000033
00000000
00000000
00000000
,
00000001
00000100
00000001
00000100
00000010
00001000
00000010
00001000
00010000
01000000
00010000
01000000
00100000
10000000
00100000
10000000
,
01000000
00100000
01000000
00100000
00001000
00010000
00001000
00010000
00000010
00000100
00000001
00001000
MMMMMMMM
00000000
00000000
00000000
,
00000001
00000010
00000001
00000010
00000100
00001000
00000100
00001000
00010000
00100000
00010000
00100000
01000000
10000000
01000000
10000000
,
00100000
01000000
00100000
01000000
00001000
00100000
00001000
00100000
00001000
00010000
00000100
00001000
MMMMMMMM
00000000
00000000
00000000
,
10000000
01000000
10000000
01000000
00100000
00010000
00100000
00010000
00001000
00000100
00001000
00000100
00000010
00000001
00000010
00000001
,
00000010
00000100
00000010
00000100
00010000
00001000
00010000
00001000
00100000
00010000
01000000
00100000
MMMMMMMM
00000000
00000000
00000000
,
10000000
01000000
10000000
01000000
00010000
01000000
00010000
01000000
00001000
00010000
00001000
00010000
00000010
00000100
00000010
00000100
,
00000001
00000010
00000100
00000000
00010000
00001000
00100000
00000000
00010000
01000000
00100000
00000000
01100000
00000000
00000000
00000000
,
20200000
00000000
00000000
00000000
,
00000000
30300000
02200000
03300000
,
10000000
00000000
01000000
10000000
00010000
01000000
00010000
00100000
00001000
00000000
00010000
00001000
00000000
00010000
00000100
00000000
,
00001000
00000010
00000100
00000001
00001000
00000010
00000100
00000001
00001000
00000000
00000000
00000000
MMMMMMMM
00000000
00000000
00000000
,
00000001
00000000
00000010
00000100
00010000
00000000
00001000
00100000
00010000
00000000
01000000
00010000
00000000
10000000
00010000
00000000
,
10000000
00000000
01000000
00100000
00010000
00000000
00100000
00001000
00010000
00000000
00000010
00010000
00000000
00000010
00000100
00000001
,
00001000
00001100
00000001
00000101
00000010
00001010
00000100
00010100
,
00001000
01001000
01100000
01010000
00110000
00011000
00010100
00000000
,
00000110
MMMMMMMM
00101000
00011000
,
01001000
00000000
01100000
00100000
10000000
00000000
11000000
01000000
,
00100000
00000000
00001000
00010000
00000010
00000100
00000001
00001000
00000100
00000000
00010000
00000100
00000000
00010000
00001000
00000000
,
00100000
00010000
01000000
00100000
10000000
00010000
10000000
00000000
00010000
00000000
00000000
00000000
MMMMMMMM
00000000
00000000
00000000
,
00000110
00000000
MMMMMMMM
00000001
00000100
00000000
00000010
00000000
MMMMMMMM
00000000
00000000
00010000
00001000
00000000
00010000
00000000
,
MMMMMMMM
00000000
00000000
01000000
00100000
00000000
00010000
00000000
MMMMMMMM
00000000
00000000
10000000
00010000
00000000
10000000
00000000
,
00010000
01010000
00001000
00101000
00000010
00001010
00000100
00000101
,
00000001
00000010
00000100
00000000
00001000
00010000
00100000
00000000
00010000
01000000
10000000
00000000
01100000
00000000
00000000
00000000
,
10000000
00000000
MMMMMMMM
01000000
00010000
00000000
00001000
00000000
MMMMMMMM
00000000
00000000
00000001
00000010
00000000
00001000
00000000
,
MMMMMMMM
00000000
00000000
00010000
01000000
00000000
10000000
00000000
MMMMMMMM
00000000
00000000
00100000
00010000
00000000
00001000
00000000
,
00000001
00000010
00000001
00000010
00000100
00001000
00000100
00001000
00010000
00100000
00010000
00100000
01000000
10000000
01000000
10000000
,
00100000
01000000
00001000
00000000
00100000
00001000
00010000
00000000
00011000
00000000
00010000
00000000
00010100
00000000
00000000
00000000
,
00000001
00000010
00000100
00001000
00010000
00100000
01000000
10000000
01000000
00100000
00001000
00000000
00022000
00000000
00000000
00000000
,
00000000
00000000
00000000
00000000
,
00033000
00000000
00000000
00000000
;
