#TITLE:High School Love -premium live mix-;
#SUBTITLE:;
#ARTIST:DJ YOSHITAKA feat.星野奏子;
#TITLETRANSLIT:;
#SUBTITLETRANSLIT:;
#ARTISTTRANSLIT:DJ YOSHITAKA feat.Kanako Hoshino;
#GENRE:;
#CREDIT:;
#MENUCOLOR:;
#METERTYPE:DDR;
#BANNER:High School Love -premium live mix-.png;
#BACKGROUND:High School Love -premium live mix--bg.png;
#LYRICSPATH:;
#CDTITLE:./CDTITLES/POP'N MUSIC.PNG;
#MUSIC:High School Love -premium live mix-.ogg;
#OFFSET:0.000;
#SAMPLESTART:45.833;
#SAMPLELENGTH:15.000;
#SELECTABLE:YES;
#LISTSORT:;
#BPMS:0.000=180.000;
#STOPS:;
#BGCHANGES:0.000=High School Love -premium live mix-.avi=1.000=0=0=0,
99999=-nosongbg-=1.000=0=0=0 // don't automatically add -songbackground-
;
#ATTACKS:;

//---------------dance-single - ----------------
#NOTES:
     dance-single:
     :
     Beginner:
     3:
     0.129,0.185,0.009,0.000,0.000:
0000
0000
0000
0000
,
0000
0000
0000
0000
,
0000
0000
0000
0000
,
0000
0000
0000
0000
,
0000
0000
0000
0000
,
0000
0010
0000
0000
,
0000
0100
0000
0000
,
0000
0010
0000
0000
,
1000
0000
0001
0000
,
1000
0000
0000
0000
,
0000
0000
0000
0000
,
0001
0000
0000
0000
,
0000
0100
0000
0100
,
0000
0000
0000
0000
,
0000
0010
0000
0010
,
0010
0000
1000
0000
,
0001
0000
0100
0000
,
0001
0000
0000
0000
,
1000
0000
0000
0000
,
0100
0000
0000
0000
,
0100
0000
0000
0000
,
0010
0000
0000
0000
,
0001
0000
0000
0000
,
0010
0000
0000
0000
,
0100
0000
1000
0000
,
0100
0000
0000
0000
,
1000
0000
0000
0000
,
0010
0000
0000
0000
,
0100
0000
0000
0000
,
0001
0000
0001
0000
,
0001
0000
0000
0000
,
1000
0000
0000
0000
,
1000
0000
0000
0000
,
1000
0000
1000
0000
,
0010
0000
0000
0000
,
0000
0100
0000
0000
,
0000
0100
0000
0010
,
0000
0001
0000
0000
,
0010
0000
0000
0000
,
0100
0000
1000
0000
,
0001
0000
0000
0000
,
0100
0000
0001
0000
,
1000
0000
0000
0000
,
0000
0010
0000
0000
,
0000
0000
0000
0000
,
0100
0000
0010
0000
,
1000
0000
0000
0000
,
0001
0000
0000
0000
,
0001
0000
0000
0000
,
0010
0000
0100
0000
,
1000
0000
0000
0000
,
0100
0000
0010
0000
,
0001
0000
0000
0000
,
1000
0000
0000
0000
,
0001
0000
0000
0000
,
0100
0000
0000
0000
,
0010
0000
0000
0000
,
1000
0000
0000
0000
,
0001
0000
0000
0000
,
1000
0000
0000
0000
,
0100
0000
1000
0000
,
0001
0000
0001
0000
,
0001
0000
0001
0000
,
1000
0000
1000
0000
,
1000
0000
0000
0000
,
0000
0010
0000
0000
,
0000
0000
0000
0000
,
0100
0000
0000
0000
,
0010
0000
0001
0000
,
1001
0000
0000
0000
,
1000
0000
0000
0000
,
0001
0000
0100
0000
,
0001
0000
0000
0000
,
0000
1000
0000
0000
,
0000
0010
0000
0000
,
0100
0000
0010
0000
,
1000
0000
0000
0000
,
0001
0000
0000
0000
,
0010
0000
0100
0000
,
1000
0000
0000
0000
,
0100
0000
0010
0000
,
0001
0000
0000
0000
,
0100
0000
0001
0000
,
1000
0000
1000
0000
,
0001
0000
0001
0000
;

//---------------dance-single - ----------------
#NOTES:
     dance-single:
     :
     Easy:
     5:
     0.216,0.371,0.052,0.035,0.000:
0000
0000
0000
0000
,
0000
0000
0000
0000
,
0000
0000
0000
0000
,
0000
0000
0000
0000
,
0000
0000
0000
0000
,
0001
0000
0000
0000
,
0100
0100
0000
0010
,
0010
0000
1000
0000
,
0001
1000
0100
1000
,
0020
0000
0000
0000
,
0030
0000
0000
0000
,
0200
0000
0000
0000
,
0300
0000
0000
0000
,
2002
0000
0000
0000
,
3003
0000
0000
0000
,
1000
1000
0001
0001
,
1000
0000
0001
0000
,
0100
0000
0000
0000
,
0010
0000
0000
0000
,
1000
0000
0000
0000
,
0001
0000
0010
0100
,
0010
0000
0000
0000
,
0001
0000
1000
0001
,
1000
0000
0000
0000
,
0001
0000
0000
0000
,
1000
0000
0000
0010
,
0100
0000
0000
0010
,
1000
0000
0000
0001
,
1000
0000
0001
0000
,
1000
0000
0100
0000
,
0010
0000
0001
0000
,
1000
0100
0010
0001
,
1000
0100
0010
0001
,
1000
0010
0100
0001
,
1001
0000
0000
0000
,
0000
0010
0000
0010
,
0000
0100
0000
0100
,
0000
0010
0000
1000
,
0001
0000
1000
0000
,
0001
0000
0000
0100
,
0100
0000
0010
0000
,
1000
0000
0000
0001
,
1000
0000
0001
0000
,
0000
1000
0000
0100
,
0100
0000
0010
0000
,
0001
0000
0010
0100
,
1000
0000
0100
0010
,
0001
0000
0100
0000
,
0010
0000
1000
0001
,
1000
0000
0001
0000
,
1000
0000
0100
0010
,
0001
0000
0010
0000
,
0100
0000
1000
0100
,
1000
0010
1000
0001
,
1000
0100
0010
0000
,
0001
0000
0000
0000
,
0100
0000
0000
0000
,
0010
0000
0000
0000
,
1000
0000
0000
0000
,
0001
0000
0001
0000
,
0100
0000
0100
0000
,
0010
0010
1000
1000
,
0001
0000
0100
0000
,
0010
0010
1000
1000
,
0001
1001
0000
0000
,
0000
0100
0000
0000
,
0000
0000
0000
0000
,
0000
0010
0000
0000
,
0000
0000
0000
0000
,
1001
0000
0000
0000
,
1001
0000
0000
0000
,
1001
0000
1000
0000
,
0001
0000
0000
0000
,
0000
0100
0000
0010
,
0000
1000
0000
0001
,
0001
0000
1000
0000
,
0100
0000
0010
0001
,
0010
0000
0100
0000
,
1000
0000
0100
1000
,
0010
0000
0100
0000
,
0010
0000
1000
0001
,
1000
0000
0001
0000
,
0100
0000
0001
0010
,
0100
0100
0100
0100
,
0010
0010
0010
0010
;

//---------------dance-single - ----------------
#NOTES:
     dance-single:
     :
     Medium:
     7:
     0.392,0.371,0.219,0.140,0.000:
0000
0000
0000
0000
,
0000
0000
0000
0000
,
0000
0000
0000
0000
,
0000
0000
0000
0000
,
0000
0000
0000
0000
,
0010
1000
0001
0100
,
0001
0010
0100
1000
,
0100
0010
0001
1000
,
0010
1000
0001
0100
,
2002
0000
0000
0000
,
3003
0000
0000
0000
,
0220
0000
0000
0000
,
0330
0000
0000
0000
,
2020
0000
0000
0000
,
3030
0000
0000
0000
,
0010
1000
0001
0100
,
0010
1000
0001
1000
,
1001
0001
0010
0100
,
1000
0100
0010
0001
,
0100
0010
1000
0010
,
0100
0001
1000
0001
,
0200
0010
1000
0301
,
1000
0100
0010
0001
,
2000
0010
0100
3001
,
1000
0000
0001
0000
0100
0000
0000
0110
,
0000
0000
0010
0000
1000
0000
0000
0001
,
0000
0000
0100
0000
0001
0000
0000
0010
,
0000
0000
0001
0000
0010
0000
0000
0100
,
0000
0000
1000
0000
0100
0000
0000
1000
,
0000
1000
1000
1000
,
0010
0010
0100
0100
,
0001
0100
0001
0010
,
1000
0100
1000
0010
,
0001
0100
0010
1000
,
1001
2002
0000
3003
,
0000
0001
1000
0001
,
0100
0010
1000
0010
,
0100
0010
1000
0100
,
0110
0010
0001
1000
,
0100
0010
0001
0100
,
0010
1000
0010
0100
,
0001
1000
0001
0100
,
0001
0010
0100
1000
,
0000
0011
0001
0001
,
0100
0010
1000
0010
,
0100
0001
1000
0100
,
0010
0001
0010
0100
,
2000
0000
0000
0100
0000
0100
0000
3100
,
0000
0010
0001
0100
,
0002
0000
0000
0100
0000
0100
0000
0103
,
0000
0010
1000
0001
,
1002
0000
0000
1000
0000
1000
0000
1003
,
0000
0010
0100
0001
,
1000
0100
0010
0001
,
1000
0000
0100
0000
0010
0001
0000
1001
,
0000
0000
0001
0000
0100
0000
0000
0110
,
0000
0000
0010
0000
1000
0000
0000
1001
,
0000
0000
1000
0000
0100
0000
0000
1100
,
0000
0000
1000
0000
0010
0000
0000
0110
,
0000
0010
0010
0010
,
0100
0100
0001
0001
,
1000
1000
0100
0100
,
0010
0010
0001
0001
,
1000
0100
0010
0001
,
1000
0100
1000
0000
0000
0000
0000
0000
,
0000
0001
0001
0001
,
0100
0100
0010
0010
,
1000
0010
0100
0001
,
1000
0100
0010
0001
,
1001
0000
0000
0000
,
1001
0000
0000
0000
,
1001
0000
1001
0000
,
1001
1001
1001
0010
,
0000
0000
0100
0000
0010
0000
0000
1000
,
0000
0010
0100
0001
,
1000
0001
1000
0100
,
0010
0001
0100
0001
,
2001
0000
0000
0010
0000
0010
0000
3010
,
0000
0100
0010
1000
,
1002
0000
0000
0100
0000
0010
0000
0103
,
0000
1000
0100
0010
,
0201
0000
0000
0001
0000
1000
0000
0301
,
0000
1000
0001
0100
,
0001
0100
1000
0000
1000
0100
0001
0000
,
0001
0100
1000
0000
1000
0100
0001
0100
;

//---------------dance-single - ----------------
#NOTES:
     dance-single:
     :
     Hard:
     11:
     0.640,0.631,0.674,0.184,0.000: // measure 1
0000
0000
0000
0000
,  // measure 2
0000
0000
0000
0000
,  // measure 3
0000
0000
0000
0000
,  // measure 4
0000
0000
0000
0000
,  // measure 5
0000
0000
0000
0000
,  // measure 6
1000
0000
0100
0000
0010
0001
0000
0101
,  // measure 7
0000
0000
0010
0000
1000
0010
0100
0001
,  // measure 8
1000
0000
0001
1000
0000
1001
0000
0110
,  // measure 9
0000
0101
0000
1001
0000
0001
0010
0100
,  // measure 10
1000
0000
0100
0010
0000
0110
0000
1001
,  // measure 11
0000
1000
0001
0000
0100
0001
1000
0000
,  // measure 12
0001
0000
0100
0001
0000
0101
0000
1010
,  // measure 13
0000
0010
1000
0000
1100
0000
0011
0000
,  // measure 14
1100
0000
1000
0100
0000
0110
0000
1001
,  // measure 15
0000
0001
0100
0000
0001
1000
0100
0000
,  // measure 16
1000
0010
0100
0001
1000
0010
0100
0001
,  // measure 17
1000
0100
0010
0001
1000
0100
0010
0001
,  // measure 18
1000
0000
0001
0000
0100
0001
1000
0001
,  // measure 19
0000
1000
0100
0000
0010
0001
0100
0000
,  // measure 20
1001
0000
0010
0000
0100
0010
1000
0010
,  // measure 21
0000
1000
0100
0010
0001
0100
0001
0000
,  // measure 22
1000
0000
0010
0000
0100
0010
1000
0010
,  // measure 23
0000
0100
0010
0000
1000
0000
1001
0000
,  // measure 24
0101
0000
0001
0000
0010
0100
1000
0100
,  // measure 25
0000
1000
0100
0000
1000
0010
0100
0001
,  // measure 26
0000
0001
0100
0000
0001
1000
0000
1001
,  // measure 27
0000
0001
0010
0000
0100
0010
0001
0100
,  // measure 28
0000
0010
1000
0010
0100
0001
0000
0101
,  // measure 29
0000
0001
1000
0000
0100
0010
0001
0010
,  // measure 30
0100
0110
0010
1001
,  // measure 31
1000
1100
0001
0101
,  // measure 32
1000
0100
0001
0100
1000
0100
0001
0100
,  // measure 33
1000
0010
0001
0010
1000
0010
0001
0010
,  // measure 34
1000
0100
0010
0001
1000
0010
0100
0001
,  // measure 35
1000
0001
0002
0000
0000
0000
0003
0000
,  // measure 36
0000
0000
1001
0000
0010
0100
0001
0100
,  // measure 37
0000
0101
0000
0010
1000
0000
1100
0000
,  // measure 38
1000
0100
0000
0012
0000
0000
0000
0103
,  // measure 39
0010
0000
1000
0001
1000
0001
0100
0010
,  // measure 40
1000
0000
0010
0100
0000
0101
0000
0011
,  // measure 41
0000
0110
1001
1100
,  // measure 42
1001
0000
0100
0001
0000
1010
0000
1100
,  // measure 43
0000
0000
0000
1000
0100
0010
0100
2000
,  // measure 44
0000
0000
3001
0000
0100
0001
1000
0001
,  // measure 45
0000
0011
0000
0010
0100
0000
1100
0000
,  // measure 46
1000
0010
0000
0210
0000
0000
0000
0301
,  // measure 47
0100
0000
1001
0000
0001
0010
0100
1000
,  // measure 48
0100
0000
0010
0001
0000
1100
0000
0101
,  // measure 49
0000
1100
1010
1100
,  // measure 50
1002
0000
0103
0010
0000
1010
0000
0102
,  // measure 51
0000
0000
1003
0001
0100
0010
1000
0000
,  // measure 52
0210
0000
0301
1000
0000
1100
0000
0011
,  // measure 53
0000
1100
0101
1100
,  // measure 54
1000
0100
0001
0100
1000
0010
0001
0010
,  // measure 55
1000
0100
0010
0001
0100
0001
0000
1001
,  // measure 56
0000
0001
0010
0100
1000
0100
1000
0010
,  // measure 57
0000
0010
0100
0001
1000
0001
0100
0001
,  // measure 58
0000
0001
1000
0010
1000
0100
0010
0100
,  // measure 59
0000
1000
0100
0010
0001
0100
0010
1000
,  // measure 60
0000
0000
0001
0000
1000
0001
0100
0000
,  // measure 61
0001
0000
0010
0000
0100
0010
0001
0000
,  // measure 62
0010
0100
1000
0100
0010
0100
1000
0100
,  // measure 63
0010
0100
0001
0100
0010
0100
0001
0100
,  // measure 64
0010
0001
0100
0010
1000
0010
0100
1000
,  // measure 65
0100
0010
0020
0000
0000
0000
0030
0000
,  // measure 66
0000
0011
0100
0100
,  // measure 67
0010
1000
0010
0100
,  // measure 68
0001
1000
0100
0010
,  // measure 69
0001
0010
0100
1000
,  // measure 70
1001
0000
0000
0010
,  // measure 71
0220
0000
0330
0001
,  // measure 72
2200
3300
2002
3003
,  // measure 73
0022
0033
0202
0303
,  // measure 74
0000
0000
0001
0000
1000
0010
0100
0001
,  // measure 75
0000
0101
0000
0001
1000
0000
1100
0000
,  // measure 76
1000
0010
0000
0210
0000
0000
0000
0301
,  // measure 77
1000
0000
0100
0000
0010
0001
0100
0001
,  // measure 78
1000
0000
0001
1000
0000
1001
0000
0110
,  // measure 79
0000
0101
1010
0101
,  // measure 80
1100
0000
1000
0100
0000
0011
0000
0201
,  // measure 81
0000
0000
0301
0100
0010
1000
0100
0000
,  // measure 82
1010
0000
0100
0010
0000
0110
0000
2001
,  // measure 83
0000
3001
1001
0101
,  // measure 84
0001
0100
0010
1000
0001
0010
0100
1000
,  // measure 85
0001
0100
1000
0100
0001
0010
1000
0010
;

//---------------dance-single - ----------------
#NOTES:
     dance-single:
     :
     Challenge:
     14:
     0.846,0.854,0.980,0.245,0.153: // measure 1
0000
0000
0000
0000
,  // measure 2
0000
0000
0000
0000
,  // measure 3
0000
0000
0000
0000
,  // measure 4
0000
0000
0000
0000
,  // measure 5
0000
0000
0000
0000
,  // measure 6
0001
0000
0101
0000
0001
0010
0100
2100
,  // measure 7
0000
3010
1000
0000
0110
0000
1001
0000
,  // measure 8
1010
0000
1100
0100
1000
0010
1000
0001
,  // measure 9
1000
1000
0001
0001
0100
0010
1000
0000
,  // measure 10
1010
0100
0001
0010
0000
0011
0000
2001
,  // measure 11
0000
3001
1000
0000
0001
0010
0100
0000
,  // measure 12
0110
0100
0010
0001
0000
0011
0000
2001
,  // measure 13
0000
3001
1000
0000
0001
0100
0110
0000
,  // measure 14
1010
0100
0010
1000
0000
1010
0000
0201
,  // measure 15
0000
0301
0010
0000
0100
0010
0001
1000
,  // measure 16
1100
0100
1000
0010
0110
0010
0100
0001
,  // measure 17
1001
0000
0001
0000
0010
0000
0100
0000
1000
0001
1000
0001
1000
0000
0000
0000
,  // measure 18
1010
0100
0010
1000
0010
0100
0010
1000
,  // measure 19
0100
0010
0100
0001
0100
0010
0100
0001
,  // measure 20
0100
1000
0010
0001
0010
1000
0100
0001
,  // measure 21
0100
1000
0010
0100
0001
0010
0100
1000
,  // measure 22
1001
0010
0100
0001
0010
0001
0100
0010
,  // measure 23
1001
0010
0100
1000
0010
0100
0010
1000
,  // measure 24
1001
0100
0010
0001
1001
0010
0100
1000
,  // measure 25
0010
0000
0100
0000
0100
0000
0001
1000
0100
0000
0100
0000
0000
0000
2100
0000
,  // measure 26
0000
3001
0010
0100
0010
0011
0000
1002
,  // measure 27
0000
1003
0001
0100
0010
1000
0010
0210
,  // measure 28
0000
0310
1000
0001
0100
0001
0010
0012
,  // measure 29
0000
1003
0001
0000
0100
0010
1000
2001
,  // measure 30
0000
3001
0010
0001
0100
0001
0010
0001
,  // measure 31
1000
0100
0010
0100
1000
0100
0010
0100
,  // measure 32
1000
0010
0001
0010
1000
0010
0001
0010
,  // measure 33
1000
0100
0001
0100
1000
0100
0001
0100
,  // measure 34
1000
1000
0100
0100
0010
0010
0001
0001
,  // measure 35
1001
1001
1001
0010
0100
0010
1000
0010
,  // measure 36
0000
0000
0210
0000
0301
0010
0001
0101
,  // measure 37
0000
1000
1100
0000
1010
0000
1010
0000
,  // measure 38
0110
0000
1010
0010
1000
0100
0001
0100
,  // measure 39
1000
0001
1001
0001
1000
0000
1001
0000
,  // measure 40
0110
0000
0101
0000
0001
0010
0001
0012
,  // measure 41
0000
1003
0010
0000
0110
0000
1010
0000
,  // measure 42
0110
0000
0101
0100
0001
0010
0001
1000
,  // measure 43
0001
0000
1000
0000
1000
0000
1000
0000
0010
0100
0010
0100
0010
0100
0010
0100
,  // measure 44
0000
0000
1010
0000
0110
0010
1000
1010
,  // measure 45
0000
0010
0110
0000
0101
0000
0011
0000
,  // measure 46
1001
0000
0101
0001
0100
0001
0010
0001
,  // measure 47
1000
0001
1001
0001
0010
0000
0011
0000
,  // measure 48
1100
0100
0010
0011
0000
1001
0000
0012
,  // measure 49
0000
1003
0010
0000
0110
0010
1000
0000
,  // measure 50
0101
0010
1000
1100
0000
0011
0000
2001
,  // measure 51
0000
3001
0010
0000
0110
0010
0001
0000
,  // measure 52
1100
0010
0001
0101
0000
0110
0000
1002
,  // measure 53
0000
0103
0010
0000
0110
0010
1000
0000
,  // measure 54
0010
1000
0100
0001
0100
1000
0010
0001
,  // measure 55
0010
0000
1000
0000
0001
0000
0100
0000
0001
1000
0001
1000
0000
0000
2001
0000
,  // measure 56
0000
0000
3010
1000
0010
0000
0100
0001
1000
0000
0001
0010
0100
0000
0210
0000
,  // measure 57
0000
0000
1300
0010
1000
0000
0001
0100
0001
0000
1000
0100
0010
0000
2100
0000
,  // measure 58
0000
0000
3001
0010
0001
0000
1000
0010
0100
0000
0010
1000
0001
0000
0100
0000
,  // measure 59
0001
0010
0000
0010
0100
0000
1000
0000
0001
0000
0101
0000
0000
0000
2100
0000
,  // measure 60
0000
0000
3010
0000
1000
0010
0000
0010
0100
0000
0001
0000
0010
0100
0000
0100
,  // measure 61
1000
0000
0100
0000
0010
0001
0000
0001
1000
0000
0001
0100
0001
0000
1000
0000
,  // measure 62
1001
0010
1000
0100
1000
0010
0001
0100
,  // measure 63
0001
0010
1000
0100
1000
0100
0001
0010
,  // measure 64
1000
1000
0100
0100
0010
0010
0001
0001
,  // measure 65
1001
1001
1001
0010
0100
0010
1000
0001
,  // measure 66
0000
2001
0010
0100
,  // measure 67
0001
0010
0001
3001
,  // measure 68
0020
0100
0001
1000
,  // measure 69
0001
1000
0100
0130
,  // measure 70
0210
0001
0000
0301
,  // measure 71
0120
1000
0000
1030
,  // measure 72
2001
3010
1002
0103
,  // measure 73
0010
0000
0100
0000
0001
0000
1000
0000
0001
0010
0001
0010
0001
0010
0001
0010
,  // measure 74
0000
0000
2100
0000
3010
0100
0010
1010
,  // measure 75
0000
0001
1001
0000
0101
0000
1100
0000
,  // measure 76
0011
0000
0101
0001
0010
0001
1000
0100
,  // measure 77
1000
0010
1010
0010
0110
0000
1010
0000
,  // measure 78
1100
0010
0001
0101
0000
1010
0000
0120
,  // measure 79
0000
1030
0010
0000
0110
1000
0100
0000
,  // measure 80
1100
0001
0010
0011
0000
1001
0000
0201
,  // measure 81
0000
0301
1000
0000
0011
1000
0100
0001
,  // measure 82
0101
0010
1000
1010
0000
0110
0000
0012
,  // measure 83
0000
1003
0001
0000
1000
0100
0010
0000
,  // measure 84
0001
0010
1000
0010
0001
0010
1000
0010
,  // measure 85
0001
0000
0100
0000
1000
0000
0100
0000
0001
1000
0001
1000
0001
1000
0001
1000
;
