#TITLE:Guilt & Love;
#SUBTITLE:;
#ARTIST:The Plastic Ambition(jun & DJ YOSHITAKA);
#TITLETRANSLIT:;
#SUBTITLETRANSLIT:;
#ARTISTTRANSLIT:;
#GENRE:;
#CREDIT:;
#MENUCOLOR:;
#METERTYPE:DDR;
#BANNER:Guilt & Love.png;
#BACKGROUND:Guilt & Love-bg.png;
#LYRICSPATH:;
#CDTITLE:./CDTITLES/BEATMANIA IIDX.PNG;
#MUSIC:Guilt & Love.ogg;
#OFFSET:0.000;
#SAMPLESTART:58.941;
#SAMPLELENGTH:15.000;
#SELECTABLE:YES;
#LISTSORT:;
#BPMS:0.000=170.000;
#STOPS:;
#BGCHANGES:0.000=Guilt & Love.avi=1.000=0=0=0,
99999=-nosongbg-=1.000=0=0=0 // don't automatically add -songbackground-
;
#ATTACKS:;

//---------------dance-single - ----------------
#NOTES:
     dance-single:
     :
     Beginner:
     2:
     0.140,0.201,0.027,0.000,0.000:
0000
0000
0000
0000
,
0000
0000
0000
0000
,
0000
0000
0000
0000
,
0000
0000
0000
0000
,
0000
0000
0000
0000
,
0100
0000
0000
0000
,
0010
0000
1000
0000
,
0001
0000
0000
0000
,
1001
0000
0000
0000
,
0000
0100
0000
0000
,
0000
0010
0000
0000
,
0000
1000
0000
1000
,
1000
0000
0001
0000
,
0000
0010
0000
0000
,
0000
0001
0000
0000
,
0000
0100
0000
0010
,
0010
0000
1000
0000
,
0001
0000
0000
0000
,
0100
0000
0000
0000
,
0010
0000
0000
0000
,
1000
0000
0000
0000
,
0000
0100
0000
0100
,
0000
1000
0000
1000
,
0000
0010
0000
0010
,
0000
0001
0000
0001
,
0001
0000
0000
0000
,
1000
0000
0000
0000
,
0100
0000
0000
0000
,
0010
0000
0000
0000
,
0000
0100
0000
0100
,
0000
0010
0000
0010
,
0000
0001
0000
0001
,
0001
0000
1000
0000
,
0010
0000
0000
0000
,
0100
0000
0000
0000
,
0010
0000
0000
0000
,
1000
0000
0000
0000
,
0100
0000
0010
0000
,
0100
0000
1000
0000
,
0001
0000
0100
0000
,
0010
0000
0100
0000
,
1001
0000
0000
0000
,
0100
0000
0010
0000
,
1000
0000
1000
0000
,
0001
0000
0010
0000
,
0100
0000
0000
0000
,
1000
0000
0010
0000
,
0001
0000
0010
0000
,
1000
0000
0100
0000
,
0001
0000
0100
0000
,
1000
0000
0000
0000
,
0001
0000
0000
0000
,
0010
0000
0001
0000
,
0100
0000
0000
0000
,
0010
0000
0100
0000
,
0001
0000
1000
0000
,
0001
0000
0010
0000
,
0100
0000
1000
0000
,
0100
0000
0000
0000
,
0010
0000
0000
0000
,
0100
0000
0000
0000
,
1000
0000
0000
0000
,
0001
0000
0000
0000
,
1000
0000
0000
0000
,
0010
0000
0100
0000
,
0010
0000
1001
0000
,
0100
0000
0000
0000
,
0010
0000
0000
0000
,
0001
0000
0010
0000
,
0100
0000
0000
0000
,
1000
0000
0100
0000
,
0010
0000
0000
0000
,
0001
0000
1000
0000
,
0010
0000
0100
0000
,
0001
0000
0000
0000
;

//---------------dance-single - ----------------
#NOTES:
     dance-single:
     :
     Easy:
     7:
     0.377,0.402,0.217,0.154,0.000:
0000
0000
0000
0000
,
0000
0000
0000
0000
,
0000
0000
0000
0000
,
0000
0000
0000
0000
,
0000
0000
0000
0010
,
0100
0100
0100
0100
,
0110
0001
0001
0001
,
1001
0000
1000
0010
,
0200
0300
0010
0100
,
0000
1001
0010
1000
,
0001
0100
0010
0100
,
0001
0010
1000
0010
,
0001
0100
0010
1000
,
0001
1001
1000
0100
,
0010
0100
1000
0010
,
1000
0001
0100
0010
,
1000
0100
0010
0001
,
2000
0001
0001
0001
,
0001
0001
3001
0010
,
1002
1000
1000
1000
,
1000
1000
1003
0100
,
0110
0010
1000
0001
,
0100
0001
1000
0010
,
1001
0000
0110
0000
,
1000
0100
0020
0030
,
0001
0010
0001
0010
,
0100
1000
0010
1000
,
0001
0010
0001
0010
,
0100
0010
0001
1000
,
0001
0010
0001
0010
,
0100
1000
0010
1000
,
0001
0010
0001
0010
,
0100
0010
0001
1000
,
0020
0100
0100
0130
,
2000
0001
0001
3001
,
0020
1000
1000
1030
,
2002
3003
0010
0100
,
0110
0010
2000
3000
,
0010
0100
0002
0003
,
1000
0100
0010
0001
,
1000
0001
0100
0010
,
2000
0000
0000
3001
,
0100
0000
0100
0010
,
1000
0000
1000
0010
,
0100
0000
0001
0000
,
2002
3003
1000
0100
,
0010
0100
1000
1000
,
0010
0100
0001
0001
,
1000
0001
0100
0010
,
2000
3000
0002
0003
,
1001
0100
0010
1000
,
0010
0100
0001
1000
,
0100
0010
0001
1000
,
1100
0000
0011
0000
,
1000
1001
0010
0100
,
0001
1001
0010
0100
,
0010
1000
0010
1000
,
0001
0100
0001
0100
,
0001
0001
0001
0001
,
1000
1000
1000
1000
,
0100
0100
0100
0100
,
0010
0010
0010
0010
,
0001
0001
0001
0001
,
0010
0010
0010
0010
,
0100
0000
0110
0000
,
1001
0000
1000
0010
,
0100
0100
0010
0010
,
1000
1000
0001
0001
,
1001
0000
1100
0000
,
0011
0000
0010
0100
,
0001
1001
1000
0100
,
1000
0110
0010
1000
,
0001
0100
0010
1000
,
0002
0000
1003
0000
,
1001
0000
0000
0000
;

//---------------dance-single - ----------------
#NOTES:
     dance-single:
     :
     Medium:
     9:
     0.441,0.469,0.335,0.054,0.018:
0000
0000
0000
0000
,
0000
0000
0000
0000
,
0000
0000
0000
0000
,
0000
0000
0000
0000
,
0000
0000
0000
0010
,
1001
0000
1000
0000
1000
0001
1000
0001
,
1000
0010
0100
0001
,
1002
0000
0000
0013
0100
0000
1000
0000
,
2200
0000
0000
0000
3300
0000
0000
0000
0010
0000
0000
0010
0000
0000
0100
0000
,
0000
0000
1001
0000
0010
0100
0001
0000
,
0100
0000
0010
0000
1000
0100
1000
0000
,
0001
0000
0010
0000
0100
0010
0001
0000
,
1000
0100
0010
0001
,
1000
0000
1001
0000
0010
0100
1000
0000
,
0010
0000
0001
0000
1000
0100
0010
0000
,
0100
0000
1000
0000
0010
0001
0100
0000
,
0001
0010
1000
0100
,
1001
0000
1000
0000
1000
0000
1000
0001
,
0100
0100
0100
0110
,
1001
0000
0001
0000
0001
0000
0001
1000
,
0010
0010
0010
1000
,
0100
0010
0100
0000
1000
0000
1000
0000
,
0010
0100
0010
0000
0001
0000
0001
0000
,
1000
0100
0010
0001
,
1000
0100
0010
0000
2002
0000
3003
0000
,
0001
0100
0001
0000
0100
0000
0010
0000
,
1000
0100
1000
0000
0001
0000
1000
0000
,
0010
1000
0010
0000
0100
0000
0001
0000
,
1000
0100
0010
0000
0100
0000
1000
0000
,
0001
0010
0001
0000
1000
0000
0001
0000
,
0100
0010
0100
0000
0010
0000
1000
0000
,
0001
0010
0001
0000
1000
0000
0100
0000
,
1000
0010
0100
0010
,
1001
1000
1000
1000
,
0010
0010
0010
0100
,
0110
0000
1001
0000
,
0001
0100
0001
0000
1000
0000
0100
0000
,
0011
1000
0100
0010
,
0110
1000
0010
0100
,
1010
0001
1100
0001
,
0010
0000
0000
0001
0000
0000
0100
0000
0010
0000
0000
0000
1000
0000
0000
0000
,
0002
0000
0000
1003
,
0001
0100
0010
1000
,
0100
0010
0001
1000
,
0100
1000
0010
0100
,
0001
0000
0000
0001
0000
0000
0001
0000
1000
0000
0000
0000
1001
0000
0000
0000
,
0010
0100
0001
0000
0100
0000
0100
0000
,
0010
0100
1000
0000
0100
0000
0100
0000
,
0010
1000
0001
0000
1000
0001
0100
0000
,
0001
1000
0010
0100
,
0110
1000
0100
0010
,
0001
0010
0100
1000
,
1010
0000
0101
0000
,
1000
0000
0000
0000
1001
0000
0000
0000
0010
0000
0000
1000
0000
0000
0010
0000
,
0100
0001
0100
0010
,
1000
0100
0010
0100
,
1000
0001
0100
0010
,
1000
0001
1000
0001
,
0101
0100
0100
0100
,
1010
0010
0010
0010
,
1001
1000
1000
1000
,
0001
0000
0100
0000
,
0011
0001
0001
0001
,
1010
0010
0010
0010
,
0110
0100
0100
0100
,
1001
0000
0110
0000
,
1010
0000
0100
0000
0010
1000
0010
0000
,
0011
0000
0100
0000
0010
0001
0010
0000
,
1001
0000
0110
0000
,
1001
0000
0000
0000
1000
0100
0010
0000
,
1001
0000
0010
0000
0100
0001
0100
0000
,
1010
0000
1000
0000
0001
1000
0001
0000
,
1000
0100
0010
0000
0001
0010
0100
0000
,
1000
0001
0000
0000
0010
0000
0100
0000
,
1001
0000
0000
0000
;

//---------------dance-single - ----------------
#NOTES:
     dance-single:
     :
     Hard:
     12:
     0.614,0.570,0.526,0.045,0.154: // measure 1
0000
0000
0000
0000
,  // measure 2
0000
0000
0000
0000
,  // measure 3
0000
0000
0000
0000
,  // measure 4
0000
0000
0000
0000
,  // measure 5
0000
0000
0000
0010
,  // measure 6
1001
0000
0000
0000
0000
0100
0010
1000
,  // measure 7
0001
0101
0010
1100
,  // measure 8
2001
0000
0000
3010
0100
0001
1000
0000
,  // measure 9
2002
0000
0000
0000
3003
0000
0000
0000
0011
0000
0000
0101
0000
0000
1001
0000
,  // measure 10
0000
0000
0110
0000
0010
0100
0001
0100
,  // measure 11
0010
0000
1000
0000
0100
0000
0000
1000
0000
0000
0100
0000
1000
0000
0010
0000
,  // measure 12
1000
0000
0001
0000
1000
0000
0000
0100
0000
0000
1000
0000
0010
0000
0100
0000
,  // measure 13
0001
0000
0000
0101
0000
0000
1001
0000
0000
0000
0100
0000
0010
0000
0001
0000
,  // measure 14
1000
0000
1001
0000
0010
1000
0100
0010
,  // measure 15
0100
0000
1000
0000
0010
0000
0000
0001
0000
0000
0010
0000
1000
0000
0100
0000
,  // measure 16
0001
0000
0100
0000
1000
0000
0000
0010
0000
0000
0100
0000
0001
0000
1000
0000
,  // measure 17
0010
0000
0000
1100
0000
0000
1001
0000
0000
0000
1000
0000
0010
0000
1000
0000
,  // measure 18
1001
0000
0100
0000
0100
0010
0100
0010
,  // measure 19
1000
1000
0001
1100
,  // measure 20
1001
0000
0010
0000
0010
0000
0010
0100
,  // measure 21
0001
0000
0001
0000
0001
0100
0010
0100
,  // measure 22
0001
0000
1100
0000
0001
0100
1000
0000
,  // measure 23
1000
0000
0101
0000
1000
0100
0001
0000
,  // measure 24
0010
0000
0110
0000
0010
0100
0001
0000
,  // measure 25
1000
0001
0100
0001
2000
0000
3000
0000
,  // measure 26
0010
0000
0100
0000
0001
0000
0000
0010
0000
0000
1000
0000
0010
0000
0001
0000
,  // measure 27
0100
0000
0010
0000
1000
0000
0000
0010
0000
0000
0100
0000
0001
0000
1000
0000
,  // measure 28
0001
0000
0100
0000
0001
0000
0000
1000
0000
0000
0010
0000
1000
0000
0100
0000
,  // measure 29
1000
0000
0010
0000
1000
0000
0000
0001
0000
0000
0100
0000
0001
0000
1000
0000
,  // measure 30
0010
0000
0100
0000
0001
0000
0000
0101
0000
0000
0001
0000
0100
0000
0001
0000
,  // measure 31
1000
0000
0100
0000
0010
0000
0000
0110
0000
0000
0010
0000
0100
0000
1000
0000
,  // measure 32
0001
1000
0100
0000
1000
0001
0100
0000
,  // measure 33
0001
1000
0001
1000
0010
0100
0001
0000
,  // measure 34
1100
0000
1010
0000
0010
0100
0001
0000
,  // measure 35
0101
0000
0011
0000
0100
0010
1000
0000
,  // measure 36
0010
1000
0100
0000
0010
0001
1000
0000
,  // measure 37
0001
0000
1000
0000
1001
0000
0000
0000
0110
0000
0000
1001
0000
0000
1000
0000
,  // measure 38
0100
0000
0000
1000
0000
0000
0010
0000
0100
0000
0000
0000
0110
0000
0000
0000
,  // measure 39
0010
0000
0000
0100
0000
0000
0001
0000
1000
0000
0000
0000
1001
0000
0000
0000
,  // measure 40
0001
0000
0000
0100
0000
0000
0001
0000
0010
0000
0000
0110
0000
0000
0100
0000
,  // measure 41
1000
0000
0000
1001
0000
0000
1000
0000
0001
0000
0000
1001
0000
0000
0100
0000
,  // measure 42
0020
0000
0000
0130
,  // measure 43
0110
0000
0000
0010
0000
0000
1000
0000
0000
0001
0000
0000
0100
0000
0001
0000
,  // measure 44
0010
0000
0000
0001
0000
0000
0100
0000
0000
0010
0000
0000
1000
0000
0001
0000
,  // measure 45
1000
0000
0000
0100
0000
0000
0010
0000
0000
0100
0000
0000
1000
0000
0001
0000
,  // measure 46
1000
0000
0000
0001
0000
0000
1000
0000
0010
0000
0000
0110
0000
0000
0010
0000
,  // measure 47
0100
0000
1001
0000
0001
0010
0100
0010
,  // measure 48
0001
0000
0100
0000
0001
0000
0000
1000
0000
0000
0010
0000
1000
0000
0100
0000
,  // measure 49
1000
0010
1000
0000
0001
0100
0001
0000
,  // measure 50
1000
1001
0000
0000
0100
0000
0110
0000
,  // measure 51
1001
0000
0000
0001
0000
0000
0100
0000
0000
0010
0000
0000
0100
0000
0001
0000
,  // measure 52
1000
0000
0000
0010
0000
0000
0100
0000
0000
0010
0000
0000
1000
0000
0100
0000
,  // measure 53
0110
0000
0000
1001
0000
0000
1010
0000
,  // measure 54
1001
0000
0000
0000
0101
0000
0000
0000
0011
0000
0000
0101
0000
0000
1010
0000
,  // measure 55
0010
0100
0001
0000
1000
0001
0100
0001
,  // measure 56
1000
0000
0110
0000
0010
0100
0010
1000
,  // measure 57
0100
0000
1000
0100
0010
0001
1000
0000
,  // measure 58
1001
0000
0110
0000
1001
0000
0010
1000
,  // measure 59
0100
1000
0010
1000
0100
1000
0010
1000
,  // measure 60
0100
0010
0001
0010
0100
0010
0001
0010
,  // measure 61
0001
0010
0100
1000
0001
0010
0100
1000
,  // measure 62
0001
0010
0001
0100
0001
0010
0001
0100
,  // measure 63
0010
1000
0001
1000
0010
1000
0001
1000
,  // measure 64
0010
1000
0100
0010
0100
1000
0010
1000
,  // measure 65
0001
0000
1000
0001
0000
0001
0100
0000
,  // measure 66
0010
0110
0000
0000
0001
0000
0001
0000
,  // measure 67
1000
0100
0001
0100
1000
0100
0001
0100
,  // measure 68
1000
0010
0001
0010
1000
0010
0001
0010
,  // measure 69
1000
0000
0000
1001
0000
0000
0110
0000
,  // measure 70
1001
0000
0010
0100
0000
0100
0001
1000
,  // measure 71
0010
0000
0110
0000
1000
0100
0010
0001
,  // measure 72
0100
0000
0001
0010
0000
0010
0100
0010
,  // measure 73
0001
0100
1000
0100
0001
0100
1000
0100
,  // measure 74
0001
1001
0000
0000
1000
0010
0001
0100
,  // measure 75
1000
0000
0000
0000
;

//---------------dance-single - ----------------
#NOTES:
     dance-single:
     :
     Challenge:
     16:
     0.905,0.905,0.362,0.018,0.888: // measure 1
0000
0000
0000
0000
,  // measure 2
0000
0000
0000
0000
,  // measure 3
0000
0000
0000
0000
,  // measure 4
0000
0000
0000
0000
,  // measure 5
0000
0000
0000
0010
,  // measure 6
1000
0100
0000
1000
0000
0001
0000
1000
,  // measure 7
0001
0010
0000
0001
0000
1000
0000
0001
,  // measure 8
0100
0000
0100
0000
0100
0000
0100
0000
0010
0000
1000
0100
1000
0000
0001
0100
,  // measure 9
0002
0000
0000
0000
0000
0000
0000
0000
1003
0000
0000
1001
0000
0000
1100
0000
,  // measure 10
0010
0000
0000
0000
0100
0000
0010
0100
0000
0001
0100
0001
0010
0000
0001
0000
,  // measure 11
1000
0000
0100
0000
0010
0000
0100
1000
0000
0010
1000
0010
0100
0000
0010
0000
,  // measure 12
1000
0000
0001
0000
0100
0000
0010
1000
0000
0001
0010
0001
1000
0000
0001
0000
,  // measure 13
1000
0100
0000
0100
0010
0000
0010
0001
0000
0001
1000
0000
0001
0000
0100
0000
,  // measure 14
0010
0000
0000
0000
0110
0000
0001
0100
0000
0001
0100
0001
0010
0000
0001
0000
,  // measure 15
1000
0000
0100
0000
0010
0000
0100
1000
0000
0010
1000
0010
0100
0000
0010
0000
,  // measure 16
1000
0000
0001
0000
0100
0000
0010
1000
0000
0001
0010
0001
1000
0000
0001
0000
,  // measure 17
0100
0010
0000
0010
1000
0000
1000
0001
0000
0001
0010
0000
0001
0000
1000
0000
,  // measure 18
1001
0000
0000
0000
0100
0000
0000
0000
0100
0010
0000
1000
0010
0000
1000
0000
,  // measure 19
0001
0000
0000
0000
0010
0000
0000
0000
0100
0010
0000
0001
0010
0000
0001
0000
,  // measure 20
1001
0000
0000
0000
0001
0000
0000
0000
0100
0001
0000
0010
0001
0000
1000
0000
,  // measure 21
0010
0000
0000
0000
0100
0000
0000
0000
0010
1000
0000
0001
1000
0000
0001
0000
,  // measure 22
1000
0000
0100
0000
1000
0010
1000
0000
0001
0000
0100
0000
0001
0000
0010
0000
,  // measure 23
0001
0000
1000
0000
0001
0010
0001
0000
1000
0000
0001
0000
0100
0000
0010
0000
,  // measure 24
1000
0000
0100
0000
0010
0100
0010
0000
0100
0000
1000
0000
0010
0000
0100
0000
,  // measure 25
0110
0110
0001
0100
1000
0010
0100
0000
,  // measure 26
1010
0000
0001
0000
0100
0000
0001
0010
0000
0001
1000
0010
0100
0000
0001
0000
,  // measure 27
1000
0000
0010
0000
0100
0000
0010
1000
0000
0001
1000
0100
0010
0000
0100
0000
,  // measure 28
1000
0000
0001
0000
0010
0000
0001
1000
0000
0010
0100
0001
1000
0000
0001
0000
,  // measure 29
1000
0000
0100
0000
1000
0000
0100
0010
0000
0100
1000
0010
0100
0000
0010
0000
,  // measure 30
1000
0000
0010
0000
0100
0000
0010
1000
0000
0001
0010
0100
1000
0000
0100
0000
,  // measure 31
0010
0000
0001
0000
0100
0000
0001
1000
0000
0010
0100
0010
1000
0000
0001
0000
,  // measure 32
1000
0000
0100
0000
0010
0000
0100
1000
0001
0000
0100
0000
0010
0000
0100
0001
,  // measure 33
1000
0000
1000
0000
0010
0000
0010
0000
0100
0001
0000
1000
0001
0000
1000
0000
,  // measure 34
0001
0010
0100
0000
0001
0010
0100
0000
0001
0010
0100
1000
0001
0000
1000
0000
,  // measure 35
0010
1000
0100
0000
0010
1000
0100
0000
0010
1000
0100
0010
0001
0000
1000
0000
,  // measure 36
0010
0100
0001
0000
0010
0100
0001
0000
0010
0100
0001
1000
0010
0000
1000
0000
,  // measure 37
0100
0000
0110
0000
0110
0000
0000
0000
0001
1000
0000
0100
1000
0000
0001
0000
,  // measure 38
1000
0010
0100
0000
1000
0010
0100
0000
1000
0010
0100
0001
1000
0000
0001
0000
,  // measure 39
0100
0010
1000
0000
0100
0010
1000
0000
0100
0010
1000
0001
0100
0000
0001
0000
,  // measure 40
0010
0000
0010
0000
0100
0000
0100
0000
1000
0000
0001
1000
0100
0000
1000
0001
,  // measure 41
0010
0000
0000
0011
0000
0000
0001
0000
0101
0000
0000
1100
0000
0000
1001
0000
,  // measure 42
0020
0000
0130
1000
,  // measure 43
0110
0000
0001
0010
0000
0001
1000
0000
0001
0010
0000
0001
1000
0000
0010
0000
,  // measure 44
1000
0000
0100
0010
0000
0100
1000
0000
0100
0010
0000
0001
1000
0000
0010
0000
,  // measure 45
0100
0000
0001
0100
0000
0010
0100
0000
0001
0100
0000
0010
0100
0000
0001
0000
,  // measure 46
1000
0000
0001
1000
0000
0010
1000
0000
0001
0000
0000
1001
0000
0000
1100
0000
,  // measure 47
0010
0000
0100
1000
0000
0001
0010
0000
0100
0010
0001
1000
0010
0000
0100
0000
,  // measure 48
0010
0000
1000
0010
0000
0100
0001
0000
1000
0100
0010
0001
1000
0000
0010
0000
,  // measure 49
0100
0000
0010
1000
0000
0001
0010
0001
1000
0000
0010
1000
0000
0010
0100
0010
,  // measure 50
1000
0000
1100
0000
0010
0000
1000
0001
0100
0001
0000
0001
1000
0000
0001
0000
,  // measure 51
0100
0000
0010
0100
0000
0001
0010
0000
0100
1000
0000
0010
1000
0000
0001
0000
,  // measure 52
1000
0000
0010
0100
0000
0010
1000
0000
0001
0010
0000
0001
1000
0000
0001
0000
,  // measure 53
1000
0000
0100
0010
0100
0000
1100
0000
0001
0010
0001
0000
0101
0000
0010
1000
,  // measure 54
0010
0000
0000
0000
0110
0000
0000
0000
0101
0000
0000
0011
0000
0000
1001
0000
,  // measure 55
0010
0000
1000
0100
0000
0100
0010
0000
0100
1000
0001
0100
0010
0000
0100
0000
,  // measure 56
0001
0000
0010
0100
0000
0100
0010
0000
0001
1000
0001
0100
0010
0000
1000
0000
,  // measure 57
0010
0000
0100
0001
0000
1000
0001
0000
1000
0000
0100
1000
0000
0001
1000
0000
,  // measure 58
0110
0000
0110
0000
0001
0000
0100
0001
0000
1000
0100
0000
1000
0010
0100
0001
,  // measure 59
1000
0100
1000
0000
0001
0100
0001
0000
1000
0010
1000
0000
0001
0010
0001
0000
,  // measure 60
1000
0100
1000
0000
0001
0100
0001
0000
1000
0010
1000
0000
0001
0010
0001
0000
,  // measure 61
0100
0010
0100
0000
0010
1000
0010
0000
0100
0010
0100
0000
0001
0100
0001
0000
,  // measure 62
1000
0100
1000
0000
0001
0010
0001
0000
1000
0010
1000
0000
0001
0010
0001
0000
,  // measure 63
1000
0100
0010
0000
0001
0010
0100
0000
1000
0010
0100
0000
0001
0100
0010
0000
,  // measure 64
1000
0001
0100
0000
0001
1000
0100
0000
1000
0001
0010
0000
0001
1000
0010
0000
,  // measure 65
1100
0000
0001
0010
0001
0000
0000
0000
0101
0000
1000
0010
1000
0000
0000
0000
,  // measure 66
0110
0000
0110
0000
0001
0000
0000
0000
1000
0000
0010
0100
0001
0000
1000
0000
,  // measure 67
0001
0010
0100
0000
1000
0010
0100
0000
0010
1000
0001
0100
0001
0000
1000
0000
,  // measure 68
0010
1000
0100
0000
0010
0001
0100
0000
0001
0010
0100
1000
0001
0000
1000
0000
,  // measure 69
0010
0000
0100
1010
0000
0100
0011
0000
,  // measure 70
1100
0000
0100
0000
0001
0000
0000
0000
1001
0000
0000
0110
0000
0000
0101
0000
,  // measure 71
0010
0000
0000
0000
1001
0000
0000
0000
1000
0100
0010
0001
1000
0000
0001
0000
,  // measure 72
1001
0000
0010
0000
0100
0000
0000
0000
0001
0010
0100
1000
0001
0000
1000
0000
,  // measure 73
0001
0100
0001
1000
0001
0000
1000
0000
0010
0100
0010
1000
0001
0000
1000
0000
,  // measure 74
1010
0000
1010
0000
1000
0000
0100
0000
1000
0010
0100
0001
1000
0100
0010
0001
,  // measure 75
1000
0000
0000
0000
;
