#TITLE:GENE (ANOTHER);
#SUBTITLE:;
#ARTIST:VINCENT GANATCH;
#TITLETRANSLIT:;
#SUBTITLETRANSLIT:;
#ARTISTTRANSLIT:;
#GENRE:;
#CREDIT:;
#MENUCOLOR:;
#METERTYPE:DDR;
#BANNER:GENE (ANOTHER).png;
#BACKGROUND:GENE (ANOTHER)-bg.png;
#LYRICSPATH:;
#CDTITLE:./CDTITLES/BEATMANIA IIDX.PNG;
#MUSIC:GENE (ANOTHER).ogg;
#OFFSET:0.000;
#SAMPLESTART:85.399;
#SAMPLELENGTH:15.000;
#SELECTABLE:YES;
#LISTSORT:;
#BPMS:0.000=163.000;
#STOPS:;
#BGCHANGES:0.000=GENE (ANOTHER).avi=1.000=0=0=0,
99999=-nosongbg-=1.000=0=0=0 // don't automatically add -songbackground-
;
#ATTACKS:;

//---------------dance-single - t7r----------------
#NOTES:
     dance-single:
     t7r:
     Beginner:
     4:
     0.127,0.223,0.021,0.000,0.000:
0000
0000
0000
0000
,
0000
0000
0000
0000
,
0000
0000
0000
0000
,
0000
0000
0000
0000
,
0000
0000
0000
0000
,
0000
0000
0000
0000
,
0001
0000
0001
0000
,
0001
0000
0000
0000
,
1000
0000
1000
0000
,
1000
0000
0000
0000
,
0001
0000
0000
0000
,
1000
0000
0000
0000
,
0001
0000
1000
0000
,
0001
0000
0000
0000
,
1000
0000
0000
0000
,
0001
0000
0000
0000
,
1000
0000
0001
0000
,
1000
0000
0000
0000
,
0010
0000
0000
0000
,
0100
0000
0000
0000
,
0010
0000
0100
0000
,
0010
0000
0000
0000
,
0100
0000
0000
0000
,
0010
0000
0000
0000
,
0100
0000
0010
0000
,
0100
0000
0000
0000
,
1001
0000
0000
0000
,
0000
0000
0000
0000
,
1000
0000
0000
0000
,
0000
0000
0000
0000
,
0001
0000
0000
0000
,
0000
0000
0000
0000
,
0010
0000
0000
0000
,
0100
0000
0000
0000
,
1000
0000
0000
0000
,
1000
0000
0000
0000
,
0001
0000
0000
0000
,
0001
0000
0000
0000
,
0100
0000
0000
0000
,
0100
0000
0000
0000
,
0010
0000
0000
0000
,
0010
0000
0000
0000
,
1001
0000
0000
0000
,
0000
0000
0000
0000
,
1000
0000
0000
0000
,
0001
0000
0000
0000
,
0100
0000
0000
0000
,
0000
0000
0000
0000
,
0010
0000
0000
0000
,
0100
0000
0100
0000
,
0100
0000
0000
0000
,
0001
0000
0000
0000
,
1000
0000
0000
0000
,
0001
0000
0000
0000
,
0010
0000
0000
0000
,
0100
0000
0000
0000
,
0010
0000
0000
0000
,
0001
0000
1000
0000
,
0001
0000
0001
0000
,
0001
0000
0001
0000
,
1000
0000
1000
0000
,
1000
0000
1000
0000
,
0010
0000
0010
0000
,
0010
0000
0010
0000
,
0100
0000
0100
0000
,
0100
0000
0100
0000
,
0001
0000
0001
0000
,
1000
0000
1000
0000
,
0100
0000
0100
0000
,
0010
0000
0010
0000
,
0100
0000
0100
0000
,
1000
0000
1000
0000
,
0001
0000
0001
0000
,
1000
0000
0000
0000
,
0001
0001
0001
0000
,
1000
0000
0000
0000
,
0010
0010
0010
0000
,
0100
0000
0000
0000
,
0100
0100
0100
0000
,
0010
0000
0000
0000
,
1000
1000
1000
0000
,
0001
0000
0000
0000
,
1000
1000
1000
0000
,
1000
0000
1000
0000
,
0001
0001
0001
0000
,
0001
0000
0001
0000
,
0010
0010
0010
0000
,
0010
0000
0010
0000
,
0100
0100
0100
0000
,
0100
0000
0100
0000
,
0110
0000
0000
0000
;

//---------------dance-single - Pandemonium X----------------
#NOTES:
     dance-single:
     Pandemonium X:
     Easy:
     7:
     0.381,0.446,0.028,0.149,0.000:
0000
0000
0000
0000
,
0000
0000
0000
0000
,
0000
0000
0000
0000
,
0000
0000
0000
0000
,
0000
0000
0000
0000
,
0000
0000
0000
0000
,
1000
0001
0100
0001
,
0010
0100
1001
0000
,
1000
0001
0100
0010
,
1000
0001
1100
0000
,
0001
1000
0010
1000
,
0001
0000
0010
0000
0100
0000
0010
0001
,
0010
0001
0100
0010
,
1000
0000
0010
0000
0100
0000
0001
0100
,
0010
1000
0001
0010
,
0001
0000
1000
0000
0100
0000
0010
0100
,
0010
0100
1000
0010
,
0100
0000
0001
0000
1000
0000
0001
0100
,
1000
0100
0010
1000
,
0010
0000
0100
0000
0001
0000
0010
0001
,
0010
0100
0010
0001
,
1000
0000
0001
0000
0100
0000
0010
1000
,
0100
1000
0010
0100
,
0001
0000
1000
0000
0100
0000
0010
0100
,
0010
0100
1000
0010
,
0100
0000
1000
0000
0100
0000
0001
0100
,
0020
0000
0000
0000
,
2030
0000
0000
0000
,
3002
0000
0000
0000
,
0000
0000
0023
0000
,
0032
0000
0000
0000
,
0000
0000
0000
0000
,
2003
0000
0000
0000
,
3020
0000
0000
0000
,
0230
0000
0010
0000
,
0302
0000
1000
0000
,
0203
0000
0010
0000
,
0001
0000
0320
0000
,
2030
0000
0100
0000
,
0010
0000
0001
0000
,
3010
0000
0100
0000
,
0001
0000
1000
0000
,
1002
1003
0001
0100
,
0002
0013
0100
1000
,
0200
1300
0100
1000
,
0020
0130
0010
1000
,
0002
1003
0100
1000
,
0020
0130
0010
0100
,
0002
1003
0100
0010
,
0200
0310
0001
1000
,
0001
0100
0001
0100
0001
0100
0001
0100
,
0001
0100
0001
0000
0100
0000
0010
0000
,
1000
0010
1000
0010
1000
0010
1000
0010
,
1000
0010
1000
0000
0001
0000
1000
0000
,
0001
0100
0010
1000
0001
0100
0010
1000
,
0001
0100
0010
0000
1000
0000
0001
0000
,
1000
0100
0010
0001
1000
0100
0010
0001
,
1000
0100
0010
0000
0100
0000
1000
0000
,
0001
1000
0010
1000
,
0100
0000
0001
0000
0100
0000
0010
0001
,
0100
0010
1000
0001
,
0100
0000
1000
0000
0100
0000
0010
0010
,
1000
0010
0100
0001
,
0010
0000
0100
0000
0010
0000
0001
0010
,
0100
0010
0001
1000
,
0010
0000
0100
0000
0001
0000
0100
1000
,
0010
0100
0010
1000
,
0001
0000
0010
0000
0100
0000
0010
0001
,
1000
0001
0100
0001
,
1000
0000
0100
0000
0001
0000
0100
0010
,
0001
0010
0100
1000
,
0100
0000
0001
0000
0100
0000
0010
0001
,
0100
0010
1000
0001
,
0200
0000
0000
0300
,
1000
0100
0010
0001
0010
0100
1000
0000
,
0001
0100
0010
1000
,
0001
0010
0100
1000
0100
0010
0001
0000
,
1000
0001
0100
0010
,
1000
0100
0010
0001
0010
0100
1000
0000
,
0001
1000
0010
1000
,
0001
0010
0100
1000
0100
0010
0001
0000
,
1000
0001
0100
0000
0001
1000
0010
0000
,
1000
0100
0010
0001
0010
0100
1000
0000
,
0100
1000
0010
0100
,
0001
0010
0100
1000
0100
0010
0001
0000
,
1000
0001
0100
0010
,
1000
0100
0010
0001
0010
0100
1000
0000
,
0001
0100
0010
1000
,
0001
0010
0100
1000
0100
0010
0001
0000
,
1000
0001
0100
0010
,
1001
0000
0000
0000
;

//---------------dance-single - t7r----------------
#NOTES:
     dance-single:
     t7r:
     Medium:
     13:
     0.692,0.683,0.311,0.191,0.739: // measure 1
0000
0000
0000
0000
,  // measure 2
0000
0000
0000
0000
,  // measure 3
0000
0000
0000
0000
,  // measure 4
0000
0000
0000
0000
,  // measure 5
0000
0000
0000
0000
,  // measure 6
0000
0000
0000
0000
,  // measure 7
0010
0000
0000
0000
1010
0000
0000
0000
0110
0000
0000
0000
1010
0000
0000
0110
,  // measure 8
0000
1000
0010
0000
1010
1000
0001
0010
,  // measure 9
0001
0000
0000
0000
0011
0000
0000
0000
1001
0000
0000
0000
0011
0000
0000
1001
,  // measure 10
0000
0001
0100
0000
0110
0000
1000
0001
,  // measure 11
1000
0000
0010
1000
0000
1000
0010
0000
1000
0000
0001
0100
0000
0000
0001
0000
,  // measure 12
1000
0000
0010
1000
0000
1000
0010
0000
1000
0001
0000
0010
0000
0000
0001
0000
,  // measure 13
1000
0000
0100
0010
0000
0010
0001
0000
1000
0000
0100
0010
0000
0010
0001
0000
,  // measure 14
1000
0000
0010
0100
0000
0100
0001
0000
1000
0001
0000
0100
0000
0001
1000
0000
,  // measure 15
0001
0000
0010
0100
0000
0100
1000
0000
0100
0000
0010
0100
0000
0000
1000
0000
,  // measure 16
0001
0000
0100
0010
0000
0010
1000
0000
0010
0100
0000
0010
0000
0000
1000
0000
,  // measure 17
0001
0000
1000
0100
0000
0100
0010
0000
0100
0000
1000
0001
0000
0001
0100
0000
,  // measure 18
0001
0000
1000
0001
0000
0001
0010
0000
0001
1000
0000
0100
0000
1000
0001
0000
,  // measure 19
1000
0000
0100
1000
0000
0100
0010
0000
0001
0000
0100
0001
0000
0100
0010
0000
,  // measure 20
0100
0000
0001
1000
0000
0001
0010
0000
0001
1000
0000
0100
0000
0000
1000
0000
,  // measure 21
0100
0000
1000
0010
0000
1000
0001
0000
1000
0000
0100
0010
0000
0100
1000
0000
,  // measure 22
0001
0000
0100
0001
0000
0010
0001
0000
1000
0010
0000
0100
0000
0000
0010
0000
,  // measure 23
1000
0000
0010
0100
0000
0100
0001
0000
0100
0000
0010
1000
0000
0001
1000
0000
,  // measure 24
0001
0000
0010
0100
0000
0100
1000
0000
0100
0010
0000
0001
0000
0000
1000
0000
,  // measure 25
0001
0000
0010
0001
0000
0001
1000
0000
0100
0000
1000
0001
0000
0000
0010
0000
,  // measure 26
0001
0000
0100
0010
0000
0010
1000
0000
0100
0010
0000
0001
0000
1000
0001
1000
,  // measure 27
0020
0000
0000
0000
,  // measure 28
0000
0000
0000
0000
,  // measure 29
0032
0000
0000
0000
,  // measure 30
0203
0000
2300
0000
,  // measure 31
3020
0000
0000
0000
,  // measure 32
0000
0000
0000
0000
,  // measure 33
2030
0000
0000
0000
,  // measure 34
3200
0000
0302
0000
,  // measure 35
0103
0000
0000
1000
0100
0000
1000
0000
0010
0000
0000
0000
1010
0000
0000
0000
,  // measure 36
0100
0000
0000
0001
0100
0000
0001
0000
0010
0000
0000
0000
0011
0000
0000
0000
,  // measure 37
1000
0000
0000
0001
1000
0000
0100
0000
1000
0000
0000
0000
1001
0000
0000
0000
,  // measure 38
1000
0000
0000
0001
0100
0000
0001
0000
0010
0000
0000
0000
0110
0000
0000
0000
,  // measure 39
0010
0000
0000
0001
0100
0000
0001
0000
0100
0010
0000
0000
1000
0000
0010
0000
,  // measure 40
1000
0000
0000
0100
0010
0000
0100
0000
1000
0010
0000
0000
0100
0000
0010
0000
,  // measure 41
1000
0000
0000
0001
0100
0000
0001
0000
1000
0000
0000
0001
0010
0000
0001
0000
,  // measure 42
1000
0000
0000
0100
1000
0000
0010
0000
0100
0001
0000
0000
1000
0000
0001
0000
,  // measure 43
2001
0000
0000
0010
0000
0000
0100
0000
0001
0000
0000
0100
0000
0000
0010
0000
,  // measure 44
0001
0000
0000
0010
0000
0000
0100
0000
0010
0000
0000
0001
0000
0000
3100
0000
,  // measure 45
0002
0000
0000
0010
0000
0000
1000
0000
0100
0000
0000
1000
0000
0000
0013
0000
,  // measure 46
0200
0000
0000
0010
0000
0000
0310
0000
2000
0000
0000
0001
0000
0000
3001
0000
,  // measure 47
2000
0000
0000
0100
0000
0000
0001
0000
0010
0000
0000
0001
0000
0000
0100
0000
,  // measure 48
0001
0000
0000
0010
0000
0000
0100
0000
0010
0000
0000
0100
0000
0000
3001
0000
,  // measure 49
0020
0000
0000
0001
0000
0000
0100
0000
1000
0000
0000
0100
0000
0000
1030
0000
,  // measure 50
0002
0000
0000
0100
0000
0000
1003
0000
0020
0000
0000
1000
0000
0000
0031
0000
,  // measure 51
1001
0000
0000
0000
0110
0000
0000
0000
0101
0000
0000
0000
0110
0000
0000
1010
,  // measure 52
0000
0100
1100
0000
2001
0000
3010
0000
,  // measure 53
1001
0000
0000
0000
0011
0000
0000
0000
1001
0000
0000
0000
0101
0000
0000
0101
,  // measure 54
0000
0100
0110
0000
0102
0000
0013
0000
,  // measure 55
1001
0000
0000
0000
1100
0000
0000
0000
0101
0000
0000
0000
1001
0000
0000
1010
,  // measure 56
0000
0001
1001
0000
0120
0000
1030
0000
,  // measure 57
0110
0000
0000
0000
0101
0000
0000
0000
1100
0000
0000
0000
0011
0000
0000
1001
,  // measure 58
0000
1000
1001
0000
1000
0100
1000
0001
,  // measure 59
1001
0000
0100
0001
0000
0001
1000
0000
0001
0000
0010
0001
0000
0000
1000
0000
,  // measure 60
0100
0000
0010
0100
0000
0100
1000
0000
0010
0100
0000
0100
0000
0000
0010
0000
,  // measure 61
1000
0000
0010
0100
0000
0000
0001
0000
1000
0000
0010
0100
0000
0000
0001
0000
,  // measure 62
1000
0000
0100
0010
0000
0000
0001
0000
1000
0100
0000
0010
0000
0010
0001
0000
,  // measure 63
1000
0000
0010
1000
0000
0000
0001
0000
1000
0000
0010
1000
0000
0000
0001
0000
,  // measure 64
0100
0000
0001
0100
0000
0000
0010
0000
0100
0001
0000
0010
0000
0000
0001
0000
,  // measure 65
1000
0000
0001
0010
0000
0000
0100
0000
1000
0000
0001
0010
0000
0000
0100
0000
,  // measure 66
0010
0000
0001
0100
0000
0000
0010
0000
0100
0001
0000
1000
0000
0000
0001
0000
,  // measure 67
1000
0000
0100
1000
0000
0100
1000
0000
0001
0000
0100
0001
0000
0100
0001
0000
,  // measure 68
1000
0000
0010
1000
0000
0010
1000
0000
0010
0100
0000
0010
0000
1000
0001
0000
,  // measure 69
0010
0000
0001
0010
0000
0001
0010
0000
0100
0000
1000
0100
0000
1000
0100
0000
,  // measure 70
1000
0000
0010
0100
0000
0010
0100
0000
0010
1000
0000
0001
0000
1000
0001
0000
,  // measure 71
1000
0000
0100
0010
0000
0100
1000
0000
0001
0000
0100
0001
0000
0100
0010
0000
,  // measure 72
0100
0000
0010
1000
0000
0001
1000
0000
0001
0010
0000
0100
0000
0010
0001
0000
,  // measure 73
1000
0000
0100
1000
0000
0001
1000
0000
0001
0000
0100
0001
0000
1000
0001
0000
,  // measure 74
0010
0000
0001
0010
0000
0001
1000
0000
0001
0000
0100
0000
0010
0000
1000
0000
,  // measure 75
0001
0010
0001
0000
1000
0000
0100
0000
0010
0000
0100
2000
0000
0000
3001
0000
,  // measure 76
0100
0000
0001
0000
0010
0001
0000
0100
0000
0010
0000
0100
0001
0000
0000
0000
,  // measure 77
1000
0010
1000
0000
0010
0000
0100
0000
0001
0000
0010
0002
0000
0000
1003
0000
,  // measure 78
0001
0000
0010
0100
0000
0010
0000
0001
0000
1000
0000
0001
0100
0000
0000
0000
,  // measure 79
0010
1000
0010
0000
0100
0000
0010
0000
1000
0000
0100
0020
0000
0000
0130
0000
,  // measure 80
1000
0000
0010
0000
0100
0001
0000
1000
0000
0001
0000
0010
0001
0000
0000
0000
,  // measure 81
1000
0010
1000
0000
0010
0000
0100
0000
0001
0000
0100
0010
0000
0010
1000
0000
,  // measure 82
0010
0000
0100
0001
0000
0010
0000
0001
0000
1000
0000
0001
1000
0000
0001
0000
,  // measure 83
0010
0001
0010
0000
0001
0000
0010
0000
0100
0000
1000
0200
0000
0000
1300
0000
,  // measure 84
0010
0000
0100
0000
0010
1000
0000
0001
0000
0001
0000
0001
1000
0000
0001
0000
,  // measure 85
1000
0100
1000
0000
0100
0000
0010
0000
0100
0000
1000
0020
0000
0000
0130
0000
,  // measure 86
0010
0000
1000
0001
0000
0100
0000
0010
0000
0010
0000
0100
0001
0000
1000
0000
,  // measure 87
0001
1000
0001
0000
0100
0000
0010
0000
1000
0000
0001
0200
0000
0000
0301
0000
,  // measure 88
1000
0000
0100
0000
0010
0100
0000
1000
0000
1000
0000
1000
0001
0000
0100
0000
,  // measure 89
0010
0100
0010
0000
0100
0000
0001
0000
1000
0000
0010
1000
0000
1000
0001
0000
,  // measure 90
1000
0000
0100
0010
0000
0001
0000
1000
0000
0001
0000
0100
0010
0000
0100
0000
,  // measure 91
0220
0000
0000
0000
,  // measure 92
0000
0000
0000
0000
,  // measure 93
0330
0000
0000
0000
;

//---------------dance-single - Telperion----------------
#NOTES:
     dance-single:
     Telperion:
     Hard:
     15:
     0.657,0.716,0.269,0.127,0.569:
0000
0000
0000
0000
,
0000
0000
0000
0000
,
0000
0000
0000
0000
,
0000
0000
0000
0000
,
0000
0000
0000
0000
,
0000
0000
0000
0000
,
0000
0000
0000
0000
,
0000
0000
0000
0000
,
0000
0000
0000
0000
,
0000
0000
0000
0000
,
1000
0000
0001
0100
0000
0001
0100
0000
0010
0000
1000
0100
0000
0000
0010
0000
,
0001
0000
1000
0010
0000
1000
0010
0000
0100
0000
0000
0000
0010
0000
1000
0000
,
0001
0000
0010
0100
0000
0010
0100
0000
1000
0000
0001
0100
0000
0000
0010
0000
,
1000
0000
0001
0010
0000
0001
0010
0000
0100
0000
0000
0000
0010
0000
0001
0000
,
1000
0000
0010
0100
0000
0010
0100
0000
0001
0000
1000
0100
0000
0000
0010
0000
,
0001
0000
1000
0010
0000
1000
0010
0000
0100
0000
0000
0000
0001
0000
1000
0000
,
0010
0000
0100
1000
0000
0100
0010
0000
1000
0000
0001
0010
0000
0000
0100
0000
,
1000
0000
0100
0000
0010
0000
0001
0000
1000
0010
0000
0100
0010
0000
1000
0000
,
0001
0000
0000
0000
0011
0000
0010
0000
0100
0000
1000
0001
0000
0100
0001
0000
,
1000
0000
0000
0000
1010
0000
0010
0000
0100
0001
0000
1000
0001
0000
0010
0000
,
0100
0000
0000
0000
1100
0000
1000
0000
0001
0000
0100
0010
0000
0100
0001
0000
,
1000
0000
0000
0000
1100
0000
0100
0000
0010
0001
0000
1000
0001
0000
0100
0000
,
0010
0000
0000
0000
1010
0000
0010
0000
0100
0000
0001
1000
0000
0100
1000
0000
,
0001
0000
0000
0000
0011
0000
0010
0000
0100
1000
0000
0001
1000
0000
0010
0000
,
0100
0000
0001
1000
0000
0001
0010
0000
0100
0000
1000
0001
0000
1000
0010
0000
,
0100
0000
0000
0001
0000
0000
0100
0000
0010
0000
0000
0000
1000
0000
0100
0000
,
0020
0000
0000
0000
,
0230
0000
0000
0000
,
2300
0000
0000
0000
,
0001
0000
3020
0000
,
0230
0000
0000
0000
,
0302
0000
0000
0000
0000
1000
0000
0013
,
0001
0000
0010
0000
0100
0000
1000
0000
0000
0001
0000
1000
0000
0000
0001
0000
,
0100
0010
0100
0001
0000
1000
0100
0010
,
0002
0000
1000
0003
0011
0000
0010
0100
,
1000
0001
1000
0000
1010
0000
0010
0100
,
1000
0000
0100
0000
0101
0000
1000
0100
,
0001
0100
1000
0000
1100
0000
0001
1000
,
1010
0000
0000
0010
0110
0000
0000
0100
,
0001
0101
1000
0000
1100
0000
1000
0001
,
0011
0000
0000
0010
0110
0000
0000
0100
,
1000
0001
0100
0010
0001
1000
0100
0001
,
0020
0000
0000
0100
0000
0000
0031
0000
0010
0000
0000
0100
0000
0000
1000
0000
,
0002
0000
0000
0100
0000
0000
1003
0000
0001
0000
0100
1000
0000
0000
0100
0000
,
0020
0000
0000
0100
0000
0000
1030
0000
0010
0000
0000
0100
0000
0000
0001
0000
,
0010
0000
0000
0010
0000
0000
0010
0000
0100
0000
0000
1000
0000
0000
0001
0000
,
0200
0000
0000
0010
0000
0000
0301
0000
0100
0000
0000
0010
0000
0000
1000
0000
,
0002
0000
0000
0010
0000
0000
1003
0000
0001
0000
0010
1000
0000
0000
0010
0000
,
0200
0000
0000
0010
0000
0000
1300
0000
0100
0000
0000
0010
0000
0000
0001
0000
,
0100
0000
0000
0100
0000
0000
0100
0000
0010
0000
0000
0010
0000
0000
1000
0000
,
1001
0000
0000
0000
0011
0000
0000
0000
1001
0000
0000
0000
1010
0000
0000
0110
,
0000
0101
0101
0000
1100
0000
0011
0011
,
1001
0000
0000
0000
1010
0000
0000
0000
1001
0000
0000
0000
0011
0000
0000
0110
,
0000
1100
1100
0000
0101
0000
1010
1010
,
1001
0000
0001
0000
0010
0000
0200
1000
0000
0000
0310
0000
0001
0000
2000
0010
,
0000
0000
3001
0000
1000
0000
0100
0010
0000
0001
0010
0000
0100
0000
1000
0000
,
1001
0000
1000
0000
0010
0000
0200
0001
0000
0000
0310
0000
1000
0000
0002
0010
,
0000
0000
1003
0000
0001
0000
0100
0010
0000
1000
0010
0000
0100
0000
0001
0000
,
1000
0000
0100
0010
0000
0100
1000
0000
0001
0000
1000
0100
0000
1000
0001
0000
,
0100
0000
0010
0100
0000
0001
0100
0000
0010
0000
0000
0000
1000
0000
0001
0000
,
0010
0000
0100
1000
0000
0100
0010
0000
0001
0000
1000
0100
0000
1000
0010
0000
,
0100
0000
1000
0100
0000
0001
0100
0000
0010
0000
1000
0000
0010
0000
1000
0000
,
0001
0000
0100
0010
0000
0100
0001
0000
1000
0000
0001
0100
0000
0001
1000
0000
,
0100
0000
0010
0100
0000
1000
0100
0000
0010
0000
0000
0000
0001
0000
1000
0000
,
0010
0000
0100
0001
0000
0100
0010
0000
1000
0000
0001
0100
0000
0001
0010
0000
,
0100
0000
0001
0100
0000
1000
0100
0000
0010
0001
0000
0001
1000
0000
0010
0000
,
0100
0000
0001
1000
0000
0001
0100
0000
0010
0000
1000
0001
0000
0100
0001
0000
,
1000
0000
0100
0010
0000
0100
1000
0000
0001
0000
0000
0000
0010
0000
0100
0000
,
1000
0000
0010
0100
0000
0001
0100
0000
0010
0000
1000
0001
0000
0010
0001
0000
,
1000
0000
0010
0100
0000
0010
1000
0000
0001
0000
0010
0000
0001
0000
0010
0000
,
0100
0000
1000
0001
0000
1000
0100
0000
0010
0000
0001
1000
0000
0100
1000
0000
,
0001
0000
0100
0010
0000
0100
0001
0000
1000
0000
0000
0000
0100
0000
0010
0000
,
0001
0000
1000
0010
0000
0010
0100
0000
0001
0000
1000
0100
0000
1000
0001
0000
,
0100
0000
1000
0100
0000
0001
0100
0000
0010
1000
0000
1000
0001
0000
0000
0000
,
0010
0000
0100
0000
0001
0000
0100
0000
1000
0000
0001
0100
0000
0001
1000
0000
,
0100
0000
0100
0000
0010
0001
0000
1000
0000
0000
0010
1000
0000
0010
0100
0000
,
0001
0000
0010
0000
1000
0000
0010
0000
0100
0000
1000
0001
0000
1000
0010
0000
,
0100
0000
0100
0001
0000
1000
0000
0100
0000
0000
0010
0000
0100
0000
1000
0000
,
0001
0000
0100
0000
1000
0000
0100
0000
0010
0000
1000
0100
0000
1000
0001
0000
,
0100
0000
0100
0000
0010
1000
0000
0001
0000
0000
0010
0001
0000
0010
0100
0000
,
1000
0000
0010
0000
0001
0000
0010
0000
0100
0000
0001
1000
0000
0001
0010
0000
,
0100
0000
1000
0001
0000
1000
0000
0010
0000
0000
0100
0000
0010
0000
1000
0000
,
0100
0000
0010
0000
1000
0000
0010
0000
0001
0000
1000
0100
0000
0100
0010
0000
,
0001
0000
0100
0000
0010
1000
0000
0001
0000
0000
0010
0001
0000
0010
0100
0000
,
1000
0000
0010
0000
0001
0000
0010
0000
0100
0000
0001
1000
0000
1000
0100
0000
,
0010
0000
0100
1000
0000
0001
0000
0100
0000
0000
0010
0000
0100
0000
0001
0000
,
1000
0000
0100
0000
0001
0000
0100
0000
0010
0000
0001
0100
0000
0100
0010
0000
,
1000
0000
0100
0000
0010
0001
0000
1000
0000
0000
0010
1000
0000
0010
0100
0000
,
0001
0000
0010
0000
1000
0000
0010
0000
0100
0000
1000
0001
0000
1000
0010
0000
,
0100
0000
0001
1000
0000
0001
0000
0010
0000
0000
0010
0000
0100
0000
1000
0000
,
0002
0000
0000
0000
,
0000
0000
0000
0000
,
0003
0000
0000
0000
;

//---------------dance-single - Pandemonium X----------------
#NOTES:
     dance-single:
     Pandemonium X:
     Challenge:
     17:
     0.878,1.000,0.163,0.149,1.000:
0000
0000
0000
0000
,
0000
0000
0000
0000
,
0000
0000
0000
0000
,
0000
0000
0000
0000
,
0000
0000
0000
0000
,
0000
0000
0000
0000
,
1100
0000
0000
0000
1100
0000
0000
0000
1100
0000
0000
0000
1100
0000
0000
1100
,
0000
0000
1100
0000
1100
0000
0000
0000
1001
0000
0001
0100
0010
0100
0010
0100
,
0110
0000
0000
0000
0110
0000
0000
0000
0110
0000
0000
0000
0110
0000
0000
0110
,
0000
0110
0110
0000
0110
0000
0000
0000
,
1000
0000
0001
0100
0000
0100
0001
0000
0010
0000
0100
1000
0000
1000
0100
1000
,
0010
0000
0100
0010
0000
0010
0100
0000
0001
1000
0000
1000
0001
0010
0100
0010
,
0001
0000
0010
0001
0000
0010
0100
0000
1000
0000
0100
1000
0000
1000
0010
1000
,
0010
0000
0100
0010
0000
0100
0001
0000
1000
0001
0000
0010
0100
0010
0001
1000
,
0010
0000
0100
0010
0000
0010
0100
0000
0010
0000
1000
0001
0000
0010
0100
1000
,
0001
0000
1000
0010
0000
0010
1000
0000
0010
0100
0000
0010
1000
0001
0010
0100
,
0010
0000
0001
0010
0000
0010
0001
0000
0100
0000
0001
1000
0000
0100
1000
0100
,
0010
0000
0100
1000
0000
1000
0010
0000
0100
0010
0000
0100
0010
1000
0001
0010
,
0100
0000
0010
0001
0000
0010
0100
0000
0010
0000
0001
0100
0000
0010
1000
0100
,
0010
0000
0100
1000
0000
0100
0010
0000
0100
1000
0000
0100
1000
0010
0100
0001
,
1000
0000
0001
0100
0000
0001
1000
0000
0100
0000
0010
0100
0000
0010
0001
1000
,
0010
0000
0100
0001
0000
0100
0010
0000
1000
0001
0000
0010
0100
0010
0001
1000
,
0010
0000
1000
0001
0000
0010
0100
0000
0010
0001
0000
0100
0010
1000
0100
0010
,
0100
0000
0010
0001
0000
0010
0100
0000
0010
0001
0000
0010
0001
0100
0010
1000
,
0001
0000
1000
0010
0000
0010
0100
0000
0010
0000
0100
0010
0000
0100
0010
1000
,
0001
0000
0010
0100
0000
0010
0001
0000
1000
0001
0000
1000
0100
0010
0001
1000
,
0020
0000
0000
0000
,
0230
0000
0000
0000
,
0302
0000
0000
0000
,
0000
0000
2003
0000
,
3020
0000
0000
0000
,
0000
0000
0000
0000
,
0230
0000
0000
0000
,
0302
0000
0000
0000
,
1003
0000
0000
0010
0000
0000
0100
0000
0101
0000
0000
0000
0000
0000
0000
0000
,
0001
1000
0000
1000
0001
0000
0010
0000
0110
0000
0000
0000
0000
0000
0000
0000
,
0100
0000
0000
0010
0000
0000
0001
0000
0011
0000
0000
0000
0000
0000
0000
0000
,
0010
0100
0000
0100
1000
0000
0010
0000
1010
0000
0000
0000
0000
0000
0000
0000
,
1000
0000
0000
0001
0000
0000
0010
0000
0110
0000
0000
0000
0000
0000
0000
0000
,
0100
0010
0000
0010
0001
0000
0100
0000
0101
0000
0000
0000
0000
0000
0000
0000
,
0001
0000
1000
0010
0000
0100
0010
0000
1000
0000
0001
0010
0000
0100
0010
0000
,
0100
1000
0100
0000
1000
0000
0010
0000
0100
0000
0001
0000
1000
0001
1000
0001
,
0010
0001
0100
0010
1000
0001
0010
0100
,
0010
0001
0100
0010
1000
0100
0001
0100
,
1000
0010
0100
0001
0010
0100
0010
0001
,
1000
0010
1000
0001
1000
0100
0001
0100
,
0010
0001
0100
0001
0010
0100
1000
0010
,
0100
0001
1000
0010
0001
0100
0001
0010
,
0100
0010
0001
0100
0010
1000
0010
0100
,
0001
0010
0100
0010
0001
0100
1000
0100
,
0010
1000
0010
1000
0001
0100
0001
0100
0001
0010
0100
0010
0001
1000
0001
1000
,
0001
0010
0001
0010
0100
1000
0100
1000
0001
0010
0100
1000
0001
0010
0100
1000
,
0001
0100
0001
0100
0010
1000
0010
1000
0001
1000
0010
0100
0010
1000
0010
1000
,
0001
0100
0001
0100
0010
0100
0010
0100
0010
1000
0001
0010
0100
1000
0001
0010
,
0100
0010
0100
0010
0001
0010
0001
0010
0001
0100
0010
1000
0001
0010
0100
1000
,
0001
0100
0001
0100
0010
0100
0010
0100
0010
1000
0100
0010
0001
1000
0100
0010
,
0001
1000
0001
1000
0010
0100
0010
0100
0001
0100
0010
1000
0100
0010
0100
1000
,
0001
0010
0001
0010
0100
1000
0100
1000
0100
0010
0001
0010
0100
0010
0001
1000
,
0010
0000
1000
0020
0000
0130
0010
0000
0100
0000
0010
2000
0000
3001
1000
0100
,
0010
0000
0100
2000
0000
3010
1000
0000
0001
2000
3000
1000
0100
0010
0001
0100
,
0010
0000
0100
0020
0000
1030
0010
0000
0100
0000
0001
0020
0000
0130
0010
0000
,
0001
0000
0010
0200
0000
0310
0100
0000
0010
0002
0003
0001
1000
0100
0010
0001
,
1000
0000
0001
0200
0000
0310
0100
0000
0010
0000
1000
0200
0000
0310
0100
1000
,
0001
0000
0100
0002
0000
0013
0001
0000
0010
0100
0000
1000
0100
0010
0001
1000
,
0010
0000
0100
0002
0000
0013
0001
0000
0010
0000
0100
2000
0000
3100
1000
0010
,
0100
0000
0100
0020
0000
1030
0010
0000
0100
0001
0000
0010
0100
0010
0001
1000
,
0010
0000
1000
1000
0000
0001
0001
0000
1000
0000
0010
1000
0000
0010
0100
0001
,
0010
0000
0100
0100
0000
0010
0010
0000
0100
1000
0000
0100
0010
0001
1000
0010
,
0100
0000
0001
0001
0000
0100
0100
0000
0010
0000
1000
0010
0000
1000
0100
0010
,
0100
0000
1000
1000
0000
0001
0001
0000
1000
0010
0000
0100
0001
0010
0100
1000
,
0100
0000
1000
1000
0000
0010
0010
0000
0100
0000
0010
0010
0000
0100
0001
1000
,
0100
0000
0010
0010
0000
0100
0100
0000
0010
0001
0000
0001
0010
0100
1000
0010
,
0100
0000
0010
0010
0000
1000
1000
0000
0001
0000
0010
0010
0000
0100
0010
0001
,
1000
0000
0001
0001
0000
0100
0100
0000
0010
1000
0000
0010
1000
0001
0010
0100
,
1000
0100
0010
0001
1000
0100
0010
0001
1000
0000
0010
1000
0000
0010
0100
0001
,
0010
0000
0100
0000
0010
0001
0000
0010
0000
0000
0001
0100
0000
0010
0100
0000
,
0001
0010
0100
1000
0001
0010
0100
1000
0001
0000
1000
0010
0000
0010
0100
0000
,
0010
0000
1000
0000
0001
0010
0000
0100
0000
0000
0010
0001
0100
0010
1000
0001
,
1000
0100
0010
0001
1000
0100
0010
0001
0010
0000
0100
1000
0000
0100
1000
0010
,
0100
0000
0010
0000
1000
0010
0000
1000
0000
0000
0001
0010
0000
0010
0100
0000
,
1000
0100
0010
0001
1000
0100
0010
0001
1000
0000
0001
0100
0000
0010
0000
0000
,
0100
0000
0010
1000
0000
0001
0000
0010
0000
0000
0100
0010
0000
0010
0001
1000
,
0001
0010
0100
1000
0001
0010
0100
1000
0001
0000
0100
0001
0000
0100
0010
1000
,
0100
0000
0010
0000
0100
1000
0000
0100
0000
0000
1000
0010
0000
0100
0010
0000
,
1000
0100
0010
0001
1000
0100
0010
0001
1000
0000
0001
0100
0000
0100
0010
0000
,
0100
0000
0001
0000
1000
0100
0000
0010
0000
0000
0100
1000
0010
0100
0001
1000
,
0001
0010
0100
1000
0001
0010
0100
1000
0100
0000
0010
0001
0000
0010
0001
0100
,
0010
0000
0100
0000
0001
0100
0000
0001
0000
0000
1000
0100
0000
0100
0010
0000
,
0001
0010
0100
1000
0001
0010
0100
1000
0001
0000
1000
0010
0000
0100
0000
0000
,
0010
0000
0100
0001
0000
1000
0000
0100
0000
0000
0010
0100
0000
0100
1000
0010
,
0110
0000
0000
0000
;

//---------------dance-double - Telperion----------------
#NOTES:
     dance-double:
     Telperion:
     Easy:
     8:
     0.314,0.390,0.113,0.163,0.000:
00000000
00000000
00000000
00000000
,
00000000
00000000
00000000
00000000
,
00000000
00000000
00000000
00000000
,
00000000
00000000
00000000
00000000
,
00000000
00000000
00000000
00000000
,
00000000
00000000
00000000
00000000
,
00000000
00000000
00000000
00000000
,
00000000
00000000
00000000
00000000
,
00000000
00000000
00000000
00000000
,
00000000
00000000
00000000
00000000
,
00010000
00001000
00100000
00010000
,
10000000
00000000
00100000
00000000
01000000
00000000
00010000
10000000
,
01000000
00100000
00010000
01000000
,
00001000
00000000
00010000
00000000
00000100
00010000
00001000
01000000
,
00001000
00010000
00000010
00001000
,
00000001
00000000
00000010
00000000
00000100
00000000
00001000
00000001
,
00000100
00000010
00001000
00000100
,
00010000
00000000
00001000
00000000
00100000
00000000
00010000
10000000
,
00100000
00000000
01000000
00000000
00010000
00000000
10000000
00100000
,
01000000
00000000
00010000
00000000
10000000
00000000
01000000
00100000
,
00001000
00000000
00010000
00000000
00000010
00000000
00001000
00000010
,
00010000
00000000
00001000
00000000
00010000
00000010
00001000
00000001
,
00000010
00000000
00000100
00000000
00001000
00000000
00000001
00000010
,
00000100
00000000
00001000
00000000
00000001
00000000
00000100
00000010
,
00010000
00000000
00001000
00000000
00100000
00000000
00010000
00100000
,
00001000
00000000
00010000
00000000
00001000
00100000
00010000
10000000
,
00200000
00000000
00000000
00000000
,
02300000
00000000
00000000
00000000
,
03002000
00000000
00000000
00000000
,
00000000
00000000
00023000
00000000
,
00030020
00000000
00000000
00000000
,
00002030
00000000
00000000
00000000
00000000
00000000
00000000
00003001
,
00001000
00000100
00010000
00000000
,
00001000
00010000
00000010
00001000
,
00000002
00000000
00000000
00000000
,
00000203
00000000
00000000
00000000
,
00002300
00000000
00000000
00000000
,
00000000
00000000
00023000
00000000
,
00230000
00000000
00000000
00000000
,
20300000
00000000
00000000
00000000
00000000
00000000
00000000
30010000
,
10000000
01000000
00100000
00010000
,
10000000
00100000
00010000
00001000
,
00011000
00000000
00000100
00000000
,
00010100
00000000
00010000
00000000
,
00011000
00000000
00100000
00000000
,
00101000
00000000
00001000
00000000
,
00011000
00000000
01000000
00000000
,
01010000
00000000
00001000
00000000
,
00011000
00000000
00000010
00000000
,
00001010
00000000
00010000
00000000
,
00011000
00000000
00101000
00000000
,
00100000
01000000
10000000
00010000
,
10010000
00000000
10100000
00000000
,
00100000
01000000
00001000
00010000
,
00011000
00000000
00010010
00000000
,
00000010
00000100
00000001
00001000
,
00001001
00000000
00000011
00000000
,
00000001
00000010
00001000
00010000
,
00002000
00100000
00000000
00010000
,
02003000
00001000
00000000
00010000
,
03200000
10000000
00000000
01000000
,
00000000
10000000
20300000
00100000
,
30020000
00100000
00000000
10000000
,
00000000
01000000
00000000
10030000
,
00010000
00100000
00000000
01000000
,
10000000
01000000
00010000
00001000
,
00020000
00000010
00000000
00001000
,
00030200
00010000
00000000
00001000
,
00000320
00000001
00000000
00000100
,
00000000
00000001
00000032
00000010
,
00002003
00000010
00000000
00000001
,
00000000
00000100
00000000
00003001
,
00001000
00000010
00000000
00000100
,
00000001
00000100
00001000
00010000
,
00001000
00100000
00010000
10000000
01000000
00000000
00100000
00000000
,
00010000
00010000
10000000
00000000
,
00010000
10000000
00100000
01000000
00010000
00000000
10000000
00000000
,
00100000
00010000
00001000
00010000
,
00000010
00001000
00000001
00001000
00000100
00000000
00000010
00000000
,
00000001
00000010
00001000
00000000
,
00100000
00001000
00010000
00001000
00100000
00000000
00010000
00000000
,
01000000
00001000
00010000
00000010
,
00010000
00000010
00001000
00000001
00000100
00000000
00000010
00000000
,
00001000
00001000
00000001
00000000
,
00001000
00000001
00000010
00000100
00001000
00000000
00000001
00000000
,
00000010
00001000
00010000
00001000
,
00100000
00010000
10000000
00010000
01000000
00000000
00100000
00000000
,
10000000
00100000
00010000
00000000
,
00000010
00010000
00001000
00010000
00000010
00000000
00001000
00000000
,
00000100
00010000
00001000
00000000
,
02000000
00000000
00000000
00000000
,
00000000
00000000
00000000
00000000
,
03000000
00000000
00000000
00000000
;

//---------------dance-double - Pandemonium X----------------
#NOTES:
     dance-double:
     Pandemonium X:
     Medium:
     11:
     0.521,0.605,0.071,0.516,0.230:
00000000
00000000
00000000
00000000
,
00000000
00000000
00000000
00000000
,
00000000
00000000
00000000
00000000
,
00000000
00000000
00000000
00000000
,
00000000
00000000
00000000
00000000
,
00000000
00000000
00000000
00000000
,
10000000
00000000
00000000
00000000
01000000
00000000
00000000
00000000
01000000
00000000
00000000
00000000
00100000
00000000
00000000
00010000
,
00000000
00010000
10000000
00000000
10010000
00000000
00000000
00000000
,
00100000
00000000
00000000
00000000
00010000
00000000
00000000
00000000
00100000
00000000
00000000
00000000
00001000
00000000
00000000
00010000
,
00000000
00000100
00000100
00000000
00001100
00000000
00000000
00000000
,
00002000
00003010
00000200
00000301
,
00000020
00000000
00000130
00000000
00000200
00000000
00010300
00001000
,
00200000
00310000
02000000
13000000
,
00200000
00000000
01300000
00000000
00100000
01000000
00010000
00100000
,
00002000
00013000
00020000
00030100
,
00002000
00000000
00003010
00000000
00000200
00000000
00000310
00001000
,
00000200
00010300
00002000
01003000
,
00200000
00000000
10300000
00000000
20000000
00000000
31000000
00010000
,
02000000
03100000
02000000
13000000
,
00200000
00000000
01300000
00000000
00200000
00000000
10300000
00010000
,
00200000
00301000
00020000
00030100
,
00002000
00000000
00003010
00000000
00000200
00000000
00000310
00001000
,
00000200
00000000
00010300
00000000
00002000
00000000
01003000
00100000
,
20000000
00000000
31000000
00000000
00200000
00000000
00301000
00010000
,
00000020
00000000
00000130
00000000
00000010
00000100
00001000
00000000
,
00000200
00000000
00000301
00000000
00000010
00000100
00001000
00000001
,
00001002
00000000
00000000
00000000
,
00000203
00000000
00000000
00000000
,
00000320
00000000
00000000
00000000
,
00000000
00000000
00020030
00000000
,
00002000
00000000
00000000
00000000
,
00000000
00000000
00000000
00033000
,
00101000
00000000
00000000
00000000
,
01100000
00000000
00010000
00000000
,
00200000
00000000
00302000
00000000
,
00023000
00000000
00030200
00000000
,
00002300
00000000
00000000
00000000
,
00000000
00000000
00003020
00000000
,
00020030
00000000
00000000
00000000
,
00000000
00000000
00032000
00000000
,
02003000
00000000
00000000
00000000
,
00200000
00000000
00000000
03300000
,
10010000
00000000
00000000
10000000
00000000
00000000
00010000
00000000
00100000
00000000
00000000
00001000
00000000
00000000
00010000
00000000
,
00000100
00000000
00000000
00001000
00000000
00000000
00000010
00000000
00000100
00000000
00000000
00000001
00000000
00000000
00001000
00000000
,
00000100
00000000
00000000
00010000
00000000
00000000
00001000
00000000
01000000
00000000
00000000
00100000
00000000
00000000
10000000
00000000
,
01000000
00000000
00000000
00010000
00000000
00000000
01000000
00000000
00100000
00000000
00000000
00001000
00000000
00000000
00010000
00000000
,
00000100
00000000
00000000
00001000
00000000
00000000
00000010
00000000
00000100
00000000
00000000
00000001
00000000
00000000
00000010
00000000
,
00001000
00000000
00000000
00000010
00000000
00000000
00000001
00000000
00001000
00000000
00000000
00000010
00000000
00000000
00010000
00000000
,
00001000
00000000
00000000
01000000
00000000
00000000
00100000
00000000
10000000
00000000
00000000
01000000
00000000
00000000
00100000
00000000
,
01000000
00000000
00000000
00100000
00000000
00000000
00010000
00000000
00100000
00000000
00000000
00001000
00000000
00000000
00010000
00000000
,
00000100
00001000
00000010
00000100
00000001
00000010
00001000
00000010
,
00000001
00000100
00000010
00001000
00000100
00010000
00001000
00000000
,
00100000
00010000
01000000
00100000
10000000
00010000
00100000
10000000
,
00100000
00010000
01000000
00100000
10000000
00010000
00100000
00000000
,
00001000
00010000
00000010
00000100
00000010
00001000
00000100
00010000
,
00001000
00100000
01000000
00100000
00001000
00010000
00000100
00000000
,
00010000
00001000
00100000
10000000
00100000
00010000
01000000
00001000
,
00010000
00000100
00001000
00000010
00000100
00000001
00001000
00000000
,
00000002
00000000
00000000
00000103
00000000
00000000
00000010
00000000
00002000
00000000
00000000
00003100
00000000
00000000
00010000
00000000
,
00002000
00000000
00000000
01003000
00000000
00000000
00100000
00000000
10000000
00100000
00000000
01000000
00010000
00000000
00100000
00000000
,
02000000
00000000
00000000
03100000
00000000
00000000
00010000
00000000
02000000
00000000
00000000
03010000
00000000
00000000
00100000
00000000
,
00002000
00000000
00000000
00013000
00000000
00000000
00000100
00000000
00001000
00000010
00000000
00000010
00000100
00000000
00000001
00000000
,
00002000
00000000
00000000
00003010
00000000
00000000
00000100
00000000
00000002
00000000
00000000
00000013
00000000
00000000
00000100
00000000
,
00002000
00000000
00000000
00003100
00000000
00000000
00001000
00000000
00000100
00010000
00000000
00010000
00001000
00000000
00010000
00000000
,
00000200
00000000
00000000
00010300
00000000
00000000
00001000
00000000
02000000
00000000
00000000
03100000
00000000
00000000
10000000
00000000
,
02000000
00000000
00000000
03100000
00000000
00000000
01000000
00000000
10000000
01000000
00000000
01000000
00100000
00000000
00010000
00000000
,
10000000
00000000
00010000
01000000
00000000
00010000
00100000
00000000
01000000
00000000
00000000
00000000
00100000
00000000
00000000
00000000
,
00010000
00000000
00100000
00001000
00000000
00010000
00000100
00000000
00001000
00000000
00000000
00000000
00000010
00000000
00000000
00000000
,
00000100
00000000
00000010
00001000
00000000
00000001
00000010
00000000
00000100
00000000
00000000
00000000
00000010
00000000
00000000
00000000
,
00000001
00000000
00001000
00000010
00000000
00000010
00010000
00000000
00001000
00010000
00000000
00010000
00001000
00000000
01000000
00000000
,
00100000
00000000
10000000
00100000
00000000
01000000
00010000
00000000
00100000
00000000
00000000
00000000
01000000
00000000
00000000
00000000
,
00100000
00000000
00001000
00010000
00000000
00010000
00000100
00000000
00010000
00000000
00000000
00000000
00001000
00000000
00100000
00000000
,
00010000
00000000
01000000
00100000
00000000
10000000
01000000
00000000
00100000
00000000
00000000
00000000
01000000
00000000
00000000
00000000
,
00200000
00000000
00000000
00000000
,
00301000
00010000
00000100
00001000
00000100
00010000
00001000
00100000
,
02000000
23000000
30200000
02300000
,
03010000
00100000
00001000
00010000
00000100
00001000
00000010
00000100
,
00000002
00000023
00000230
00000320
,
00000031
00000100
00001000
00000100
00000010
00001000
00000100
00010000
,
00002000
00023000
00030200
00020300
,
00031000
00100000
00001000
00010000
00000100
00001000
00000010
00000100
,
00000002
00000203
00000320
00002030
,
00003100
00010000
00001000
00100000
01000000
00100000
00010000
10000000
,
00100000
00000000
01000000
00000000
00010000
10000000
00000000
10010000
00000000
00000000
00000000
00000000
00000000
00000000
00000000
00000000
,
10000000
01000000
00100000
00010000
00100000
00001000
00010000
00000100
,
00001000
00000000
00000010
00000000
00000100
00000001
00000000
00000101
00000000
00000000
00000000
00000000
00000000
00000000
00000000
00000000
,
00000001
00000010
00000100
00001000
00000100
00010000
00001000
00100000
,
00010000
00000000
01000000
00000000
00100000
10000000
00000000
10010000
00000000
00000000
00000000
00000000
00000000
00000000
00000000
00000000
,
10000000
01000000
00100000
00010000
00100000
00001000
00010000
00000100
,
00001000
00000000
00000010
00000100
00000000
00000001
00000000
00000010
00000000
00000000
00000100
00000010
00000000
00000010
00000001
00000000
,
00001001
00000000
00000000
00000000
;

//---------------dance-double - t7r----------------
#NOTES:
     dance-double:
     t7r:
     Hard:
     17:
     0.853,0.846,0.184,0.092,1.000:
00000000
00000000
00000000
00000000
,
00000000
00000000
00000000
00000000
,
00000000
00000000
00000000
00000000
,
00000000
00000000
00000000
00000000
,
00000000
00000000
00000000
00000000
,
00000000
00000000
00000000
00000000
,
00100000
00000000
00000000
00000000
01100000
00000000
00000000
00000000
01010000
00000000
00000000
00000000
00101000
00000000
00000000
00011000
,
00000000
00000000
00000100
00000000
00010100
00000000
00000000
00000000
00011000
00000000
00010000
00000100
00010000
00000000
00000010
00010000
,
00000010
00000000
00000000
00000000
00000110
00000000
00000000
00000000
00001001
00000000
00000000
00000000
00010100
00000000
00000000
00011000
,
00000000
00000000
00100000
00000000
00101000
00000000
00000000
00000000
01010000
00000000
00010000
01000000
00010000
10000000
00010000
10000000
,
00100000
00000000
01000000
00010000
00000000
00010000
10000000
00000000
00010000
00000000
00100000
01000000
00000000
01000000
00100000
00000000
,
00001000
00000000
01000000
00001000
00000000
00001000
00010000
00000000
00000100
00010000
00000000
00000010
00000000
00000010
00000100
00000001
,
00001000
00000000
00000001
00000010
00000000
00000010
00000100
00000000
00001000
00000000
00010000
01000000
00000000
01000000
10000000
00000000
,
00100000
00000000
01000000
00010000
00000000
00010000
10000000
00000000
00100000
01000000
00000000
00001000
00000000
00001000
00010000
00001000
,
00010000
00000000
00000010
00000100
00000000
00000100
00000001
00000000
00000010
00000000
00000001
00001000
00000000
00001000
00000100
00000000
,
00001000
00000000
00010000
00100000
00000000
00100000
10000000
00000000
00100000
01000000
00000000
00010000
00000000
00010000
10000000
00010000
,
00100000
00000000
00001000
01000000
00000000
01000000
00001000
00000000
00010000
00000000
00000100
00010000
00000000
00010000
00000010
00000000
,
00000100
00000000
00000010
00001000
00000000
00001000
00000001
00000000
00000010
00000100
00000000
00000100
00000000
00010000
00001000
00010000
,
00001000
00000000
00010000
01000000
00000000
01000000
00100000
00000000
00010000
00000000
01000000
00100000
00000000
00100000
10000000
00000000
,
00100000
00000000
01000000
00001000
00000000
00001000
00010000
00000000
00001000
00000010
00000000
00000010
00000000
00000010
00000001
00001000
,
00000001
00000000
00000010
00000100
00000000
00000100
00001000
00000000
00000100
00000000
00001000
00010000
00000000
00010000
00001000
00000000
,
00000100
00000000
00010000
00001000
00000000
00001000
00010000
00000000
00001000
00010000
00000000
00010000
00000000
00100000
00010000
01000000
,
00100000
00000000
10000000
00100000
00000000
00100000
01000000
00000000
00100000
00000000
01000000
00010000
00000000
10000000
00010000
01000000
,
00010000
00000000
00100000
00001000
00000000
00001000
00010000
00000000
00001000
00010000
00000000
00000010
00000000
00000100
00000010
00001000
,
00000001
00000000
00000010
00000100
00000000
00000100
00001000
00000000
00000100
00000000
00010000
00001000
00000000
00001000
00010000
00000000
,
00001000
00000000
00010000
01000000
00000000
01000000
10000000
00000000
00100000
01000000
00000000
01000000
00000000
00001000
00010000
00001000
,
00020000
00000000
00000010
00000000
00000100
00000100
00030100
00000000
,
00002000
00000000
00010000
00000000
01000000
01000000
01003000
00000000
,
00200000
00000000
00010000
00000000
10000000
10000000
10300000
00000000
,
00020000
01030000
00002000
00103000
,
00020000
00000000
01000000
00000000
00001000
00001000
00031000
00000000
,
00200000
00000000
00001000
00000000
00010000
00010000
00310000
00000000
,
00002000
00003100
00000002
00000103
,
00002000
00103000
00020000
10030000
,
10010000
00000000
00000000
10000000
01000000
00000000
00100000
00000000
01000000
00000000
00000000
01000000
00100000
00000000
00001000
00000000
,
00010000
00000000
00000000
00010000
00001000
00000000
00010000
00000000
00000010
00000000
00000000
00000010
00000100
00000000
00000001
00000000
,
00001000
00000000
00000000
00001000
00000100
00000000
00001000
00000000
00000001
00000000
00000000
00000001
00000010
00000000
00000001
00000000
,
00001000
00000100
00000001
00000100
00001000
00010000
01000000
10000000
,
00100000
00000000
00000000
00100000
01000000
00000000
00010000
00000000
10000000
00000000
00000000
10000000
00100000
00000000
10000000
00000000
,
00010000
00000000
00000000
00010000
01000000
00000000
00001000
00000000
00010000
00000000
00001000
00000000
00000010
00000000
00000001
00000000
,
00000100
00000000
00000010
00001000
00000010
00000000
00000100
00000000
00000010
00000000
00010000
00000100
00010000
00000000
00001000
00000000
,
00100000
00000000
00010000
01000000
00010000
00000000
10000000
00000000
00100000
00000000
01000000
00000000
00010000
00000000
10000000
00000000
,
10010000
00000000
00000000
00100000
10000000
00000000
00100000
00000000
10000000
00000000
00000000
10000000
01000000
00000000
00100000
00000000
,
00001000
00000000
00000000
00001000
00100000
00000000
00001000
00000000
00010000
00000000
00000000
00010000
00001000
00000000
00010000
00000000
,
00000010
00000000
00000000
00000010
00000100
00000000
00000001
00000000
00001000
00000000
00000000
00001000
00000100
00000000
00001000
00000000
,
00001100
00000000
00000000
00000100
00001000
00000000
00000100
00000000
00010100
00000000
00000000
00000100
00010000
00000000
00001000
00000000
,
00011000
00000000
00000000
00001000
00100000
00000000
00001000
00000000
01000000
00000000
00000000
01000000
00100000
00000000
10000000
00000000
,
00010000
00000000
00000000
00010000
00100000
00000000
00001000
00000000
00010000
00000000
00000000
00010000
00000100
00000000
00001000
00000000
,
00000010
00000000
00000000
00000010
00000100
00000000
00000001
00000000
00001000
00000000
00000000
00001000
00000100
00000000
00010000
00000000
,
00010100
00000000
00000000
00000100
00010000
00000000
00001000
00000000
00101000
00000000
00000000
00001000
00100000
00000000
00001000
00000000
,
01001000
00000000
00001000
01000000
00001000
00000000
00100000
00001000
00100000
00000000
00001000
00010000
00001000
00000000
00000000
00011000
,
00000000
00000000
00001000
01000000
00001000
00000000
01000000
00100000
10000000
00000000
00100000
01000000
00000000
01000000
00010000
00000000
,
10000000
00000000
01000000
10000000
01000000
00000000
00100000
01000000
00100000
00000000
01000000
10000000
01000000
00000000
00000000
11000000
,
00000000
00000000
00100000
01000000
00001000
00000000
00100000
00001000
00010000
00000000
00000100
00010000
00000000
00010000
00001000
00000000
,
00000100
00000000
00000010
00001000
00000010
00000000
00001000
00000001
00001000
00000000
00000001
00000010
00000001
00000000
00000000
00000011
,
00000000
00000000
00000100
00000001
00001000
00000000
00000001
00000010
00000100
00000000
00010000
00000100
00001000
00000000
00010000
01000000
,
00100000
00000000
10000000
00100000
10000000
00000000
00010000
01000000
00010000
00000000
10000000
00010000
01000000
00000000
00000000
01001000
,
00000000
00000000
00001000
00010000
00001000
00000000
00010000
00000010
00010000
00001000
00010000
00001000
00010000
00001000
00010000
00001000
,
00010000
00000000
00000100
00010000
00000000
00010000
00001000
00100000
00001000
00000000
01000000
00100000
00000000
00100000
10000000
00010000
,
10000000
00000000
01000000
00100000
00000000
00100000
00001000
00010000
00001000
01000000
00000000
00001000
00000000
00001000
00010000
00001000
,
00010000
00000000
00000010
00000100
00000000
00000100
00000010
00001000
00000001
00000000
00000010
00000100
00000000
00000100
00000010
00000001
,
00001000
00000000
00000100
00010000
00000000
00010000
00001000
00000000
00100000
00001000
00000000
01000000
00000000
01000000
00100000
10000000
,
00010000
00000000
10000000
01000000
00000000
01000000
00100000
00000000
00001000
00000000
00010000
00001000
00000000
00001000
00010000
00000010
,
00000100
00000000
00000010
00001000
00000000
00001000
00000001
00000000
00000010
00000100
00000000
00000100
00000000
00010000
00000100
00010000
,
00001000
00000000
00010000
01000000
00000000
01000000
10000000
00000000
00100000
00000000
00010000
00001000
00000000
00001000
00010000
00100000
,
00010000
00000000
10000000
01000000
00000000
01000000
00010000
00000000
01000000
00100000
00000000
00001000
00000000
00010000
00001000
00010000
,
00000010
00000000
00000100
00000001
00000000
00001000
00000100
00000000
00001000
00000000
00000010
00000100
00000000
00000010
00001000
00000100
,
00010000
00000000
00001000
00100000
00000000
00001000
01000000
00000000
00100000
01000000
00000000
00010000
00000000
10000000
01000000
00100000
,
00001000
00000000
00010000
00000100
00000000
00000100
00001000
00000000
00000010
00000000
00000100
00000001
00000000
00000001
00001000
00000000
,
00000001
00000000
00000010
00000100
00000000
00000100
00010000
00000000
00001000
00100000
00000000
00001000
00000000
01000000
00010000
10000000
,
00010000
00000000
10000000
01000000
00000000
01000000
00010000
00000000
01000000
00000000
00100000
00001000
00000000
00001000
00010000
00001000
,
00000010
00000000
00000001
00000100
00000000
00000100
00000010
00000000
00001000
00000010
00000000
00000100
00000000
00000100
00000010
00001000
,
00000100
00000000
00001000
00010000
00000000
00010000
00001000
00000000
00000100
00000000
00010000
00001000
00000000
00001000
00010000
00000000
,
00001000
00000000
00100000
00010000
00000000
00010000
01000000
00000000
00100000
10000000
00100000
10000000
00010000
00000000
01010000
00000000
,
10000000
01000000
00100000
00000000
00010000
00100000
01000000
00000000
00100000
00000000
00100000
00001000
00000000
00001000
01000000
00000000
,
00001000
00000000
00100000
00000000
00001000
00010000
00000000
00000010
00000000
00000010
00000000
00000010
00000100
00000000
00000001
00000000
,
00001000
00000100
00000010
00000000
00000001
00000010
00000100
00000000
00000010
00000000
00000010
00000001
00000000
00000001
00000100
00000000
,
00000010
00000000
00001000
00000000
00000100
00010000
00000000
00001000
00000000
00001000
00000000
00001000
00010000
00001000
00010000
00001000
,
00100000
00010000
01000000
00000000
00100000
10000000
01000000
00000000
00100000
00000000
01000000
10000000
00000000
10000000
00100000
00000000
,
01000000
00000000
00100000
00000000
10000000
01000000
00000000
00100000
00000000
00100000
00000000
00100000
00001000
00000000
00010000
00000000
,
00000010
00001000
00000100
00000000
00000010
00000001
00000100
00000000
00000010
00000000
00000100
00000001
00000000
00000001
00001000
00000000
,
00000001
00000000
00000010
00000100
00000000
00010000
00000000
00001000
00000000
00001000
00000000
00001000
00100000
00010000
01000000
00000000
,
00010000
00100000
01000000
10000000
01000000
00100000
00010000
00000000
10000000
00000000
01000000
00100000
00000000
00100000
00010000
00000000
,
01000000
00001000
00100000
00000000
00001000
00010000
00000000
00000010
00000000
00000010
00000000
00000010
00000100
00000001
00001000
00000000
,
00000001
00000010
00000100
00001000
00000100
00000010
00000001
00000000
00001000
00000000
00000010
00000100
00000000
00000100
00000001
00000000
,
00000100
00000001
00000010
00000000
00000100
00010000
00000000
00001000
00000000
00001000
00000000
00001000
00100000
00001000
01000000
00001000
,
10000000
00100000
01000000
00010000
01000000
00100000
10000000
00000000
00100000
00000000
01000000
00010000
00000000
00010000
10000000
00000000
,
00010000
01000000
00001000
00000000
00010000
00000010
00000000
00000100
00000000
00000100
00000000
00000100
00000010
00001000
00000001
00000000
,
00001000
00000100
00010000
00001000
00010000
00000100
00010000
00000000
00001000
00000000
01000000
00001000
00000000
00001000
00100000
00000000
,
00001000
00000000
00100000
01000000
00000000
00100000
00000000
00001000
00000000
00001000
00000000
00001000
00010000
00001000
00010000
00000000
,
00020200
00000000
00000000
00000000
,
00000000
00000000
00000000
00000000
,
00030300
00000000
00000000
00000000
;

//---------------dance-double - Telperion----------------
#NOTES:
     dance-double:
     Telperion:
     Challenge:
     18:
     0.936,0.943,0.290,0.035,1.000:
00000000
00000000
00000000
00000000
,
00000000
00000000
00000000
00000000
,
00000000
00000000
00000000
00000000
,
00000000
00000000
00000000
00000000
,
00000000
00000000
00000000
00000000
,
00000000
00000000
00000000
00000000
,
00011000
00000000
00000000
00000000
00110000
00000000
00000000
00000000
00011000
00000000
00000000
00000000
00001010
00000000
00000000
00000101
,
00000000
00001010
00001010
00000000
00011000
00000000
00101000
00100000
,
01100000
00000000
00000000
00000000
11000000
00000000
00000000
00000000
01010000
00000000
00000000
00000000
00011000
00000000
00000000
00001100
,
00000000
00011000
00011000
00000000
00101000
00000000
20000000
00000000
,
30010000
00000000
10000000
01000000
00000000
00100000
00001000
00000000
00010000
00000000
00001000
01000000
00000000
00010000
01000000
00100000
,
10000000
00000000
10000000
01000000
00000000
00100000
00001000
00000000
00010000
00001000
00000000
00001000
01000000
00010000
10000000
01000000
,
00100000
00000000
00001000
00010000
00000000
00010000
00000010
00000000
00001000
00000000
00000100
00010000
00000000
00000010
00010000
00001000
,
01000000
00000000
00010000
10000000
00000000
10000000
01000000
00000000
00100000
00010000
00000000
10000000
00100000
10000000
01000000
00010000
,
00001000
00000000
00100000
00010000
00000000
00100000
00001000
00000000
00010000
00000000
00001000
00100000
00000000
00010000
10000000
00010000
,
01000000
00000000
00001000
00010000
00000000
00001000
01000000
00000000
00001000
00010000
00000000
00001000
01000000
00100000
00010000
00001000
,
00000100
00000000
00000010
00001000
00000000
00000010
00010000
00000000
00001000
00000000
00100000
00010000
00000000
00100000
01000000
00100000
,
00010000
00000000
10000000
01000000
00000000
01000000
00010000
00000000
00001000
00010000
00000000
01000000
00010000
00001000
00000010
00000100
,
00001000
00000000
00000001
00000100
00000000
00000010
00010000
00000000
00001000
00000000
00010000
00000100
00000000
00001000
00000100
00000010
,
00000001
00000000
00000001
00000100
00000000
00000010
00010000
00000000
00001000
00010000
00000000
00010000
00000100
00001000
00000001
00000100
,
00000010
00000000
00010000
00001000
00000000
00001000
00100000
00000000
00010000
00000000
01000000
00001000
00000000
00100000
00001000
00010000
,
00000100
00000000
00001000
00000001
00000000
00000001
00000100
00000000
00000010
00001000
00000000
00000001
00000010
00000001
00000100
00001000
,
00010000
00000000
00000010
00001000
00000000
00000010
00010000
00000000
00001000
00000000
00010000
00000010
00000000
00001000
00000001
00001000
,
00000100
00000000
00010000
00001000
00000000
00010000
00000100
00000000
00010000
00001000
00000000
00010000
00000100
00000010
00001000
00010000
,
01000000
00000000
00100000
00010000
00000000
00100000
00001000
00000000
00010000
00000000
00000010
00001000
00000000
00000010
00000100
00000010
,
00001000
00000000
00000001
00000100
00000000
00000100
00001000
00000000
00001000
00010000
00000000
00010000
01000000
10000000
00010000
01000000
,
00100000
00000000
00000000
10000000
00000000
00100000
00000000
01000000
00000000
00000000
00010000
00000000
10000000
00000000
01000000
00000000
,
00100000
00001000
00100000
00010000
10000000
01000000
00010000
00001000
,
01000000
00000000
00000000
00010000
00000000
01000000
00000000
00001000
00000000
00000000
00000100
00000000
00001000
00000000
00010000
00000000
,
00000010
00000000
00000000
00001000
00000000
00000100
00000000
00010000
00000000
00000000
01000000
00000000
00010000
00000000
00001000
00000000
,
00000010
00000000
00000000
00000001
00000000
00001000
00000000
00000100
00000000
00000000
00000010
00000000
00000100
00000000
00001000
00000000
,
00000010
00010000
00000010
00001000
00000001
00000010
00001000
00010000
,
00100000
01000000
00100000
00010000
00000000
00000000
00001000
00000000
00100000
01000000
00000000
00010000
00000000
00001000
00100000
00001000
,
00010000
00000010
00001000
00000001
00000100
00001000
00010000
00000100
,
00001000
00000001
00001000
00000001
00001000
00000001
00001000
00000001
00000100
00000000
00000000
00000000
00000000
00000000
00000010
00000000
,
00001000
00001100
00000001
00000100
00000110
00000000
00000000
00000010
,
00010000
00000100
00010000
00000100
00010000
00000100
00010000
00000100
00001000
00000000
00000000
00000000
00000000
00000000
00000001
00000000
,
00001000
00001100
00000100
00010000
00011000
00000000
00001000
00100000
,
00010000
01000000
00010000
01000000
00010000
01000000
00010000
01000000
00001000
00000000
00000000
00000000
00000000
00000000
00100000
00000000
,
00001000
00011000
01000000
00010000
00110000
00000000
00000000
00100000
,
00010000
10000000
00010000
10000000
00010000
10000000
00010000
10000000
00100000
00000000
00000000
00000000
00000000
00000000
01000000
00000000
,
00010000
10000000
01000000
00010000
00001000
00000100
00000001
00000010
,
00000100
00000010
00000001
00001000
00000000
00000000
00000100
00010000
00001000
00010000
00000100
00001000
00000000
00000000
00000001
00000100
,
00000010
00001000
00000010
00010000
00000000
00000000
00001000
00010000
00000100
00001000
00000100
00000010
00000000
00000000
00000100
00001000
,
00000001
00001000
00000010
00000100
00000000
00000000
00000010
00001000
00000010
00010000
00001000
00100000
00000000
00000000
00010000
01000000
,
00001000
00010000
00000010
00001000
00000002
00000000
00001003
00000100
00010000
00001000
00100000
00010000
00100000
01000000
10000000
00010000
,
01000000
00100000
10000000
00010000
00000000
00000000
01000000
00001000
00010000
00001000
01000000
00010000
00000000
00000000
10000000
01000000
,
00100000
00010000
00100000
00001000
00000000
00000000
00010000
00001000
01000000
00010000
01000000
00100000
00000000
00000000
01000000
00010000
,
10000000
00010000
00100000
01000000
00000000
00000000
00100000
00010000
00100000
00001000
00010000
00000010
00000000
00000000
00001000
00000100
,
00010000
00001000
00100000
00010000
20000000
00000000
30100000
10000000
00010000
01000000
00001000
00010000
00100000
00010000
00001000
00000100
,
00000001
00000000
00000000
00000000
00000011
00000000
00001000
00000010
00000100
00000000
00000000
00000000
00001010
00000000
00000000
00011000
,
00000000
00000000
00010010
00000000
00011000
00000000
00000000
00000000
00001000
00100000
00010000
00001000
00000100
00010000
00000001
00001000
,
00000010
00000000
00000000
00000000
00001010
00000000
00010000
00001000
00100000
00000000
00000000
00000000
00011000
00000000
00000000
01010000
,
00000000
00000000
01100000
00000000
10010000
00000000
00000000
00000000
10000000
00001000
00100000
01000000
00010000
01000000
10000000
00010000
,
01000000
00000000
00100000
00000000
10100000
00000000
10000000
01000000
10000000
01000000
00100000
00000000
00110000
00000000
00001000
00010000
,
00000000
00000000
00101000
00000000
00011000
00000000
00100000
00001000
00010000
00000010
00001000
00010000
01000000
00001000
10000000
00010000
,
00100000
00000000
00010000
00000000
00110000
00000000
00001000
00010000
00001000
00010000
00000010
00000000
00001010
00000000
00010000
00001000
,
00000000
00000000
00010010
00000000
00011000
00000000
00000100
00001000
00000001
00010000
00000010
00000100
00001000
00000100
00000001
00001000
,
00000100
00000000
00010000
00000100
00000000
00001000
00000001
00000000
00000010
00000000
00000001
00000100
00000000
00000010
00010000
00001000
,
00100000
00000000
00001000
00010000
00000000
00001000
00000100
00000000
00000010
00001000
00000000
00001000
00000001
00000010
00000100
00010000
,
00000010
00000000
00001000
00000001
00000000
00001000
00000100
00000000
00010000
00000000
00001000
00100000
00000000
00010000
00100000
01000000
,
10000000
00000000
00100000
10000000
00000000
00010000
10000000
00000000
01000000
00010000
00000000
00001000
00100000
00001000
00010000
00000010
,
00001000
00000000
00000001
00000100
00000000
00001000
00010000
00000000
00000010
00000000
00010000
00000100
00000000
00001000
00000100
00000010
,
00000001
00000000
00000010
00001000
00000000
00010000
00001000
00000000
00000010
00000100
00000000
00000100
00010000
00001000
00100000
00010000
,
10000000
00000000
00100000
01000000
00000000
01000000
00010000
00000000
10000000
00000000
00100000
00010000
00000000
00001000
01000000
00001000
,
00010000
00000000
00000010
00001000
00000000
00000010
00010000
00000000
00001000
00100000
00000000
00010000
01000000
00100000
00010000
00001000
,
00100000
00000000
00001000
01000000
00000000
00010000
10000000
00000000
00100000
00000000
10000000
01000000
00000000
00100000
00001000
00010000
,
00000010
00000000
00010000
00001000
00000000
00010000
01000000
00000000
00100000
00010000
00000000
00010000
10000000
00100000
01000000
00001000
,
00100000
00000000
00010000
10000000
00000000
00010000
01000000
00000000
00001000
00000000
00010000
00000010
00000000
00001000
00000010
00000100
,
00000001
00000000
00000010
00000001
00000000
00001000
00000001
00000000
00000100
00001000
00000000
00010000
00000010
00010000
00001000
00100000
,
00010000
00000000
10000000
01000000
00000000
00010000
00001000
00000000
00100000
00000000
00001000
01000000
00000000
00010000
01000000
00100000
,
10000000
00000000
00100000
00010000
00000000
00001000
00000100
00000000
00000010
00001000
00000000
00001000
00000001
00000010
00000100
00010000
,
00001000
00000000
01000000
00010000
00000000
10000000
00010000
00000000
00001000
00000000
00000010
00001000
00000000
00000001
00000010
00000100
,
00001000
00000000
00000010
00001000
00000000
00000001
00001000
00000000
00010000
00100000
00000000
01000000
20000000
00000000
00000000
00000000
,
30100000
01000000
00010000
10000000
01000000
00010000
00001000
00100000
00000010
00000000
00001000
00000010
00000000
00000010
00000100
00000000
,
00000001
00000000
00001000
00000000
00000100
00010000
00000000
00001000
00000000
00000000
00010000
00000100
00000000
00001000
00000001
00000000
,
00000010
00000100
00001000
00000001
00000100
00001000
00010000
00000010
00100000
00000000
00010000
00100000
00000000
00100000
01000000
00000000
,
10000000
00000000
00010000
01000000
00000000
00100000
00000000
00010000
00000000
00000000
00001000
00010000
00001000
00100000
00010000
00100000
,
01000000
00100000
00010000
10000000
00100000
00010000
00001000
01000000
00000100
00000000
00001000
00000100
00000000
00000100
00000010
00000000
,
00000001
00000000
00001000
00000000
00000010
00010000
00000000
00001000
00000000
00000000
00010000
00000010
00000000
00001000
00000001
00000000
,
00000100
00000010
00001000
00000001
00000010
00001000
00010000
00000100
01000000
00000000
00010000
01000000
00000000
00100000
01000000
00000000
,
00010000
00000000
10000000
01000000
00000000
00010000
00000000
00001000
00000000
00000000
00100000
00000000
00100000
00001000
00010000
00000100
,
00000010
00000001
00000010
00001000
00010000
00000100
00010000
00001000
01000000
00000000
00010000
10000000
00000000
00010000
01000000
00000000
,
00100000
00000000
00100000
00000000
10000000
00010000
00000000
00100000
00000000
00000000
00001000
00010000
00000000
00001000
01000000
00000000
,
00100000
10000000
00100000
00010000
00001000
01000000
00001000
00010000
00000100
00000000
00001000
00000001
00000000
00001000
00000100
00000000
,
00000010
00000000
00000010
00000100
00000000
00010000
00000000
00000010
00000000
00000000
00001000
00000001
00000010
00000001
00001000
00000010
,
00000100
00000001
00000100
00001000
00010000
00000010
00010000
00001000
00100000
00000000
00010000
10000000
00000000
00010000
00100000
00000000
,
01000000
00000000
01000000
00000000
10000000
00010000
00000000
01000000
00000000
00000000
00001000
00010000
00000000
00001000
00100000
00000000
,
01000000
10000000
01000000
00010000
00001000
00100000
00001000
00010000
00000010
00000000
00001000
00000001
00000000
00001000
00000010
00000000
,
00000100
00000000
00000100
00000010
00000000
00010000
00000000
00000100
00000000
00000000
00000010
00000100
00001000
00000010
00010000
00001000
,
02000000
00000000
00000000
00000000
,
00000000
00000000
00000000
00000000
,
03000000
00000000
00000000
00000000
;
