#TITLE:Face My Fears (Japanese Version);
#SUBTITLE:;
#ARTIST:宇多田ヒカル & Skrillex;
#TITLETRANSLIT:;
#SUBTITLETRANSLIT:;
#ARTISTTRANSLIT:Hikaru Utada & Skrillex;
#GENRE:;
#CREDIT:;
#MENUCOLOR:;
#METERTYPE:DDR;
#BANNER:Face My Fears (Japanese Version).png;
#BACKGROUND:Face My Fears (Japanese Version)-bg.png;
#LYRICSPATH:;
#CDTITLE:./CDTITLES/NONE.PNG;
#MUSIC:Face My Fears (Japanese Version).ogg;
#OFFSET:0.000;
#SAMPLESTART:26.484;
#SAMPLELENGTH:15.000;
#SELECTABLE:YES;
#LISTSORT:;
#BPMS:0.000=80.000,52.000=160.000,148.000=80.000,164.000=160.000;
#STOPS:;
#BGCHANGES:0.000=Face My Fears (Japanese Version).avi=1.000=0=0=0,
99999=-nosongbg-=1.000=0=0=0 // don't automatically add -songbackground-
;
#ATTACKS:;

//---------------dance-single - ----------------
#NOTES:
     dance-single:
     :
     Beginner:
     1:
     0.089,0.153,0.008,0.000,0.000:
0000
0000
0000
0000
,
0000
0000
0000
0000
,
0000
0000
0000
0000
,
0000
0000
0000
0000
,
0000
0000
0000
0000
,
0010
0000
0000
0000
,
1000
0000
0000
0000
,
0001
0000
0000
0000
,
0100
0000
0000
0000
,
0010
0010
0010
0000
,
0100
0000
0100
0000
,
0001
0001
0001
0000
,
1000
0000
1000
0000
,
0001
0000
0000
0000
,
1000
0000
0000
0000
,
0100
0000
0100
0000
,
0100
0000
0000
0000
,
0010
0000
0000
0000
,
0000
0000
0000
0000
,
0001
0000
0000
0000
,
0000
0000
1000
0000
,
0010
0000
0000
0000
,
0010
0000
0000
0000
,
0100
0000
0100
0000
,
0100
0000
0000
0000
,
0001
0000
0000
0000
,
0001
0000
0000
0000
,
1000
0000
1000
0000
,
1000
0000
0000
0000
,
0100
0000
0000
0000
,
0100
0000
0000
0000
,
0010
0000
0010
0000
,
0010
0000
0000
0000
,
0001
0000
0000
0000
,
1000
0000
0000
0000
,
0010
0000
0100
0000
,
0010
0000
0000
0000
,
0100
0000
0000
0000
,
0001
0000
0000
0000
,
1000
0000
0000
0000
,
0001
0000
0001
0000
,
1000
0000
1000
0000
,
1000
0000
0000
0000
,
0001
0000
0001
0000
,
0001
0000
0000
0000
,
0100
0000
0000
0000
,
0010
0000
0000
0000
,
0100
0000
0100
0000
,
0100
0000
0000
0000
,
0001
0000
0000
0000
,
0000
0000
0000
0000
,
1000
0000
1000
0000
,
1000
0000
0000
0000
,
0010
0000
0000
0000
,
0010
0000
0000
0000
,
0100
0000
0100
0000
,
0100
0000
0000
0000
,
0001
0000
0000
0000
,
1000
0000
0000
0000
,
0001
0000
1000
0000
,
0001
0000
0000
0000
,
1000
0000
0000
0000
,
0100
0000
0010
0000
,
0001
0000
0000
0000
,
1000
0000
0000
0000
,
1001
0000
0000
0000
;

//---------------dance-single - ----------------
#NOTES:
     dance-single:
     :
     Easy:
     4:
     0.155,0.237,0.008,0.094,0.000:
0000
0000
0000
0000
,
0000
0000
0000
0000
,
0000
0000
0000
0000
,
0000
0000
0000
0000
,
0000
0000
0000
0000
,
0002
0000
0000
0003
,
2000
0000
0000
3000
,
0020
0000
0000
0030
,
0200
0000
0001
0300
,
0001
0001
0001
0000
,
1000
1000
1000
0000
,
0010
0010
0010
0000
,
0100
0100
0100
0000
,
0001
0000
0010
0000
,
0001
0000
0000
0000
,
1000
0000
0010
0000
,
1000
0000
0000
0000
,
0010
0000
0100
0000
,
0010
0000
1000
0000
,
0001
0001
1000
1000
,
0002
0000
0000
0003
,
1000
0000
0000
0000
,
1000
0000
0000
0000
,
0001
0000
0100
0000
,
0001
0000
0000
0000
,
0010
0000
0000
0000
,
0010
0000
0000
0000
,
0001
0000
1000
0000
,
0010
0000
0000
0000
,
0100
0000
0000
0000
,
0100
0000
0000
0000
,
0010
0000
1000
0000
,
0100
0000
0000
0000
,
0010
0000
0010
0000
,
0001
0000
1000
0000
,
0001
0001
0100
0100
,
0010
0000
1000
0000
,
0002
0000
0000
0003
,
2000
0000
0000
3000
,
0200
0000
0000
0300
,
0020
0000
0130
1000
,
0001
0000
0100
0000
,
0001
0000
0000
0000
,
1000
0000
0010
0000
,
1000
0000
0000
0000
,
0001
0001
0001
0001
,
1000
1000
0100
0100
,
0010
0001
1000
0010
,
0200
0000
0000
0300
,
0010
0000
0000
0000
,
0010
0000
0100
0000
,
0001
0000
1000
0000
,
0100
0010
0100
0000
,
1000
0000
0010
0000
,
1000
0000
0001
0000
,
0100
0000
0010
0000
,
0100
0001
1000
0000
,
0001
0000
0010
0000
,
0001
0000
1000
0000
,
0010
0000
0100
0000
,
0001
1000
0100
1000
,
0010
0010
0100
0100
,
0001
0001
1000
1000
,
0100
0010
0001
1000
,
0010
0100
0001
0000
,
2002
0000
0000
0000
,
0000
0000
0000
0000
,
3003
0000
0000
0000
;

//---------------dance-single - ----------------
#NOTES:
     dance-single:
     :
     Medium:
     7:
     0.304,0.342,0.024,0.173,0.000:
0000
0000
0000
0000
,
0000
0000
0000
0000
,
0000
0000
0000
0000
,
0000
0000
0000
0000
,
0000
0000
0000
0000
,
0020
0000
0000
0030
,
0200
0010
0000
1300
,
0002
0000
0000
0003
,
2000
0100
0000
3001
,
0100
0000
0100
0000
0100
0100
0200
0000
,
0310
0000
0010
0000
0010
0010
0020
0000
,
1030
0000
1000
0000
1000
1000
2000
0000
,
3001
0000
0001
0000
0001
0001
0002
0000
,
0013
0000
0010
0000
,
0001
1000
0002
0000
,
1003
0000
0001
0000
,
0100
0010
0200
0000
,
0310
0010
1000
1000
,
0001
0001
0100
0100
,
0001
0000
1000
0000
0100
0010
0100
0000
,
0220
0000
0000
0330
,
0001
0000
0000
1000
0000
0000
0001
0000
,
0000
0100
0000
0000
0010
0000
0010
0000
,
1000
0100
0010
0001
,
1000
0100
1000
0000
0001
0000
0100
0000
,
0010
0000
0000
0100
0000
0000
0010
0000
,
0000
1000
0000
0000
0001
0000
1000
0000
,
0001
0010
0100
1000
,
0001
0010
0001
0000
1000
0000
0010
0000
,
0100
0000
0000
0010
0000
0000
0100
0000
,
0000
0001
0000
0000
1000
0000
0010
0000
,
1000
0100
0010
0100
,
1000
0010
0100
0000
0001
0000
1000
0000
,
0001
0000
0000
0010
0000
0000
0001
0000
,
0000
1000
0000
0000
0010
0000
0100
0000
,
0001
1000
0100
0010
,
0100
1000
0001
0000
0100
0000
0010
0000
,
0200
0310
2000
3001
,
0020
0000
0130
0000
1000
0100
0010
0000
,
0002
0103
0020
1030
,
0002
0000
1003
0000
0100
0010
0001
1000
,
0010
0010
0100
0100
,
0001
0001
1000
1000
,
0001
0010
0100
1000
,
0010
0100
0001
0000
0100
0000
0010
0000
,
1000
0000
1000
0000
0010
0100
0001
0000
,
0010
0000
0010
0000
0100
0010
0001
0000
,
1000
0100
1000
0000
0001
0100
0001
0000
,
1000
0010
0100
0000
0220
0000
0330
0000
,
0001
0001
0000
1000
1000
0000
0100
0100
,
0000
0010
0010
0000
0100
0000
1000
0000
,
0010
0000
0100
0001
0100
0000
0001
0000
,
1000
0010
0100
0000
0010
0000
1000
0000
,
0001
0001
0000
0010
0010
0000
0100
0100
,
0000
0010
0010
0000
0001
0000
1000
0000
,
0100
0010
0100
1000
,
0010
1000
0001
0000
1000
0000
0100
0000
,
1000
1000
0000
0010
0010
0000
1000
1000
,
0000
0001
0001
0000
0100
0000
0010
0000
,
1000
0100
1000
0001
,
0100
0010
1000
0000
0010
0000
0100
0000
,
0001
0010
0000
0001
1000
0000
1000
0010
,
0000
1000
0001
0000
1000
0000
0100
0000
,
1000
0010
0100
0001
,
1000
0001
0100
0000
0010
0000
1000
0000
,
0220
0000
0000
0000
,
0000
0000
0000
0000
,
0330
0000
0000
0000
;

//---------------dance-single - ----------------
#NOTES:
     dance-single:
     :
     Hard:
     9:
     0.471,0.447,0.173,0.110,0.027: // measure 1
0000
0000
0000
0000
,  // measure 2
0000
0000
0000
0000
,  // measure 3
0000
0000
0000
0000
,  // measure 4
0000
0000
0000
0000
,  // measure 5
0000
0000
0000
0000
,  // measure 6
0200
0000
0000
0300
,  // measure 7
0002
1000
0100
1003
,  // measure 8
0020
0000
0000
0030
,  // measure 9
2000
0000
0000
0000
0001
0000
0000
0000
0100
0000
0000
0000
3001
0000
0100
0010
,  // measure 10
1000
0100
1100
0000
0010
0001
0011
0000
,  // measure 11
0001
0000
0001
0100
0010
0000
0000
0000
1000
0000
0001
0000
0101
0000
0000
0000
,  // measure 12
0001
0010
0110
0000
0010
0001
1001
0000
,  // measure 13
1000
0000
1000
0010
0100
0000
0000
0000
0010
1000
0010
0000
0100
0001
0100
0000
,  // measure 14
0001
0000
0010
0100
1000
0000
1100
0000
,  // measure 15
1000
0000
0010
0100
0002
0000
0013
0000
,  // measure 16
0001
0000
1000
0001
0100
0000
0110
0000
,  // measure 17
1000
0000
0001
1000
0010
0000
0110
0000
,  // measure 18
0101
0011
0101
0011
,  // measure 19
1100
1010
1100
1010
,  // measure 20
0010
0100
0001
1000
0010
0100
0001
0010
,  // measure 21
0100
1000
0010
0100
0020
0000
1030
0000
,  // measure 22
0001
0001
0000
1000
1000
0000
0001
0001
,  // measure 23
0000
1000
1000
0000
0100
0010
0001
0000
,  // measure 24
1000
0100
0010
0100
1000
0000
0001
0100
,  // measure 25
0010
0100
0001
0000
0010
0001
0100
0001
,  // measure 26
0010
0100
0010
0001
0100
0000
0010
0100
,  // measure 27
0010
1000
0100
0000
1000
0010
0100
0001
,  // measure 28
1000
0100
0010
0100
0010
0001
0100
0010
,  // measure 29
1000
0010
0100
0001
1000
0000
0110
0000
,  // measure 30
1000
1000
0010
1000
1000
0000
0001
0001
,  // measure 31
0010
0001
0001
0000
1000
1000
0100
0100
,  // measure 32
1000
0010
0100
0010
0100
0001
0010
0100
,  // measure 33
1000
0100
0010
0001
0100
0010
1000
0001
,  // measure 34
0010
0001
0100
0001
0010
0000
0100
1000
,  // measure 35
0010
1000
0100
0000
1000
0010
0100
0001
,  // measure 36
0010
0100
1000
0010
0100
0001
0100
0010
,  // measure 37
1000
0100
0010
0001
1000
0000
1001
0000
,  // measure 38
0020
0130
0002
1003
,  // measure 39
0200
0000
0310
0000
0001
0010
0100
0000
,  // measure 40
2000
3010
0002
0103
,  // measure 41
2000
0000
0000
0000
3100
0000
0000
0000
0010
0001
0010
0000
0100
1000
0100
0000
,  // measure 42
0010
0001
0100
0001
1000
0000
1001
0000
,  // measure 43
0010
1000
0100
1000
0001
0000
1001
0000
,  // measure 44
0100
0001
0010
0100
0010
0000
0110
0000
,  // measure 45
0010
0001
0100
0010
1000
0100
0010
0100
,  // measure 46
1000
1000
0010
0010
0100
0001
1000
0000
,  // measure 47
0001
0001
0010
0010
0100
1000
0001
0000
,  // measure 48
1000
0010
0100
0001
1000
0010
0100
0001
,  // measure 49
1000
0100
0010
0001
1000
0001
0001
0001
,  // measure 50
1000
1000
0000
0010
0010
0000
0100
0100
,  // measure 51
0000
0010
0010
0000
1000
0100
0010
0000
,  // measure 52
0001
0100
0010
0100
0001
0000
0010
0100
,  // measure 53
1000
0100
0010
0000
0001
1000
0100
1000
,  // measure 54
0010
0100
0001
0100
0010
0000
1000
0010
,  // measure 55
0100
0010
1000
0000
0100
0010
0001
0010
,  // measure 56
0100
1000
0010
0100
0010
1000
0001
0100
,  // measure 57
0001
0010
0001
0000
1000
0100
0010
0100
,  // measure 58
1000
1000
0010
1000
1000
0000
0001
0001
,  // measure 59
0010
0001
0001
0000
1000
0100
0010
0100
,  // measure 60
1000
0010
0100
0010
0100
0001
0010
1000
,  // measure 61
0010
0001
0100
0000
0010
1000
0100
1000
,  // measure 62
0001
0001
0010
0001
0001
0000
1000
1000
,  // measure 63
0100
1000
1000
0000
0010
0100
0001
1000
,  // measure 64
0001
0010
0100
1000
0001
0100
1000
0100
,  // measure 65
0001
0100
0010
1000
0100
0001
0100
0000
,  // measure 66
0220
0000
0000
0000
,  // measure 67
0000
0000
0000
0000
,  // measure 68
0330
0000
0000
0000
;

//---------------dance-single - ----------------
#NOTES:
     dance-single:
     :
     Challenge:
     15:
     0.753,0.868,0.557,0.259,0.447: // measure 1
0000
0000
0000
0000
,  // measure 2
0000
0000
0000
0000
,  // measure 3
0000
0000
0000
0000
,  // measure 4
0000
0000
0000
0000
,  // measure 5
0000
0000
0000
0000
,  // measure 6
0010
1000
0002
0000
0000
0000
2003
0000
0000
3200
0000
0000
,  // measure 7
0310
0100
1000
0100
0010
0001
0100
0001
1000
0010
0100
0010
,  // measure 8
2000
0010
0100
0001
0010
0001
0100
0001
3010
0200
0010
1300
,  // measure 9
0002
0000
0000
0000
0010
0000
0000
0000
0100
0000
0000
0000
1000
0000
0000
0000
0100
0000
0000
0000
0010
0000
0000
0000
1000
0000
0000
0000
0010
0000
0000
0000
0100
0000
0000
0000
0013
0000
0000
0000
0000
0000
1000
0000
0000
0001
0000
0000
,  // measure 10
0200
0000
0310
1000
0200
0000
0310
0001
0100
0000
0010
0000
0210
0000
0301
0000
,  // measure 11
2000
0000
3100
0010
0002
0000
0103
0010
2000
0000
3010
0000
0102
0000
0013
0000
,  // measure 12
2100
0000
3010
1000
0002
0000
0103
0001
2000
0000
3010
1000
0002
0000
1003
0000
,  // measure 13
0012
0000
0000
0000
0103
0000
0010
0000
2000
0000
0000
0000
3010
0000
0100
0000
0001
0100
0001
0000
1000
0100
1000
0000
0001
0000
0010
0100
1000
0000
0001
0000
,  // measure 14
2001
0000
3010
0110
0001
0100
0010
0000
,  // measure 15
1002
0000
0000
0000
0013
0000
0110
0000
1000
0000
0100
0000
0010
0000
0001
0100
,  // measure 16
0020
0000
0130
0101
0010
1000
0001
1000
,  // measure 17
0200
0000
0000
0000
1300
0000
1100
0000
0010
0000
0001
0000
0100
0000
0010
1000
,  // measure 18
0001
0100
0101
0001
1000
0001
1001
1000
,  // measure 19
0100
1000
1010
0010
0100
0001
0101
0100
,  // measure 20
0001
0010
0001
0010
0100
0010
0100
0010
0001
1000
0001
1000
0010
0100
0010
0100
,  // measure 21
0001
0010
0100
1000
0001
0010
0100
1000
0002
0000
1000
0000
1000
0000
1003
0000
,  // measure 22
0010
1010
1000
0001
0011
0001
1000
1100
,  // measure 23
1000
0000
0010
0000
0110
0000
0100
0001
1000
0000
0001
0000
1000
0000
0001
0000
,  // measure 24
1000
0010
1000
0100
1100
0100
1000
0010
,  // measure 25
0110
0000
0100
0000
0001
0000
0010
0000
0001
0000
1000
0000
0001
0100
0001
0100
,  // measure 26
0010
0110
0100
0001
1001
1000
0100
1100
,  // measure 27
0010
0100
0101
0001
1000
0001
1000
0001
,  // measure 28
1000
0100
0010
0100
1100
0100
0010
0001
,  // measure 29
0100
0010
1000
0001
1001
0000
0110
0000
,  // measure 30
1010
0010
1000
0010
1010
1000
0001
0010
,  // measure 31
0011
0001
0010
0001
1000
0001
1001
0001
,  // measure 32
1000
0100
0010
0100
0110
0010
0001
0100
,  // measure 33
0010
1000
0100
0001
0100
1000
0110
0000
,  // measure 34
0011
0010
0001
0010
0011
0000
1001
1000
,  // measure 35
0001
1000
1001
0001
0100
0010
0100
0010
,  // measure 36
1000
0010
0100
0001
1000
0100
0010
0001
,  // measure 37
1000
0100
1000
0100
0010
0001
0010
0001
2000
0000
0000
0000
3002
0000
0000
0000
,  // measure 38
0103
0010
0010
0100
0001
0001
1000
0001
1000
0100
0100
0010
0001
0001
1000
0010
,  // measure 39
0100
0001
2000
0000
0001
0000
0100
0000
0001
0000
0010
0000
3001
0000
1000
0000
,  // measure 40
0001
0100
0100
0001
1000
1000
0001
0010
0001
1000
0010
1000
0001
0001
1000
0100
,  // measure 41
0010
0000
0100
0000
0020
0000
0000
0000
0001
0000
0000
0000
0130
0000
0000
0000
1000
0100
1000
0000
0001
0100
0001
0000
1000
0010
1000
0001
1000
0000
0001
0000
,  // measure 42
1001
0010
1100
0010
1010
0010
0100
0001
,  // measure 43
0101
0000
0001
0000
1001
0000
1000
0000
1100
0000
0100
0000
1000
0000
0010
0100
,  // measure 44
0001
0010
0100
1000
0100
0001
0100
1000
,  // measure 45
0010
0000
0100
0000
0001
0000
0010
0000
0001
0000
1000
0000
0001
0000
0100
0010
,  // measure 46
1000
0100
1100
0100
0010
0001
0011
0001
,  // measure 47
0100
0001
0101
0001
0100
0010
0110
0010
,  // measure 48
1000
0100
1000
0100
0010
0100
0010
0100
1000
0001
1000
0001
0100
0010
0100
0010
,  // measure 49
1000
0100
0010
0001
1000
0100
0010
0001
2000
0000
0001
0000
0001
0000
3001
0000
,  // measure 50
0010
0110
0001
0100
0101
0001
1000
1001
,  // measure 51
0001
0000
1000
0000
1010
0000
1000
0100
0010
0000
0100
0000
1100
0000
0100
0000
,  // measure 52
0110
0000
0010
0000
0001
0000
0100
0000
0101
0000
0001
0000
1000
0000
0001
1000
,  // measure 53
0010
0000
1000
0000
0100
0000
0010
0000
0110
0000
0100
0000
1000
0010
0100
0010
,  // measure 54
1000
1100
0001
0100
0101
1000
0010
1010
,  // measure 55
0001
0100
0101
0001
1000
0001
0010
0100
,  // measure 56
1000
0100
0010
0001
0110
0001
1000
0001
,  // measure 57
0010
1000
0010
0001
0100
0010
0110
0010
,  // measure 58
1000
0010
1010
0001
0011
1000
0100
1000
,  // measure 59
1100
0001
0011
1000
0001
0100
0101
0010
,  // measure 60
0100
0001
1000
0001
1001
0001
0010
0001
,  // measure 61
1000
0100
0001
0100
1000
0010
0110
0010
,  // measure 62
2010
0010
0001
0001
3100
0001
0010
0001
,  // measure 63
0012
0010
1000
0103
2010
0100
3001
1000
,  // measure 64
0001
0001
0010
0010
0100
0100
1000
1000
,  // measure 65
0001
0100
0001
0100
0010
1000
0010
1000
0001
0010
0100
1000
0001
0010
0100
1000
,  // measure 66
0020
0000
0000
0000
,  // measure 67
0000
0000
0000
0000
,  // measure 68
0030
0000
0000
0000
;
