#TITLE:Do What You Want;
#SUBTITLE:;
#ARTIST:BEMANI Sound Team "SYUNN";
#TITLETRANSLIT:;
#SUBTITLETRANSLIT:;
#ARTISTTRANSLIT:SYUNN;
#GENRE:;
#CREDIT:;
#MENUCOLOR:;
#METERTYPE:DDR;
#BANNER:Do What You Want.png;
#BACKGROUND:Do What You Want-bg.png;
#LYRICSPATH:;
#CDTITLE:./CDTITLES/BEATMANIA IIDX.PNG;
#MUSIC:Do What You Want.ogg;
#OFFSET:0.000;
#SAMPLESTART:25.500;
#SAMPLELENGTH:15.000;
#SELECTABLE:YES;
#LISTSORT:;
#BPMS:0.000=160.000;
#STOPS:;
#BGCHANGES:;
#ATTACKS:;

//---------------dance-single - ----------------
#NOTES:
     dance-single:
     :
     Beginner:
     2:
     0.108,0.157,0.000,0.000,0.000:
0000
0000
0000
0000
,
0000
0000
0000
0000
,
0000
0000
0000
0000
,
0000
0000
0000
0000
,
0000
0000
0000
0000
,
0000
0000
0000
0000
,
0000
0000
0000
0000
,
0000
0000
0000
0000
,
0000
0000
0000
0000
,
0010
0000
0000
0000
,
0010
0000
0000
0000
,
0100
0000
0000
0000
,
0100
0000
0000
0000
,
0001
0000
0001
0000
,
0001
0000
0000
0000
,
1000
0000
1000
0000
,
1000
0000
0000
0000
,
0010
0000
0000
0010
,
0010
0000
0000
0000
,
0100
0000
0000
0100
,
0100
0000
0000
0000
,
0001
0000
0000
0001
,
0001
0000
0000
0000
,
1000
0000
0000
1000
,
1000
0000
0000
0000
,
0100
0000
0000
0100
,
0100
0000
0000
0000
,
0010
0000
0000
0010
,
0010
0000
0000
0000
,
0100
0000
0000
0100
,
0100
0000
0000
0000
,
1000
0000
0000
0001
,
0001
0000
0000
0000
,
1000
0000
0000
0000
,
0000
0000
0000
0000
,
0001
0000
0000
0000
,
0000
0000
0000
0000
,
0100
0000
0000
0000
,
0010
0000
0000
0000
,
0100
0000
0000
0000
,
0001
0000
0000
0000
,
1000
0000
0000
1000
,
1000
0000
0000
0000
,
0001
0000
0000
0001
,
0001
0000
0000
0000
,
0010
0000
0000
0010
,
0010
0000
0000
0000
,
0100
0000
0000
0100
,
0100
0000
0000
0000
,
0010
0000
0010
0010
,
0000
0000
0000
0000
,
0001
0001
0001
0001
,
0000
0000
0000
0000
,
1000
0000
1000
1000
,
0000
0000
0000
0000
,
0100
0000
0100
0100
,
0000
0000
0000
0000
,
0010
0000
0010
0000
,
0100
0000
0100
0000
,
1000
0000
1000
0000
,
0001
0000
0001
0000
,
1000
0000
0000
0000
,
0000
0000
0000
0000
,
0010
0000
0000
0000
,
0100
0000
0001
0000
,
1000
0000
0000
0000
;

//---------------dance-single - ----------------
#NOTES:
     dance-single:
     :
     Easy:
     6:
     0.277,0.345,0.068,0.261,0.000:
0000
0000
0000
0000
,
0000
0000
0000
0000
,
0000
0000
0000
0000
,
0000
0000
0000
0000
,
0000
0000
0000
0000
,
0000
0000
0000
0000
,
0000
0000
0000
0000
,
0000
0000
0000
0000
,
0000
0000
0000
0000
,
0001
0001
0001
0001
,
0100
0100
0100
0100
,
0010
0010
0010
0010
,
1000
1000
1000
1000
,
0001
0001
0010
0010
,
0100
0100
1000
1000
,
0001
0001
0100
0010
,
2000
0000
0002
3003
,
1001
0000
0100
0200
,
0000
0000
0310
1000
,
0001
0010
0100
2000
,
0000
0000
3002
0000
,
1003
0000
0100
0100
,
0000
1000
0010
0100
,
0001
0000
0010
0001
,
2000
0010
0100
3001
,
0000
0000
0010
0020
,
0000
0000
0030
1000
,
0010
0100
0001
0020
,
0000
0000
0230
0000
,
0310
0000
0001
0001
,
0000
1000
0001
0100
,
0010
0000
1000
0100
,
0020
0000
0200
0330
,
0010
0000
0000
0000
,
0000
0000
0000
0000
,
0001
0000
0000
0000
,
0000
1000
1000
0000
,
0001
0020
0030
0000
,
1000
0200
0300
0000
,
0001
0200
0300
0000
,
1000
0002
0003
0000
,
1000
0001
1000
1000
,
0001
1000
0001
0001
,
0100
0010
0100
0100
,
0010
1000
0001
0001
,
1000
0100
0010
0010
,
0001
0010
0100
0100
,
1000
0001
0100
0100
,
0010
1000
0002
0003
,
2002
3003
0100
0200
,
0000
0000
0300
0010
,
1000
0010
0100
0002
,
0010
0000
2003
0000
,
3002
0000
0103
0200
,
0000
0320
0000
1030
,
0002
0000
1003
2000
,
0000
0000
0002
3003
,
1000
1100
1000
0001
,
0100
0101
0001
1000
,
0001
0011
0100
1000
,
0100
1100
0010
0001
,
1000
1000
0001
0001
,
0100
0100
0010
0010
,
1000
0100
0001
0010
,
1000
0001
0100
0010
,
0110
0000
0000
0000
;

//---------------dance-single - ----------------
#NOTES:
     dance-single:
     :
     Medium:
     9:
     0.459,0.502,0.039,0.434,0.039:
0000
0000
0000
0000
,
0000
0000
0000
0000
,
0000
0000
0000
0000
,
0000
0000
0000
0000
,
0000
0000
0000
0000
,
0000
0000
0000
0000
,
0000
0000
0000
0000
,
0000
0000
0000
0000
,
0000
0000
0000
0000
,
1000
0000
0000
0000
0001
0000
0000
0000
1000
0000
0000
0001
0000
0000
1000
0000
,
0100
0010
0100
0010
,
0001
0000
0000
0000
1000
0000
0000
0000
0001
0000
0000
1000
0000
0000
0001
0000
,
0100
0000
0010
0000
1000
0001
0100
0000
,
0001
0000
0010
0000
0001
0000
0000
0000
1000
0000
0000
0001
0000
0000
1000
0000
,
0100
0000
1000
0000
0100
0000
0000
0000
0010
0000
0000
0100
0000
0000
0010
0000
,
0100
1000
0001
0000
0100
0001
1000
0000
,
0010
0100
0001
0010
0100
0000
0010
0000
,
0200
0000
0310
0000
0001
1000
0001
1000
,
0001
0001
0200
0000
0310
1000
0010
1000
,
0100
0010
0100
2000
,
3001
0100
0001
0100
0002
0000
0013
0001
,
2000
0000
3200
0000
0310
0100
2000
0000
,
0000
3020
0000
0000
0130
0002
0000
1003
,
0001
0000
0010
0001
0100
0000
0001
0000
,
2000
3020
0032
0023
,
1030
0000
0200
0000
1300
0000
0001
0010
,
0001
0010
0001
0000
1000
0010
1000
0001
,
1000
0000
0001
0000
0100
0000
0010
1000
,
0001
1000
0001
0000
1000
0100
0010
0100
,
2000
0000
3020
0000
0130
0001
2000
0000
,
0000
3002
0000
0013
0001
0200
0000
0310
,
1000
0000
0100
0010
0001
0000
0010
0000
,
0002
0203
2300
3100
,
0002
0000
0000
0000
,
0000
0000
0000
0003
,
2000
0000
0000
3000
,
0010
0200
0002
0303
,
1000
0100
0020
0000
0030
0000
0000
0000
,
0001
0100
0020
0000
0030
0000
0000
0000
,
0100
0001
2000
0000
3000
0000
0000
0000
,
0100
1000
0002
0000
0003
0000
0000
0000
,
1000
0000
0000
0010
0000
0000
1000
0000
0100
0000
0000
0000
1000
0000
0000
0000
,
0001
0000
0000
0010
0000
0000
0001
0000
0100
0000
0000
0000
0001
0000
0000
0000
,
1000
0000
0000
0100
0000
0000
0001
0000
0100
0000
0000
0000
1000
0000
0000
0000
,
0001
0000
0000
0100
0000
0000
1000
0000
0100
0000
0000
0000
0001
0000
0000
0000
,
1000
0010
1000
0001
1000
0000
0001
0000
,
0010
0001
0010
0100
0010
0000
0001
0000
,
0100
0001
0100
0010
0100
0000
0010
0000
,
2000
0000
0002
3003
,
1100
0000
0010
0100
1000
0000
2100
0000
,
0001
0000
3010
0000
0001
0100
0001
0000
,
0102
0023
2030
3020
,
0031
0100
0001
0000
2001
0000
3100
0010
,
0002
0000
0103
0010
0200
0000
0302
0000
,
0000
2003
0000
3100
0010
0200
0000
1300
,
0001
0000
0100
0010
1000
0000
0010
0000
,
1000
0200
0000
0310
0001
2000
0000
3001
,
0100
0001
0100
0001
0000
0010
0001
0010
,
0000
0001
0100
1000
0100
0010
1000
0001
,
0000
1000
0100
1000
0000
0010
1000
0010
,
0000
1000
0100
0001
0100
0010
0001
1000
,
0001
1000
0001
1000
0001
0001
0001
0001
,
0100
0010
0100
0010
0100
0100
0100
0100
,
0010
1000
0100
1000
0000
0001
0010
0001
,
0000
1000
0100
0001
0100
1000
0001
0100
,
0010
0000
0000
0000
;

//---------------dance-single - ----------------
#NOTES:
     dance-single:
     :
     Hard:
     14:
     0.626,0.721,0.251,0.434,0.304:
0000
0000
0000
0000
,
0000
0000
0000
0000
,
0000
0000
0000
0000
,
0000
0000
0000
0000
,
0000
0000
0000
0000
,
0000
0000
0000
0000
,
0000
0000
0000
0000
,
0000
0000
0000
0000
,
0000
0000
0000
0000
,
0010
0000
0000
0000
1100
0000
0000
0000
0101
0000
0000
1001
0000
0000
0001
0000
,
1000
1010
0011
1001
,
0110
0000
0000
0000
1100
0000
0000
0000
0101
0000
0000
0110
0000
0000
1000
0000
,
0001
0010
0100
0000
1000
0010
0100
0000
,
0010
0000
0010
0000
1000
0000
1000
0000
0001
0000
0000
0101
0000
0000
0001
0000
,
0010
0000
0010
0000
0001
0000
0001
0000
1000
0000
0000
1001
0000
0000
1000
0000
,
0010
0100
0010
0100
0010
0100
0010
0000
1000
0001
1000
0001
1000
0001
1000
0000
,
0001
0010
0100
1000
0001
0100
0010
1000
,
0002
0000
0013
0001
1000
0001
1000
1000
,
0010
0010
0002
0000
0013
0010
1000
1000
,
0001
0000
0000
0000
0011
0000
0000
0000
1001
0000
0000
0000
1000
0100
1000
0001
,
1000
0001
1000
0001
1000
0000
0010
0100
0002
0000
0000
0000
0103
0000
0100
0000
,
0020
0000
0000
0000
2030
0000
0000
0000
3001
0010
0001
0010
0002
0000
0000
0000
,
0000
2003
0000
3010
0100
0002
0000
1003
,
0001
0000
1000
0100
0010
0000
0001
0000
,
1020
0000
1030
0010
0100
0001
0010
0001
,
1000
0000
0011
0000
1001
0000
0001
0001
,
0100
0100
2000
0000
3100
0100
0001
0001
,
2000
0000
0000
0000
3200
0000
0000
0000
0320
0000
0000
0000
0031
0010
0001
1000
,
0001
1000
0001
1000
0001
0000
0100
0010
2000
0000
0000
0000
3010
0000
0010
0000
,
0200
0000
0000
0000
0302
0000
0000
0000
1003
0100
1000
0100
2000
0000
0000
0000
,
0000
3002
0000
0013
0001
0200
0000
0301
,
1000
0000
0010
1000
0100
0000
0101
0000
,
1020
0000
1030
0010
0001
0010
0100
0001
,
2000
0000
0000
0000
,
0000
0000
0000
3000
,
0002
0000
0000
0003
,
0020
0001
0200
0330
,
0010
0001
2000
0000
3010
0000
0000
0000
,
1000
0010
0200
0000
0301
0000
0000
0000
,
1000
0100
0020
0000
0130
0000
0000
0000
,
1000
0001
0200
0000
0301
0000
0000
0000
,
1000
0000
0000
0001
0100
0000
0001
0000
1000
0010
0000
0010
1000
0000
0001
0000
,
0100
0000
0000
0001
0100
0000
0010
0000
1000
0100
0000
0100
0010
0000
0100
0000
,
1000
0000
0000
0010
0100
0000
0010
0000
1000
0010
0000
0010
0100
0000
0001
0000
,
0010
0000
0000
0001
1000
0000
0001
0000
0100
0001
0000
0001
1000
0000
0001
0000
,
1000
0000
0010
1000
0010
0000
1000
0000
0001
0000
0001
0000
1000
0000
1000
0000
,
0100
0000
0010
0001
0010
0000
0001
0000
1000
0000
1000
0000
0001
0000
0001
0000
,
1000
0000
1000
0000
0010
0000
0010
0000
0100
0000
0100
0000
0001
1000
0001
1000
,
0200
0000
0020
0330
,
2010
0000
3001
0100
1000
0100
0020
0000
,
1030
0000
0000
0000
2001
0000
0000
0000
3001
0000
0010
0001
0010
0001
0010
0000
,
0002
0203
2300
3020
,
0130
2000
0001
0000
3200
0000
0310
0001
,
1002
0013
1100
0102
,
1003
0020
0000
0130
0001
2000
0000
3001
,
0010
0000
0001
0100
0001
0000
1000
0000
0010
0000
0000
0000
0110
0000
0000
0000
,
1000
0200
0000
0301
0100
2000
0000
3010
,
0100
0000
0001
0010
0001
0000
1000
0000
0001
0000
0100
0001
0100
0001
0100
0000
,
0001
0000
1000
0010
1000
0000
0001
0000
1000
0100
1000
0000
0001
0000
1000
0000
,
0001
0000
0100
0010
0100
0000
0010
0000
1000
0000
0100
1000
0100
1000
0100
0000
,
0010
0000
0001
1000
0001
1000
0001
0000
0100
0010
0100
0000
0001
0000
1000
0000
,
0001
0001
0010
0010
1000
1000
0100
0100
,
0001
0000
0001
0000
0100
0000
0100
0000
1000
0010
1000
0001
1000
0000
0001
0000
,
1000
0100
1000
0100
1000
0000
0010
0000
1000
0000
0001
1000
0001
0100
0001
0000
,
0010
0000
0100
0010
0100
0010
0100
0000
1000
0100
0010
0000
0001
0000
1000
0000
,
0110
0000
0000
0000
;

//---------------dance-single - ----------------
#NOTES:
     dance-single:
     :
     Challenge:
     16:
     0.794,0.972,0.183,0.386,0.584: // measure 1
0000
0000
0000
0000
,  // measure 2
0000
0000
0000
0000
,  // measure 3
0000
0000
0000
0000
,  // measure 4
0000
0000
0000
0000
,  // measure 5
0000
0000
0000
0000
,  // measure 6
0000
0000
0000
0000
,  // measure 7
0000
0000
0000
0000
,  // measure 8
0000
0000
0000
0000
,  // measure 9
0000
0000
0000
0000
,  // measure 10
0010
0000
1000
0000
0100
0000
1000
0000
0010
0000
1000
0100
0000
1000
0010
0000
,  // measure 11
1000
0100
0010
0001
0100
0000
0010
0000
,  // measure 12
0100
0000
0001
0000
0010
0000
0001
0000
0100
0000
0001
0010
0000
0001
0100
0000
,  // measure 13
0001
0000
0010
0000
0100
0000
1000
0000
0010
0000
0100
0000
0001
0000
1000
0001
,  // measure 14
1000
0000
0010
0000
0001
0000
0010
0000
0100
0000
0001
0010
0000
0001
0100
0000
,  // measure 15
0001
0000
0010
0000
1000
0000
0010
0000
0100
0000
1000
0000
0001
0000
1000
0001
,  // measure 16
1000
0100
1000
0100
1000
0100
1000
0100
0010
0001
0010
0001
0010
0001
0010
0001
,  // measure 17
1000
0010
0100
0001
1000
0001
0100
0010
,  // measure 18
2001
0000
0000
0000
3010
1000
0001
1000
0010
0000
1000
0000
0100
0000
0100
0000
,  // measure 19
0001
0000
0001
0000
0020
0000
0000
0000
1030
0000
1000
0000
0010
0100
0010
0000
,  // measure 20
2000
0000
0000
0000
3020
0000
0000
0000
0032
0000
0000
0000
0103
1000
0100
0001
,  // measure 21
0100
1000
0100
0010
0001
1000
0001
1000
0002
0000
0000
0000
1003
0000
0010
0100
,  // measure 22
0002
0000
0000
0000
0013
0000
0000
0000
0001
1000
0001
0100
0002
0000
0000
0000
,  // measure 23
0013
0002
0000
1003
0100
0002
0000
0103
,  // measure 24
1000
0000
0010
0100
0001
0000
0100
0010
1000
0000
0001
0000
0020
0000
0000
0000
,  // measure 25
0032
0000
0013
1000
0010
0001
0100
1000
,  // measure 26
0120
0000
0000
0000
0130
0001
1000
0001
0100
0000
0001
0000
0010
0000
0010
0000
,  // measure 27
1000
0000
1000
0000
0200
0000
0000
0000
0301
0000
0001
0000
0100
0010
0100
0000
,  // measure 28
0002
0000
0000
0000
0203
0000
0000
0000
2300
0000
0000
0000
3010
0001
0010
1000
,  // measure 29
0010
0001
0010
0100
1000
0001
1000
0001
2000
0000
0000
0000
3001
0000
0100
0010
,  // measure 30
2000
0000
0000
0000
3100
0000
0000
0000
1000
0001
1000
0010
2000
0000
0000
0000
,  // measure 31
3100
2000
0000
3001
0010
2000
0000
3010
,  // measure 32
0001
0000
0100
0010
1000
0000
0010
0100
0001
0000
1000
0000
0200
0000
0000
0000
,  // measure 33
2300
0000
3100
0001
0100
1000
0010
0001
,  // measure 34
0110
0000
0010
0000
1000
0000
0010
0100
0010
0000
1000
0000
0010
0000
0100
0000
,  // measure 35
0001
0000
0010
0000
0100
0000
0010
0001
0010
0000
0100
0000
0010
0000
0001
0000
,  // measure 36
1000
0000
0010
0000
0100
0000
0010
1000
0010
0000
0100
0000
0010
0000
1000
0000
,  // measure 37
0100
0000
0010
0000
0001
0000
1000
0001
1000
0000
0001
0000
0100
0000
0010
0000
,  // measure 38
1000
0000
0100
0000
0002
0000
0103
1000
0100
0000
1000
0000
0001
0000
0100
0000
,  // measure 39
0001
0000
0010
0000
2000
0000
3010
0001
0010
0000
0001
0000
0100
0000
0010
0000
,  // measure 40
1000
0000
0010
0000
0002
0000
0013
1000
0010
0000
1000
0000
0100
0000
1000
0000
,  // measure 41
0001
0000
0100
0000
2000
0000
3100
0001
0100
0000
0001
0000
0010
0000
0000
0000
,  // measure 42
1001
0000
0001
0100
0010
0000
0100
0001
1000
0001
0000
0001
0010
0000
0001
0000
,  // measure 43
1000
0000
0010
1000
0001
0000
1000
0100
0010
0100
0000
0100
1000
0000
0010
0000
,  // measure 44
0100
0000
0010
1000
0001
0000
0100
0001
0010
0001
0000
0001
1000
0000
0001
0000
,  // measure 45
1000
0000
0100
0010
0001
0000
0100
0010
1000
0010
0000
0010
1000
0000
0001
0000
,  // measure 46
1000
0000
0100
0000
0001
0000
0100
0010
0001
1000
0000
1000
0001
0000
0100
0000
,  // measure 47
0001
0000
0010
0000
1000
0000
0010
0001
1000
0001
0000
0001
0100
0000
0001
0000
,  // measure 48
1000
0000
1100
0000
1010
0000
1001
0000
0101
0000
0011
0000
0001
1000
0001
1000
,  // measure 49
0010
0000
0100
0000
0001
1000
0000
0000
0001
0000
0000
0000
1001
0000
0000
0000
,  // measure 50
2100
0000
0000
0000
3001
0000
0010
0001
0010
0000
0001
0000
0200
0000
0000
0000
,  // measure 51
0310
0000
1000
0000
0002
0000
0000
0000
1003
0000
0001
0010
1000
0010
0001
0000
,  // measure 52
0101
1100
0011
2010
,  // measure 53
3001
0000
1000
0100
0001
0100
1000
0000
0001
0000
0010
0000
0100
0000
1000
0001
,  // measure 54
0100
0101
1010
2001
,  // measure 55
3001
0020
0000
0031
0100
0001
1000
0100
,  // measure 56
0100
0000
1000
0010
0100
0000
0001
0000
1000
0000
0010
0000
0001
0000
0010
0000
,  // measure 57
0100
0000
0001
0000
0010
0000
1000
0000
0010
0000
0100
0000
1000
0001
0100
0001
,  // measure 58
1000
0000
0001
0010
1000
0010
0001
0000
1000
0000
0001
0100
1000
0100
0001
0000
,  // measure 59
1000
0000
0001
0010
0100
1000
0001
0000
1000
0010
1000
0010
0200
0000
0302
0000
,  // measure 60
1003
0000
0001
0100
1000
0100
0010
0000
1000
0000
0001
0010
1000
0010
0100
0000
,  // measure 61
0010
0000
0001
0100
0010
1000
0001
0000
1000
0100
0001
0100
0020
0000
0032
0000
,  // measure 62
1003
0000
0010
1000
0100
0001
0100
0000
1000
0000
0100
1000
0100
0001
0010
0000
,  // measure 63
0100
0000
0001
0010
0100
1000
0001
0000
1000
0010
0001
0010
2000
0000
3002
0000
,  // measure 64
1003
0100
1000
0100
0001
0100
0001
0100
1000
0010
1000
0010
0001
0010
0001
0010
,  // measure 65
1000
0000
0001
0010
0100
1000
0001
0000
1000
0010
0001
0000
0100
0000
1000
0000
,  // measure 66
0110
0000
0000
0000
;
