#TITLE:DEADLOCK -Out Of Reach-;
#SUBTITLE:;
#ARTIST:U1 undefined behavior;
#TITLETRANSLIT:;
#SUBTITLETRANSLIT:;
#ARTISTTRANSLIT:;
#GENRE:;
#CREDIT:;
#MENUCOLOR:;
#METERTYPE:DDR;
#BANNER:DEADLOCK -Out Of Reach-.png;
#BACKGROUND:DEADLOCK -Out Of Reach--bg.png;
#LYRICSPATH:;
#CDTITLE:./CDTITLES/REFLEC BEAT.PNG;
#MUSIC:DEADLOCK -Out Of Reach-.ogg;
#OFFSET:0.000;
#SAMPLESTART:87.805;
#SAMPLELENGTH:15.000;
#SELECTABLE:YES;
#LISTSORT:;
#BPMS:0.000=410.000,72.000=205.000,104.000=410.000,152.000=205.000,204.000=102.500,206.000=205.000,210.000=410.000,214.000=205.000,224.000=410.000,352.000=205.000,376.000=102.500,380.000=820.000,412.000=205.000,428.000=410.000,600.000=102.500,601.000=410.000,613.000=102.500,614.000=410.000,646.000=51.250;
#STOPS:;
#BGCHANGES:;
#ATTACKS:;

//---------------dance-single - ----------------
#NOTES:
     dance-single:
     :
     Beginner:
     10:
     0.311,0.530,0.033,0.000,0.000:
0000
0000
0000
0000
,
0000
0000
0000
0000
,
0000
0000
0000
0000
,
0000
0000
0000
0000
,
0000
0000
0000
0000
,
0000
0000
0000
0000
,
0000
0000
0000
0000
,
0000
0000
0000
0000
,
0000
0000
0000
0000
,
0000
0000
0000
0000
,
0001
0000
0000
0000
,
1000
0000
0000
0000
,
0010
0000
0000
0000
,
0100
0000
0000
0000
,
0010
0000
0010
0000
,
0010
0000
0000
0000
,
0100
0000
0100
0000
,
0100
0000
0000
0000
,
1001
0000
0000
0000
,
1000
0000
0000
0000
,
0001
0001
0001
0001
,
0001
0000
0000
0000
,
1000
0000
0100
0000
,
1000
0000
0000
0000
,
0001
0000
0100
0000
,
0001
0000
0000
0000
,
0010
0000
0000
0000
,
0010
0000
0000
0000
,
0010
0000
0010
0000
,
0010
0000
0000
0000
,
0100
0000
0000
0000
,
0100
0000
0000
0000
,
0100
0000
0100
0000
,
0100
0000
0000
0000
,
1000
0000
0000
0000
,
1000
0000
0000
0000
,
1000
0000
1000
0000
,
1000
0000
0000
0000
,
0001
0000
0000
0000
,
0100
0100
0100
0000
,
0010
0000
1000
0000
,
0001
0000
0100
0100
,
0100
0000
0010
0000
,
1000
1000
1000
1000
,
0001
0000
0010
0000
,
0100
0000
0010
0010
,
0010
0010
0000
0001
,
0001
0000
1000
0000
,
0001
0001
0001
0001
,
0100
0000
0100
0000
,
0010
0010
0010
0010
,
1000
0000
0100
0100
,
0100
0100
0010
0000
,
0000
0000
0001
0000
,
1000
0000
0001
0000
,
0100
0100
0010
0010
,
0100
0000
0000
0000
,
0100
0000
0000
0000
,
0010
0000
0010
0000
,
1000
0000
0000
0000
,
0001
0000
0000
0000
,
0010
0000
0000
0000
,
0100
0000
0100
0000
,
0010
0000
0000
0000
,
0001
0000
0000
0000
,
1000
0000
0000
0000
,
0010
0000
0010
0000
,
0100
0000
0000
0000
,
0010
0000
0000
0000
,
1000
0000
0000
0000
,
0100
0000
0100
0000
,
0010
0000
0000
0000
,
0100
0000
1000
0000
,
0100
0000
1000
0000
,
0010
0000
0100
0000
,
0010
0000
0100
0000
,
0001
0000
0100
0000
,
0001
0000
0100
0000
,
0001
0000
0010
0000
,
0001
0000
0010
0000
,
0001
0000
1000
0000
,
0001
0000
1000
0000
,
0010
0000
0100
0000
,
0010
0000
0100
0000
,
0001
0000
0010
0000
,
0100
0000
1000
0000
,
0001
0000
0000
0000
,
0000
0000
0000
0000
,
1000
0000
0100
0000
,
0010
0000
0001
0000
,
1000
0000
0010
0000
,
0100
0000
0001
0000
,
1000
1000
1000
0000
,
0001
0001
0001
0000
,
0100
0000
0000
0010
,
1001
0000
0000
0000
,
0000
0000
0000
0000
,
0000
0000
0000
0000
,
0000
0000
0000
0000
,
0000
0000
0000
0000
,
0000
0000
0000
0000
,
0000
0000
0000
0000
,
0000
0000
0000
0000
,
1000
0000
0000
0000
,
0001
0000
0000
0000
,
0010
0000
0000
0000
,
0100
0000
0000
0000
,
1000
0000
1000
0000
,
1000
0000
1000
0000
,
0001
0000
0001
0000
,
0001
0000
0001
0000
,
0100
0000
0100
0000
,
0100
0000
0100
0000
,
0010
0000
0010
0000
,
0010
0000
0010
0000
,
1000
0000
0100
0000
,
0010
0000
0001
0000
,
1000
0000
0100
0000
,
0010
0000
0001
0000
,
1000
0000
1000
0000
,
0010
0000
0010
0000
,
0100
0000
0100
0000
,
0001
0000
0001
0000
,
0010
0000
0100
0000
,
1000
0000
0100
0000
,
0010
0000
0001
0000
,
0100
0000
0001
0000
,
1000
0000
0001
0000
,
0100
0000
0010
0000
,
1000
0000
0001
0000
,
0100
0000
0010
0000
,
1000
0000
1000
0000
,
0100
0000
0100
0000
,
0010
0000
0010
0000
,
0001
0000
0001
0000
,
0100
0000
0100
0000
,
0010
0000
0010
0000
,
1000
0000
0001
0000
,
1000
0000
0001
0000
,
1000
0000
1000
0000
,
0010
0000
0010
0000
,
0100
0000
0100
0000
,
0001
0000
0001
0000
,
0010
0000
0010
0000
,
0100
0000
0100
0000
,
1000
0000
0001
0000
,
1000
0000
0001
0000
,
0100
0000
0000
0000
,
0010
0000
0000
0000
,
0100
0000
0000
0000
,
1001
1000
0000
0000
,
0000
0001
0000
0000
,
0000
0010
0000
0000
,
0000
0100
0010
0000
,
0010
0000
0001
0000
,
0001
0000
0100
0000
,
0100
0000
0010
0000
,
0010
0000
1000
0000
,
1000
0000
0100
0000
,
0100
0000
0010
0000
,
0001
0000
1000
0000
,
0001
0000
1001
0000
;

//---------------dance-single - ----------------
#NOTES:
     dance-single:
     :
     Easy:
     13:
     0.669,1.000,0.197,0.197,0.004:
0000
0000
0000
0000
,
0000
0000
0000
0000
,
0000
0000
0000
0000
,
0000
0000
0000
0000
,
0000
0000
0000
0000
,
0000
0000
0000
0000
,
0000
0000
0000
0000
,
0000
0000
0000
0000
,
0000
0000
0000
0000
,
0000
0000
0000
0000
,
0001
0100
0001
0100
,
0010
1000
0010
1000
,
0001
0010
0001
0010
,
0100
1000
0100
1000
,
0001
1000
0001
1000
,
0010
0100
0010
0100
,
0001
0010
0100
1000
,
0001
0010
0100
1000
,
0002
0023
0230
2300
,
3001
0001
0100
0000
0010
0000
1000
0000
,
0020
2030
3002
0203
,
0301
0000
1000
0001
0100
0000
0001
1000
,
0010
0100
0120
1030
,
0010
0000
0100
0001
1000
0000
0001
0000
,
0010
0000
0100
0000
0120
0000
0031
0010
,
0100
0000
0010
0001
0100
0000
0001
0000
,
1000
0100
1000
0100
,
0010
0001
0010
0001
,
1000
0100
0010
0100
,
2000
0000
3010
0100
,
0001
0010
0001
0010
,
0100
1000
0010
0010
,
0100
0001
1000
0010
,
0100
0001
1000
0001
,
1000
0100
0010
0100
,
1000
0010
0100
0010
,
1000
0010
0100
0100
,
0002
0000
1003
0001
,
0200
0000
0000
0000
0000
0000
0310
0010
,
1000
0000
0001
0000
0100
0001
1000
0001
,
0100
0000
0110
0000
0100
0010
1000
0000
,
0100
0000
0010
0000
0001
0010
0100
0000
,
0010
0000
0110
0000
0010
0001
0100
0000
,
0001
0000
1000
0000
0001
1000
0010
0000
,
0100
0000
0110
0000
0010
1000
0100
0000
,
0010
0000
0001
0000
1000
0001
0020
0000
,
0032
0000
2003
0000
3010
1000
0100
0000
,
1000
0000
1001
0000
0010
0100
0001
0100
,
0010
1010
0010
1010
,
1000
1000
0001
0001
0100
0100
0010
0000
,
0100
0101
0100
0101
,
2001
0010
0100
3001
1000
0000
1100
0000
,
1000
1100
0010
0010
,
0001
0001
1000
0001
,
0100
0110
0100
0110
,
0001
0001
1000
1000
0010
0010
0100
0100
,
0001
0000
0010
0100
,
1000
0000
0100
0010
,
0000
0010
0100
0000
,
1000
0010
0100
0001
,
1000
0000
0010
1000
,
0001
0000
0010
0001
,
0000
0001
1000
0000
,
0001
0100
0010
1000
,
0100
0010
0100
0010
,
0100
1000
0010
0100
,
0000
0010
1000
0001
,
0100
0001
0010
0000
,
0001
0010
0001
0010
,
0100
1000
0010
0100
,
0000
0010
1000
0100
,
0010
0001
1000
0000
,
0001
0001
0010
0010
,
0100
0100
1000
1000
,
0001
0000
0100
0000
,
0010
0000
1000
0000
,
0010
0010
1000
1000
,
0001
0001
0010
0010
,
0100
0000
0010
0000
,
0001
0000
1000
0000
,
0100
0100
1000
1000
,
0010
0010
0100
0100
,
0001
0000
1000
0000
,
0010
0000
0100
0000
,
0010
0010
1000
1000
,
0001
0001
0100
0100
,
0020
0000
0000
0000
,
0000
0000
0000
0030
,
0100
0001
0010
0001
,
1000
0100
1100
0000
,
1000
0010
0100
0001
,
1000
0001
0011
0000
,
0001
1000
0010
0100
,
0010
1000
0110
0000
,
0020
0000
0000
1030
,
1001
0000
0000
0000
,
0000
0000
0000
0000
,
0000
0000
0000
0000
,
0000
0000
0000
0000
,
0000
0000
0000
0000
,
0000
0000
0000
0000
,
0000
0000
0000
0000
,
0000
0000
0000
0000
,
0100
0010
1010
1000
,
0200
1000
0010
0301
,
0100
0001
0010
0011
,
0002
1000
0010
0103
,
0001
0100
0001
0100
,
0010
1000
0010
1000
,
0001
0010
0100
1000
,
0002
0000
1003
1000
,
0010
0100
0010
0100
,
0010
1000
0100
0010
,
0100
0000
1000
0000
,
0001
0000
0100
0000
,
0010
0000
1000
0000
,
0010
1000
0100
0010
,
0001
0000
0100
0000
,
0001
1000
0010
0100
,
0010
0010
0010
0000
,
1000
1000
1000
0000
,
0001
0001
0001
0000
,
0100
0100
0100
0100
,
0001
0000
0010
0000
,
0100
0010
0001
1000
,
0100
0000
1000
0000
,
0010
0100
0010
1000
,
0010
0010
0010
0000
,
1000
1000
1000
0000
,
0001
0001
0001
0001
,
0100
0100
0100
0000
,
0001
0000
0010
0000
,
0001
1000
0010
0100
,
0010
0000
1000
0000
,
0100
0010
0100
1000
,
0001
0001
0001
0000
,
1000
1000
1000
0000
,
0010
0000
0100
0000
,
0001
0000
1000
0000
,
0100
1000
0100
1000
,
0010
0100
0001
0000
,
0100
0001
0100
0001
,
0010
0100
1000
0000
,
0001
0010
0001
0010
,
1000
0010
1000
0010
,
0001
0100
0001
0100
,
1000
0100
1000
0100
,
1000
0000
0010
0000
,
0100
0000
0001
0000
,
1000
0000
0001
0000
,
1001
0110
0000
0010
,
0000
1000
0000
0001
,
0000
0100
0000
0001
,
0000
0000
0000
0000
0010
0000
0100
0100
0010
0000
0000
0000
0001
0000
0000
0000
,
0100
0001
0100
0001
,
1000
0010
1000
0100
,
0010
0100
1000
0010
,
0100
0001
1000
0010
,
1000
0010
1000
0001
,
0010
0001
1000
0010
,
0100
0001
1000
0100
,
0010
0001
2002
0000
,
0000
3003
0000
0000
;

//---------------dance-single - ----------------
#NOTES:
     dance-single:
     :
     Medium:
     15:
     0.791,1.000,0.181,0.320,0.086:
0000
0000
0000
0000
,
0000
0000
0000
0000
,
0000
0000
0000
0000
,
0000
0000
0000
0000
,
0000
0000
0000
0000
,
0000
0000
0000
0000
,
0000
0000
0000
0000
,
0000
0000
0000
0000
,
0000
0000
0000
0000
,
0000
0000
0010
0010
,
1000
0100
0010
0001
,
1000
0100
1000
0001
,
0100
0010
1000
0001
,
0010
0001
1000
0010
,
0100
0100
0010
1000
,
0100
0010
0001
0001
,
0010
0100
1000
0010
,
0100
0001
1000
0001
,
1002
0023
0230
2300
,
3010
0020
0000
0130
0001
1000
0001
0100
,
0001
0011
1100
0101
,
1020
0000
0000
1030
0000
0010
0200
0000
0000
0310
0000
1000
,
0100
0000
0010
0001
0100
0001
1000
0010
,
0100
0000
0000
0000
0000
0000
0010
0000
0000
0000
0010
0000
2000
0000
0000
0000
0000
0000
3001
0000
0000
0010
0000
0000
,
0100
0000
0010
0001
1000
0010
0100
0100
,
0010
0000
1000
0010
0100
0001
1000
0100
,
1000
0100
0010
0001
,
1000
0100
0010
0001
,
1000
0000
0000
0010
0000
0000
0100
0000
0000
0000
0100
0000
,
0001
0000
0000
0000
0000
0000
0010
0000
0000
0000
0010
0000
,
0100
1000
0010
0100
,
0010
1000
0001
0001
,
0010
0001
1000
0010
,
0100
0100
0010
0100
,
0001
1000
0100
1000
,
0010
0100
0001
1000
,
0100
0000
0000
0010
0000
0000
0001
0000
0000
0000
0001
0000
,
1000
0010
0100
0001
,
2000
0000
0000
0000
0000
0000
3001
0001
,
0010
0001
0010
0001
0100
0000
0010
0000
,
1000
0000
0000
0000
0010
0000
0000
0010
1000
0000
0100
0000
0010
0000
0000
0000
,
0100
1000
0010
0100
0010
0000
1010
0000
,
0001
0000
0000
0000
0010
0000
0000
0010
0001
0000
0100
0000
0010
0000
0000
0000
,
0100
0001
1000
0100
0010
0000
1100
0000
,
1001
0000
0000
0000
0010
0000
0000
0010
0100
0000
0001
0000
1000
0000
0000
0000
,
0010
1000
0100
1000
0010
0100
0001
0000
,
0012
2003
0010
3001
,
0110
0000
1001
0000
0001
0001
1000
1000
,
0100
0000
0000
0000
1100
0000
0000
0100
0010
0000
0001
0000
0100
0000
0000
0000
,
0010
0010
1000
1000
0001
0100
0010
0000
,
0100
0000
0000
0000
0101
0000
0000
0001
0010
0000
0001
0000
1000
0000
0000
0000
,
0100
1000
0010
0000
0210
0000
0301
0000
1000
0000
0000
0000
1100
0000
0000
0100
,
1000
0010
0100
0000
0010
0000
0010
0000
,
1000
1000
0001
0010
,
0001
0000
0000
0000
0101
0000
0000
0001
1000
0000
0001
0000
0010
0000
0000
0000
,
0001
0001
1000
1000
0010
0010
0100
0100
,
0010
0000
1000
0000
0100
0000
0000
0010
,
0100
1000
0010
0000
,
0100
0001
1000
0010
,
0100
0010
1000
0000
,
0001
0000
0010
0000
0100
0000
0000
0010
,
0001
1000
0010
0000
,
1000
0100
0010
0100
,
1000
0001
0100
0000
,
0010
0000
1000
0000
0100
0000
0000
1000
,
0010
0100
0010
0000
,
1000
0001
0100
0001
,
0010
0100
0010
0000
,
0001
0000
0100
0000
0001
0000
0000
1000
,
0001
0100
0010
0000
,
0100
0100
0010
0010
,
1000
1000
0001
0001
,
1000
0100
0010
0001
,
1000
0100
0010
0100
,
1000
0010
0100
0001
,
1000
0100
0010
0100
,
1000
0001
0100
0010
,
1000
0010
0100
0001
,
0010
0100
1000
0100
,
0010
0001
1000
0001
,
1000
0100
1000
0100
,
1000
0001
1000
0001
,
0100
0010
0100
0010
,
1000
0010
0100
0001
,
0010
0100
1000
0001
,
0100
0010
1000
0001
,
2002
0000
0000
0000
,
0000
0000
0000
3003
,
0110
0000
0001
0100
0001
0000
1000
0100
,
0010
0100
1000
0010
0200
0000
0300
0000
,
1010
0000
1000
0001
0100
0000
0001
0010
,
0100
1000
0001
0010
0002
0000
0003
0000
,
1001
0000
0100
0010
1000
0000
0010
0100
,
0001
0010
0001
1000
0200
0000
0300
0000
,
2000
0000
0000
0000
0000
0000
0000
0000
0000
0000
0000
0010
3010
0000
0000
0000
,
0220
0000
0000
0000
,
0000
0000
0000
0000
,
0000
0000
0000
0000
,
0000
0000
0000
0000
,
0000
0000
0000
0000
,
0000
0000
0000
0000
,
0000
0000
0000
0000
,
0000
0000
0000
0330
,
0002
0023
0230
2300
,
3001
0000
0000
0001
0000
0000
1000
0000
0000
0000
1000
0000
0020
0000
0000
0000
0000
0000
1030
0000
0000
0001
0000
0000
,
0200
0000
0320
0000
2030
0000
3001
0001
,
0010
0010
0002
0000
1003
1000
0100
0100
,
1000
0100
0010
0100
,
1000
0010
0100
0010
,
1000
0010
0100
0100
,
0001
0010
0001
1000
,
0001
0010
0100
1000
,
0001
0001
0010
0010
,
0001
0100
0010
0100
,
0001
1000
0100
1000
,
0010
0000
0000
0100
0000
0000
0010
0000
,
1000
0001
0010
0001
,
1000
0000
0000
0100
0000
0000
1000
0000
,
0010
0100
0010
1000
,
0001
0001
0010
0010
,
0100
0100
1000
1000
,
0001
0001
0100
0100
,
1000
1000
0100
0100
,
0001
0000
0000
0010
0000
0000
0001
0000
,
0100
0010
1000
0001
,
1000
0000
0000
0100
0000
0000
1000
0000
,
0010
0100
0010
1000
,
0010
0010
1000
1000
,
0001
0001
0100
0100
,
0001
0100
0010
1000
,
0001
0100
0010
1000
,
0100
0000
0000
1000
0000
0000
0010
0000
,
0100
0100
0010
0010
,
1000
0000
0000
0100
0000
0000
0010
0000
,
0001
0001
1000
1000
,
0001
0010
0100
1000
,
0001
0100
1000
0100
,
0002
0000
0000
0000
0023
0000
0000
0000
0032
0000
0000
0000
,
2003
0000
0000
0000
3020
0000
0000
0000
2030
0000
0000
0000
,
3010
0000
0000
0100
0000
0000
0010
0000
,
1000
0001
0100
0001
,
1000
0000
0000
0100
0000
0000
0010
0000
,
0001
0100
0010
1000
,
0001
0100
1000
0100
,
0001
0010
1000
0010
,
0001
0100
0010
1000
,
0001
0100
0010
1000
,
0100
0000
1000
0100
,
0010
0000
0001
0100
,
0010
0000
1000
0001
,
0200
0310
0000
1000
,
0001
0010
0000
0001
,
1000
0100
0000
1000
,
0010
0000
0000
0000
2000
0000
0000
3001
1000
0000
0000
0000
0100
0000
0000
0000
,
1000
0100
0001
0100
,
0001
0100
1000
0010
,
0100
0001
1000
0010
,
0100
0001
1000
0010
,
1000
0010
0001
0010
,
0001
0010
1000
0100
,
0010
0001
1000
0010
,
0100
0001
2002
0000
,
0000
3003
0000
0000
;

//---------------dance-single - ----------------
#NOTES:
     dance-single:
     :
     Hard:
     17:
     0.992,1.000,0.197,0.353,0.267: // measure 1
0000
0000
0000
0000
,  // measure 2
0000
0000
0000
0000
,  // measure 3
0000
0000
0000
0000
,  // measure 4
0000
0000
0000
0000
,  // measure 5
0000
0000
0000
0000
,  // measure 6
0000
0000
0000
0000
,  // measure 7
0000
0000
0000
0000
,  // measure 8
0000
0000
0000
0000
,  // measure 9
0000
0000
0000
0000
,  // measure 10
0000
0000
0010
0010
,  // measure 11
1000
0100
1000
0010
,  // measure 12
0100
0001
0010
0001
,  // measure 13
1000
0100
0010
0100
,  // measure 14
1000
0010
0100
0001
,  // measure 15
1000
1000
0001
0001
,  // measure 16
0100
0010
0100
0001
,  // measure 17
0010
0100
1000
0100
,  // measure 18
0010
0001
1000
0001
,  // measure 19
2001
3020
0230
0302
,  // measure 20
0013
0000
0012
0000
0000
0000
1003
0100
0010
0000
0100
0000
1000
0000
0010
0000
,  // measure 21
0110
1001
0110
1010
,  // measure 22
0102
0000
0000
1003
0100
0010
0200
0000
0000
1300
0001
0100
,  // measure 23
0002
0000
0000
0000
0103
0000
0001
0100
0020
0000
0000
0000
1030
0000
0001
1000
,  // measure 24
0200
0000
0000
1300
0001
0010
0002
0000
0000
1003
0100
0010
,  // measure 25
0200
0000
0000
0000
1300
0010
0100
0000
0002
0000
0000
0000
1003
0000
1100
0000
,  // measure 26
0002
0000
0000
0000
0103
0010
0100
0000
0001
0000
0010
0000
0100
1000
0100
0000
,  // measure 27
1000
0010
0100
0001
,  // measure 28
1000
0100
0010
0100
,  // measure 29
1000
0000
0000
0001
0000
0000
0100
0000
0001
0000
0010
0000
,  // measure 30
0002
0000
0000
1003
0000
0000
0100
0000
0010
0000
0100
0000
,  // measure 31
1000
0010
0100
0001
,  // measure 32
1000
0000
0100
0000
0010
0100
1000
0100
,  // measure 33
0010
0000
0001
0000
0100
0001
0100
0000
,  // measure 34
0001
1000
0100
1000
,  // measure 35
0001
0010
0100
1000
,  // measure 36
0001
0100
0010
0100
,  // measure 37
0001
0000
0000
0010
0000
0000
0100
0000
1000
0000
0001
0000
,  // measure 38
2000
0000
0000
3010
0000
0000
0100
0000
0010
0000
1000
0000
,  // measure 39
0002
0000
0000
0000
0000
0000
1003
0100
,  // measure 40
1100
0000
0010
0000
0100
1000
0001
1000
0001
0000
0100
0000
0010
0000
1000
0000
,  // measure 41
0010
0000
0100
0001
0100
0000
0001
0000
0010
0000
0100
0000
0010
0000
0001
0000
,  // measure 42
1000
0000
0100
0010
0001
0000
0100
0000
0010
0000
0100
0000
1010
0000
0000
0000
,  // measure 43
0001
0000
0100
0001
0100
0000
0001
0000
1000
0000
0100
0000
0010
0000
0100
0000
,  // measure 44
1000
0000
0010
0100
0010
0000
1000
0000
0001
0000
0100
0000
0011
0000
0000
0000
,  // measure 45
1000
0000
0010
1000
0010
0000
0100
0000
0001
0000
0010
0001
0010
0000
0001
0000
,  // measure 46
0100
0010
1000
0001
1000
0100
0210
0000
,  // measure 47
2300
3002
0010
0103
,  // measure 48
0001
0000
0000
0000
1001
0000
0000
0000
0010
0100
0010
0000
0100
0010
0100
0000
,  // measure 49
0010
0000
1000
0000
0001
0000
0100
0001
0100
0000
0001
0000
0010
0000
0100
0000
,  // measure 50
1000
0100
1000
0100
1000
0000
0001
0000
0100
0001
0100
0001
0100
0000
0001
0000
,  // measure 51
1000
0000
0010
0000
0100
0000
0010
1000
0010
0000
1000
0000
0100
0000
0010
0000
,  // measure 52
0001
0100
2010
0000
3001
0000
0101
0000
1000
0000
0100
0000
0010
0000
0100
1000
,  // measure 53
0001
0100
0010
0100
0001
0000
0010
0000
,  // measure 54
0100
0110
2001
3010
,  // measure 55
0100
0000
0001
0000
1000
0000
0001
0010
0001
0000
1000
0100
1000
0000
0001
0000
,  // measure 56
1000
1000
1000
1000
0001
0001
0001
0001
,  // measure 57
0100
0000
0010
0000
1000
0000
0001
0100
,  // measure 58
0001
1000
0100
0000
,  // measure 59
0010
0100
1000
0100
,  // measure 60
0010
0001
0100
0001
,  // measure 61
1000
0000
0010
0000
0100
0000
0010
1000
,  // measure 62
0010
1000
0001
0000
,  // measure 63
0100
0001
0010
0100
,  // measure 64
0010
0001
0100
0010
,  // measure 65
1000
0000
0010
0000
1000
0000
0001
0100
,  // measure 66
0001
1000
0100
0000
,  // measure 67
0010
0001
1000
0100
,  // measure 68
0010
0100
1000
0010
,  // measure 69
0100
0000
0001
0000
0010
0000
0001
1000
,  // measure 70
0001
0100
0010
0000
,  // measure 71
1000
1000
0010
0010
,  // measure 72
0100
0100
0001
0001
,  // measure 73
1000
0100
1000
0000
0100
0000
0010
0000
,  // measure 74
0100
1000
0010
0100
,  // measure 75
0001
0001
0010
0010
,  // measure 76
0100
0100
1000
1000
,  // measure 77
0001
0010
0001
0000
0100
0000
0010
0000
,  // measure 78
0100
0001
1000
0001
,  // measure 79
1000
1000
0100
0100
,  // measure 80
0010
0010
0001
0001
,  // measure 81
1000
0001
0100
0000
0001
0000
1000
0000
,  // measure 82
0001
1000
0010
0000
1000
0000
0001
0000
,  // measure 83
0100
0100
0010
0010
,  // measure 84
1000
1000
0001
0001
,  // measure 85
1000
0100
0010
0000
0001
0000
1000
0000
,  // measure 86
0001
0010
0100
0000
1000
0000
0001
0000
,  // measure 87
0220
0000
0000
0000
,  // measure 88
0000
0000
0000
0330
,  // measure 89
1010
0000
1000
0100
1000
0000
0001
0000
0010
0000
0100
0000
0010
0000
0001
0000
,  // measure 90
0100
0000
0001
0100
0001
0000
1000
0000
0002
0000
0000
0000
0003
0000
0000
0000
,  // measure 91
1001
0000
0001
0010
0001
0000
1000
0000
0100
0000
0010
0000
0100
0000
1000
0000
,  // measure 92
0010
0000
0100
0010
0100
0000
0010
0000
2000
0000
0000
0000
3000
0000
0000
0000
,  // measure 93
0110
0000
0100
0001
1000
0000
0001
0000
0010
0000
0100
0000
1000
0000
0001
0000
,  // measure 94
1000
0000
0010
0100
0001
0000
1000
0000
0020
0000
0000
0000
0030
0000
0000
0000
,  // measure 95
0200
0000
0000
0000
0000
0000
0000
0000
0000
0000
0000
0010
0310
0000
0100
0000
,  // measure 96
2002
0000
0000
0000
,  // measure 97
0000
0000
0000
0000
,  // measure 98
0000
0000
0000
0000
,  // measure 99
0000
0000
0000
0000
,  // measure 100
0000
0000
0000
0000
,  // measure 101
0000
0000
0000
0000
,  // measure 102
0000
0000
0000
0000
,  // measure 103
0000
0000
0000
3003
,  // measure 104
2000
3010
0002
0103
,  // measure 105
1000
0000
0000
0000
0000
0000
1000
0000
0000
0000
0000
0000
0001
0000
0000
0000
0100
0000
0000
0000
0010
0000
0000
0000
0100
0000
0000
0000
0000
0000
0001
0000
0000
0000
0000
0000
1000
0000
0000
0001
0000
0000
1000
0000
0000
0001
0000
0000
,  // measure 106
0010
0000
0001
0010
0001
0000
1000
0000
0200
0000
1000
0000
0310
0000
0110
0000
,  // measure 107
0001
0000
1000
0000
0001
1000
0100
1000
0001
0000
1000
0000
0010
0100
0010
0100
,  // measure 108
0001
0010
0100
1000
,  // measure 109
0001
0000
0100
0000
0010
1000
0010
1000
,  // measure 110
0001
0000
0000
1000
0000
0000
0100
0000
0010
0000
0001
0000
,  // measure 111
0010
0000
0001
0000
1000
0001
0100
0001
,  // measure 112
1000
0000
0100
0000
0010
0100
1000
0100
,  // measure 113
0010
0000
0100
0000
1000
0010
0100
0010
,  // measure 114
1000
0000
0010
0000
0100
0010
0100
0000
,  // measure 115
0001
0100
0001
0000
1000
0100
1000
0000
,  // measure 116
0001
0001
0010
0010
,  // measure 117
0100
1000
0100
0000
1000
0001
1000
0000
,  // measure 118
1000
1000
0010
0010
,  // measure 119
0100
0001
0100
0000
0001
1000
0001
0000
,  // measure 120
0010
0001
0010
0000
0100
0000
0100
0000
,  // measure 121
1000
0010
1000
0000
0010
0000
0010
0000
,  // measure 122
0100
0001
1000
0000
0001
0000
0001
0000
,  // measure 123
1000
0001
0100
0000
0001
0000
0001
0000
,  // measure 124
1000
1000
0100
0100
,  // measure 125
0010
0100
1000
0000
0010
0100
0001
0000
,  // measure 126
0010
0010
0001
0001
,  // measure 127
0100
0001
1000
0000
0001
1000
0010
0000
,  // measure 128
1000
0010
1000
0000
0010
0000
0010
0000
,  // measure 129
0100
0001
0100
0000
0001
0000
0001
0000
,  // measure 130
0010
0100
1000
0000
0010
0000
0010
0000
,  // measure 131
0100
0001
0100
0000
0010
0000
0010
0000
,  // measure 132
0100
0001
0100
0000
0010
0000
0010
0000
,  // measure 133
1000
0100
0000
0100
1000
0000
0001
0000
,  // measure 134
1000
0100
1000
0000
0010
0000
0010
0000
,  // measure 135
0100
0001
0000
0001
1000
0000
0001
0000
,  // measure 136
0010
0001
0010
0000
0100
0000
0100
0000
,  // measure 137
0010
0001
1000
0000
0010
0000
0010
0000
,  // measure 138
0200
0000
0000
0000
0320
0000
0000
0000
0230
0000
0000
0000
,  // measure 139
0302
0000
0000
0000
2003
0000
0000
0000
3002
0000
0000
0000
,  // measure 140
0013
0000
0001
0000
1000
0100
0010
0100
,  // measure 141
1000
0010
0100
0001
,  // measure 142
1000
0000
0010
0000
0100
0001
0010
0001
,  // measure 143
0100
0001
1000
0001
,  // measure 144
1000
0100
1000
0000
0001
0000
0001
0000
,  // measure 145
0100
0001
0100
0000
0010
0000
0010
0000
,  // measure 146
1000
0001
0100
0000
0001
0000
0001
0000
,  // measure 147
0010
0100
1000
0000
0010
0000
0010
0000
,  // measure 148
0100
0000
0001
0000
1000
0100
0010
0100
,  // measure 149
1000
0001
0100
0001
,  // measure 150
1000
0000
0001
0000
0010
0001
1000
0001
,  // measure 151
2000
0000
3010
0000
0100
0000
0001
0100
,  // measure 152
0010
0100
0001
0000
1000
0000
0100
0000
,  // measure 153
1000
0000
0001
0000
0010
0000
0100
0010
,  // measure 154
0001
0000
1000
0000
0020
0000
0100
0100
0130
0000
0000
0000
0010
0000
0000
0000
,  // measure 155
0100
0001
1000
0001
0100
0000
0001
0000
,  // measure 156
0010
0001
1000
0100
,  // measure 157
0010
0100
1000
0100
0010
0000
0001
0000
,  // measure 158
1000
0010
0100
0001
,  // measure 159
1000
0010
0100
0010
1000
0000
0001
0000
,  // measure 160
0010
0100
0010
0001
,  // measure 161
1000
0001
0010
0001
1000
0000
0001
0000
,  // measure 162
0100
0010
2002
0000
,  // measure 163
0000
3003
0000
0000
;

//---------------dance-single - ----------------
#NOTES:
     dance-single:
     :
     Challenge:
     19:
     1.000,1.000,0.378,0.115,0.599: // measure 1
0000
0000
0000
0000
,  // measure 2
0000
0000
0000
0000
,  // measure 3
0000
0000
0000
0000
,  // measure 4
0000
0000
0000
0000
,  // measure 5
0000
0000
0000
0000
,  // measure 6
0000
0000
0000
0000
,  // measure 7
0000
0000
0000
0000
,  // measure 8
0000
0000
0000
0000
,  // measure 9
0000
0000
0000
0000
,  // measure 10
0000
0000
0010
0010
,  // measure 11
1000
0000
0100
0000
0010
0100
1000
0100
,  // measure 12
0010
0001
0100
0010
,  // measure 13
0100
0000
0100
0000
0001
0100
0010
0100
,  // measure 14
0001
1000
0100
1000
,  // measure 15
0010
0000
1000
0000
0100
0010
0001
0010
,  // measure 16
0100
1000
0001
0100
,  // measure 17
0010
0000
1000
0000
0010
0100
0001
0100
,  // measure 18
0010
1000
0001
0100
,  // measure 19
1001
0000
0001
0010
0100
0000
1000
0010
0100
0000
0010
1000
0001
0000
1000
0001
,  // measure 20
1000
0000
1001
0000
0010
0100
0010
0100
0001
0100
0001
0100
0010
1000
0001
1000
,  // measure 21
0100
0000
1000
0010
0001
0000
1000
0100
0001
0000
1000
0010
0001
0000
0010
0100
,  // measure 22
0002
0000
0000
0000
0000
0000
0000
0000
0013
0000
0000
0000
0100
0000
0000
0000
1000
0000
0000
0000
0100
0000
0000
0000
0020
0000
0000
0000
0000
0000
0000
0000
0000
0000
0000
0000
0031
0000
0000
0100
0000
0000
0001
0000
0000
0100
0000
0000
,  // measure 23
0001
0000
1000
0001
0100
0000
0001
0000
1001
0000
0001
1000
0010
0000
1000
0100
,  // measure 24
0010
0000
0000
0000
0000
0000
0100
0000
0000
0000
0000
0000
1000
0000
0000
0000
0100
0000
0000
0000
0010
0000
0000
0000
0200
0000
0000
0000
0000
0000
0000
0000
0000
0000
0000
0000
1300
0000
0000
0010
0000
0000
0100
0000
0000
0010
0000
0000
,  // measure 25
1000
0000
0001
0010
1000
0000
0001
0100
1000
0000
0001
0010
1000
0000
0110
0000
,  // measure 26
0001
0100
0001
0100
0001
0000
1000
0100
0010
0100
1000
0000
0001
0000
1000
0001
,  // measure 27
0100
0000
0010
0000
1000
0000
0001
0100
,  // measure 28
0010
0000
0100
0000
0001
0000
1000
0100
,  // measure 29
0010
0000
0000
0100
0000
0000
1000
0000
0010
0000
0100
0000
,  // measure 30
0010
0000
1000
0000
0001
0100
0010
0100
,  // measure 31
0001
0010
0001
0010
0001
0000
1000
0010
,  // measure 32
1000
0010
1000
0000
0010
0100
0001
0100
,  // measure 33
0010
0000
1000
0000
0001
1000
0100
1000
,  // measure 34
0001
0000
0010
0000
0001
0100
0010
0100
,  // measure 35
0001
0000
0010
0000
0001
1000
0100
1000
,  // measure 36
0001
0000
1000
0000
0100
1000
0010
0100
,  // measure 37
0010
0000
0000
1000
0000
0000
0100
0000
0010
0000
0001
0000
,  // measure 38
0010
0000
0001
0000
0100
0010
1000
0001
,  // measure 39
2000
0000
0000
0000
0000
0000
3001
0010
,  // measure 40
1100
0000
0010
0000
0001
0000
0100
0001
1000
0001
0100
0010
1000
0000
0001
0100
,  // measure 41
0010
0000
1000
0000
1100
0000
1000
0100
0010
0100
1000
0001
0100
0000
0001
0100
,  // measure 42
0010
0000
0100
0001
0010
0000
0100
1000
0010
0000
0100
0001
0010
0000
0100
1000
,  // measure 43
0001
0000
0100
0000
0101
0000
0001
0010
0100
0010
0001
1000
0001
0000
1000
0010
,  // measure 44
0100
0000
0010
1000
0100
0000
0010
0001
0100
0000
0010
1000
0001
0000
0100
0010
,  // measure 45
1000
0000
0001
0000
0101
0000
0001
1000
0100
1000
0001
0010
0001
0000
1000
0100
,  // measure 46
0010
0000
0100
1000
0010
0000
0100
0001
1000
0000
0001
0010
0100
0000
0010
0001
,  // measure 47
0100
0000
0010
1000
0002
0000
0000
0000
0010
0000
0010
0000
1003
0000
0000
0000
,  // measure 48
0110
0000
0010
0100
0001
0000
1000
0001
0100
0000
0001
1000
0100
0000
1000
0001
,  // measure 49
0100
0000
0010
0000
1010
0000
1000
0100
0010
0100
1000
0001
1000
0000
0001
0100
,  // measure 50
0010
0100
0010
0100
0001
0000
0100
0001
0010
0001
1000
0001
1000
0000
0001
0010
,  // measure 51
0100
0000
0010
0000
0011
0000
1000
0100
0010
0100
1000
0001
0100
0000
0010
1000
,  // measure 52
0001
0100
1000
0000
0110
0001
1000
0000
1000
0000
0100
0000
0011
0000
1000
0100
,  // measure 53
0010
0100
1000
0001
0100
0000
0010
1000
0010
0000
0000
0000
0110
0000
0000
0000
,  // measure 54
0101
1100
0012
1003
,  // measure 55
0100
0000
1000
0000
1010
0000
0010
0100
0001
1000
0001
0010
0001
0000
1000
0100
,  // measure 56
0010
0001
0010
0000
1100
0000
1100
0000
0010
1000
0001
0000
0101
0000
1001
0000
,  // measure 57
1010
0000
0010
1000
0100
0000
0010
0001
,  // measure 58
1000
0000
0001
0010
0100
0000
0010
0001
,  // measure 59
0100
0010
0100
0010
1000
0001
1000
0001
,  // measure 60
1000
0000
0100
1000
0010
0000
0100
0001
,  // measure 61
1000
0000
0001
0010
0100
0000
0010
0001
,  // measure 62
1000
0000
0010
1000
0001
0000
0100
0010
,  // measure 63
1000
0100
1000
0100
0010
0100
0010
0100
,  // measure 64
1000
0000
0001
0100
0010
0000
0100
0001
,  // measure 65
1000
0000
0001
0010
0100
0000
0010
0001
,  // measure 66
1000
0000
0001
0010
0100
0000
0010
0001
,  // measure 67
0100
0001
0100
0001
1000
0010
1000
0010
,  // measure 68
0100
0000
0010
1000
0100
0000
0010
0100
,  // measure 69
1000
0000
0100
0010
0001
0000
1000
0010
,  // measure 70
0100
0000
0001
0010
0100
0000
0010
0001
,  // measure 71
1000
0010
1000
0010
0100
0001
0100
0001
,  // measure 72
1000
0000
0001
1000
0100
0000
1000
0001
,  // measure 73
1000
0010
1000
0010
1000
0010
1000
0010
,  // measure 74
1000
0010
1000
0010
1000
0010
1000
0010
,  // measure 75
0100
0010
0100
0010
0100
0010
0100
0010
,  // measure 76
0100
0010
0100
0010
0100
0010
0100
0010
,  // measure 77
0100
0001
0100
0001
0100
0001
0100
0001
,  // measure 78
0100
0001
0100
0001
0100
0001
0100
0001
,  // measure 79
1000
0100
1000
0100
1000
0100
1000
0100
,  // measure 80
1000
0100
1000
0100
1000
0100
1000
0100
,  // measure 81
0010
0100
0010
0100
0010
0100
0010
0100
,  // measure 82
1000
0001
1000
0001
1000
0001
1000
0001
,  // measure 83
0010
0100
0010
0100
0010
0100
0010
0100
,  // measure 84
0010
0001
0010
0001
0010
0001
0010
0001
,  // measure 85
1000
0010
1000
0010
0100
0001
0100
0001
,  // measure 86
1000
0100
1000
0100
0010
0001
0010
0001
,  // measure 87
1000
0010
0100
0001
1000
0010
0100
0001
,  // measure 88
1000
0100
0010
0001
1000
0100
0010
0001
,  // measure 89
1000
0000
0100
1000
0100
0000
1000
0001
0100
0000
0001
0100
0001
0000
0010
0001
,  // measure 90
0010
0000
0001
0100
0010
0000
1000
0001
2000
0000
0010
0000
0100
0000
3001
1000
,  // measure 91
0001
0000
0010
0100
1000
0000
0010
0100
0001
0000
1000
0010
0100
0000
0010
1000
,  // measure 92
0100
0000
0010
0100
1000
0000
0100
0010
0002
0000
0100
0000
0010
0000
1003
0000
,  // measure 93
0010
1000
0100
1000
0010
0000
0100
0001
1000
0000
0001
0010
0100
0000
0010
0001
,  // measure 94
0100
0001
0100
0001
0010
0000
0001
1000
0100
0000
1000
0010
0100
0000
0010
1000
,  // measure 95
0002
0000
0000
0000
0000
0000
0000
0000
0000
0000
0000
1000
1003
0000
0001
0000
,  // measure 96
0220
0000
0000
0000
,  // measure 97
0000
0000
0000
0000
,  // measure 98
0000
0000
0000
0000
,  // measure 99
0000
0000
0000
0000
,  // measure 100
0000
0000
0000
0000
,  // measure 101
0000
0000
0000
0000
,  // measure 102
0000
0000
0000
0000
,  // measure 103
0000
0000
0000
0330
,  // measure 104
0101
0000
0010
1000
0010
0000
1000
0100
0010
0000
0001
0010
0001
0000
1000
0010
,  // measure 105
0100
0000
0000
0000
0000
0000
0110
0000
0000
0000
0000
0000
0001
0000
0000
0000
1000
0000
0000
0000
0010
0000
0000
0000
1000
0000
0000
0000
0000
0000
0001
0000
0000
0000
0000
0000
1000
0000
0000
0100
0000
0000
0010
0000
0000
0100
0000
0000
,  // measure 106
1000
0000
0001
0100
0010
0000
1000
0010
0100
0000
0010
1000
0001
0000
0110
0000
,  // measure 107
1000
0000
1100
0000
0001
0010
0100
0010
0001
1000
0001
1000
0010
0100
0010
0100
,  // measure 108
0001
0000
1000
0000
1010
0000
0100
0001
,  // measure 109
0010
0001
0100
0001
1000
0000
0001
0010
,  // measure 110
0100
0000
0000
0010
0000
0000
0001
0000
1000
0000
0010
0000
,  // measure 111
0100
0000
0010
0000
1000
0100
0010
0100
,  // measure 112
1000
0000
0001
0000
0101
0000
0010
0100
,  // measure 113
0001
0100
0010
1000
0001
0000
1000
0001
,  // measure 114
0100
0000
0010
0000
1000
0100
1000
0000
,  // measure 115
0001
0100
0001
0000
0001
1000
0001
0000
,  // measure 116
0010
0000
0001
0000
0101
0000
0001
0100
,  // measure 117
0010
0100
0001
1000
0001
0000
1000
0100
,  // measure 118
0010
0000
0100
0000
1100
0000
1000
0010
,  // measure 119
0100
0010
0100
0010
1000
0000
0001
1000
,  // measure 120
0001
0100
0001
0100
0001
0100
0001
0100
,  // measure 121
0010
0100
0010
0100
0010
0100
0010
0100
,  // measure 122
1000
0100
1000
0100
1000
0100
1000
0100
,  // measure 123
0010
0100
0010
0100
0010
0100
0010
0100
,  // measure 124
0001
0000
0010
0000
0011
0000
1000
0001
,  // measure 125
0100
0001
1000
0100
0010
0000
0100
1000
,  // measure 126
0010
0000
0100
0000
0101
0000
0001
0010
,  // measure 127
0100
0010
0001
1000
0001
0000
1000
0100
,  // measure 128
1000
0010
1000
0010
1000
0010
1000
0010
,  // measure 129
0100
0010
0100
0010
0100
0010
0100
0010
,  // measure 130
0100
0001
0100
0001
0100
0001
0100
0001
,  // measure 131
0100
1000
0100
1000
0100
1000
0100
1000
,  // measure 132
0100
0000
0010
1000
0100
0000
0010
0001
,  // measure 133
0100
0010
0000
0010
1000
0000
0001
0010
,  // measure 134
0100
0000
0010
0001
0100
0000
0010
1000
,  // measure 135
0001
0010
0000
0010
0001
0000
1000
0100
,  // measure 136
1000
0010
1000
0010
1000
0010
1000
0010
,  // measure 137
0100
0001
0100
0001
0100
0001
0100
0001
,  // measure 138
1000
0000
0000
0000
1100
0000
0000
0000
0110
0000
0000
0000
,  // measure 139
0011
0000
0000
0000
1001
0000
0000
0000
0101
0000
0000
0000
,  // measure 140
0001
0000
0100
0001
0010
0000
0100
1000
,  // measure 141
0010
0100
0000
0100
0010
0000
1000
0010
,  // measure 142
0100
0000
0010
1000
0001
0000
0010
0001
,  // measure 143
0100
0010
0000
0010
1000
0000
0001
0010
,  // measure 144
0100
0010
0100
0010
0100
0010
0100
0010
,  // measure 145
0001
1000
0001
1000
0001
1000
0001
1000
,  // measure 146
0010
0100
0010
0100
0010
0100
0010
0100
,  // measure 147
0010
1000
0010
1000
0001
1000
0001
1000
,  // measure 148
0001
0000
0010
0100
1000
0000
0100
0000
,  // measure 149
1100
0000
1000
0100
0010
0000
0010
0001
,  // measure 150
0100
0000
0100
0001
0010
0000
0001
1000
,  // measure 151
0002
0000
1003
0000
1000
0010
0100
0000
,  // measure 152
0010
0000
1010
0000
0010
1000
0100
0000
,  // measure 153
0010
0001
0100
0000
0001
1000
0100
0000
,  // measure 154
1000
0000
0001
0000
1000
1000
0010
0010
1000
0000
0000
0000
1100
0000
0000
0000
,  // measure 155
1000
0100
0010
0100
1000
0000
0001
0000
,  // measure 156
1000
0001
0010
0011
,  // measure 157
0001
0010
0100
0010
0001
0000
1000
0000
,  // measure 158
0001
1000
0010
0100
,  // measure 159
0101
0000
0001
0100
0010
0100
0001
1000
,  // measure 160
0001
0000
1000
0100
0010
0000
0100
0000
,  // measure 161
1100
0000
1000
0100
0010
0100
1000
0001
,  // measure 162
0100
0010
1000
0001
2002
0000
0000
0000
,  // measure 163
0000
3003
0000
0000
;
