#TITLE:COSMIC CYBER;
#SUBTITLE:;
#ARTIST:BEMANI Sound Team "Captain Sonic";
#TITLETRANSLIT:;
#SUBTITLETRANSLIT:;
#ARTISTTRANSLIT:Captain Sonic;
#GENRE:;
#CREDIT:;
#MENUCOLOR:;
#METERTYPE:DDR;
#BANNER:COSMIC CYBER.png;
#BACKGROUND:COSMIC CYBER-bg.png;
#LYRICSPATH:;
#CDTITLE:./CDTITLES/BEATMANIA IIDX.PNG;
#MUSIC:COSMIC CYBER.ogg;
#OFFSET:0.000;
#SAMPLESTART:19.765;
#SAMPLELENGTH:15.000;
#SELECTABLE:YES;
#LISTSORT:;
#BPMS:0.000=170.000;
#STOPS:;
#BGCHANGES:0.000=COSMIC CYBER.avi=1.000=0=0=0,
99999=-nosongbg-=1.000=0=0=0 // don't automatically add -songbackground-
;
#ATTACKS:;

//---------------dance-single - ----------------
#NOTES:
     dance-single:
     :
     Beginner:
     5:
     0.203,0.300,0.045,0.098,0.000:
0000
0000
0000
0000
,
0000
0000
0000
0000
,
0000
0000
0000
0000
,
0000
0000
0000
0000
,
0000
0000
0000
0000
,
0000
0000
0000
0000
,
0001
0000
0001
0000
,
0100
0000
0100
0000
,
0001
0000
0001
0000
,
0010
0000
0010
0000
,
0100
0000
0100
0000
,
1000
0000
1000
0000
,
0001
0000
0001
0000
,
1000
0000
1000
0000
,
0001
0000
0001
0000
,
1000
0000
1000
0000
,
0010
0000
0010
0000
,
0100
0000
0100
0000
,
1001
0000
0000
0000
,
1000
0000
1000
0000
,
1000
0000
0000
0000
,
0001
0000
0001
0000
,
0001
0000
0000
0000
,
0100
0000
0100
0100
,
0100
0000
0010
0010
,
0010
0000
1000
1000
,
1000
0000
0001
0000
,
2000
0000
0000
0000
,
3000
0000
0000
0000
,
0002
0000
0000
0000
,
0003
0000
0000
0000
,
0100
0000
0010
0000
,
0100
0000
0001
0000
,
1000
0000
0100
0000
,
0010
0000
0000
0000
,
1001
0000
0001
0000
,
1000
1000
1000
0000
,
0001
0000
0100
0000
,
0010
0010
0010
0000
,
1000
0000
0100
0000
,
0010
0010
0010
0000
,
0001
0000
1000
0000
,
0010
0000
0100
0000
,
0110
0000
0000
0000
,
0001
0001
0001
0000
,
1001
0000
0000
0000
,
1000
1000
1000
0000
,
0110
0000
0000
0000
,
0010
0010
0010
0000
,
0100
0100
0100
0000
,
0100
0000
0100
0000
,
0010
0000
0000
0000
,
0000
0000
0000
0000
,
0000
0000
0000
0000
,
0000
0000
0000
0000
,
0001
0000
0001
0000
,
1000
0000
1000
0000
,
0010
0000
0010
0000
,
0100
0000
0100
0000
,
0010
0010
0010
0010
,
1000
1000
1000
1000
,
0001
0001
0001
0001
,
0100
0100
0100
0100
,
0001
0001
0010
0010
,
0100
0100
1000
1000
,
0001
0001
0100
0100
,
0010
0010
1000
1000
,
0002
0000
0003
1000
,
2000
0000
3000
0010
,
0020
0000
0030
0100
,
0200
0000
0300
0001
,
2000
0000
3000
0100
,
0020
0000
0030
0001
,
0200
0000
0300
0010
,
2000
0000
0002
0000
,
3003
0000
0000
0000
;

//---------------dance-single - ----------------
#NOTES:
     dance-single:
     :
     Easy:
     11:
     0.506,0.533,0.027,0.240,0.000:
0000
0000
0000
0000
,
0000
0000
0000
0000
,
0000
0000
0000
0000
,
0000
0000
0000
0000
,
0000
0000
0000
0000
,
0000
0000
0000
0000
,
0001
0100
1000
0000
0100
0000
0100
0000
,
0001
0100
1000
0000
0100
0000
0100
0000
,
0001
0010
1000
0000
0010
0000
0010
0000
,
0001
0000
0100
0001
1000
0010
0000
0010
,
0100
0001
0010
0000
0100
1000
0010
0000
,
0100
0001
0010
0000
0100
0000
0100
0000
,
1000
0010
0100
0000
0001
0010
0100
0000
,
1000
0010
0100
0001
1000
0010
0000
0010
,
1000
0100
0001
0000
0001
0100
1000
0000
,
1000
0100
0001
0000
0001
0100
1000
0000
,
1000
0010
0001
0000
0001
0010
1000
0000
,
1000
0000
0010
0100
0001
0010
0000
0010
,
0002
0000
0003
0000
1000
0000
0001
1000
,
0001
0010
0001
0000
0022
0000
0033
0000
,
1000
0010
1000
0000
2020
0000
3030
0000
,
0010
0000
0100
0002
0000
1003
0200
0000
,
1300
0020
0000
0130
0002
0000
1003
0000
,
0001
0010
1000
0000
0001
0000
0100
0000
,
1000
0010
0001
0000
1000
0000
0100
0000
,
0001
0010
1000
0000
0001
0100
1000
0000
,
0010
0100
0010
0100
0001
1000
0001
1000
,
0002
0003
0020
0030
,
2000
3000
0200
0300
,
0002
0003
0200
0300
,
2000
3000
0020
0030
,
0001
0100
1000
0000
0100
0000
0100
0000
,
0001
0010
1000
0000
0010
0000
0010
0000
,
0001
0100
1000
0000
1000
0100
0001
0000
,
0001
0010
0100
1000
0001
0010
0100
1000
,
0002
0000
0013
0001
0000
0001
0100
0000
,
0010
0010
0100
0000
0010
0000
1000
0000
,
0001
0100
0001
0100
0001
1000
0001
0000
,
1000
0100
1000
0100
1000
0010
0000
0010
,
2000
0000
3010
0100
0010
1000
0010
0000
,
1000
0100
0010
0001
1000
0001
0100
0000
,
0001
0010
0001
0010
0100
0010
0001
0000
,
0100
0001
0010
0100
1000
0010
0100
0001
,
0010
0000
0100
0010
0000
0010
0001
0000
,
0100
0100
0100
0000
0010
1000
0100
0000
,
0010
0000
0001
1000
0000
1000
0010
0000
,
0100
0100
0100
0000
0010
1000
0100
0000
,
0010
0000
0001
0010
0000
0010
0001
0000
,
1000
1000
1000
0000
0001
0100
0001
0000
,
1000
0001
1000
0000
0001
0000
0100
0010
,
0000
0010
1000
0000
0001
0010
0010
0000
,
1001
0000
0000
0000
,
0000
0000
0000
0000
,
0000
0000
0000
0000
,
0000
0000
0000
0000
,
0010
1000
0100
0000
1000
0100
0001
0000
,
0100
1000
0010
0000
1000
0010
0001
0000
,
0010
1000
0100
0000
1000
0100
0001
0000
,
0100
1000
0010
0100
0001
0010
0000
0010
,
0001
0100
0010
0100
0001
0100
0010
0100
,
0001
0010
0100
0010
0001
0100
1000
0000
,
1000
0010
0100
0010
1000
0100
0001
0000
,
0001
0010
0100
1000
0001
0010
0000
0010
,
0001
0100
1000
0100
0001
0100
1000
0100
,
0001
0100
1000
0100
0001
0010
1000
0000
,
0001
0010
0100
1000
0010
1000
0001
0000
,
1000
0010
0100
0001
1000
0010
0000
0010
,
2000
0000
0100
0000
3001
0020
0001
0000
,
2030
0000
0100
0000
3001
0020
0001
0000
,
2030
0000
0010
0000
3001
0200
0001
0000
,
2300
0000
0010
0000
3001
0200
0001
0000
,
0301
0000
0010
0000
0001
0100
1000
0000
,
1000
0000
0010
0000
1000
0100
0001
0000
,
0001
0000
0010
0000
0001
1000
0100
0000
,
1000
0010
0000
0001
0100
0000
1000
0100
;

//---------------dance-single - ----------------
#NOTES:
     dance-single:
     :
     Medium:
     13:
     0.631,0.633,0.151,0.125,0.142:
0000
0000
0000
0000
,
0000
0000
0000
0000
,
0000
0000
0000
0000
,
0000
0000
0000
0000
,
0000
0000
0000
0000
,
0000
0000
0000
0000
,
0001
0000
0010
0000
0100
0000
0000
0010
0000
0000
0010
0000
0001
0000
0000
0000
,
1000
0000
0010
0000
0100
0000
0000
0010
0000
0000
0010
0000
1000
0000
0000
0000
,
0001
0000
1000
0000
0100
0000
0000
0010
0000
0000
0010
0000
0001
0000
0000
0000
,
1000
0001
0100
0000
0010
0100
0000
0001
,
1000
0010
0001
0010
1000
0010
0001
0000
,
1000
0100
0001
0100
1000
0100
0001
0000
,
1000
0010
0100
0010
1000
0010
0100
0000
,
0001
0010
0100
0010
0001
0100
0000
0010
,
1000
0100
0001
0100
1000
0010
0001
0000
,
0010
1000
0100
1000
0001
0010
0100
0000
,
0001
0010
1000
0010
0001
0100
1000
0000
,
0010
0100
0001
1000
0010
0100
0000
0001
,
2000
0000
3000
0000
0001
1000
0100
1000
,
0010
0010
0100
0001
2000
0000
3010
0000
,
0100
0100
0010
1000
0200
0000
0310
0000
,
0001
0010
0100
0010
0100
1000
0100
0010
,
0001
0100
0010
0001
1000
0100
0010
0001
,
1000
0100
0001
0100
1000
0010
0001
0000
,
1000
0010
0001
0010
1000
0100
0001
0000
,
1000
0010
0100
0010
0100
0001
0100
0010
,
1000
0001
0010
0100
0010
0001
1000
0001
,
1000
1000
0100
0100
,
0001
0001
0010
0010
,
1000
1000
0010
0010
,
0001
0001
0100
0100
,
0001
0010
0100
0010
0001
0010
0100
0010
,
0001
0010
0100
1000
0010
0010
0100
0100
,
0010
1000
0001
0100
0010
1000
0001
0100
,
0002
0000
0000
1003
,
1001
0000
0010
0100
0001
0001
0100
0100
,
0010
0010
1000
0001
1000
1000
0100
0100
,
1000
1000
0010
1000
1000
1000
0010
1000
,
0001
0010
0100
0010
0100
1000
0100
0010
,
0001
0100
0100
0010
0100
0100
0001
0100
,
0001
0010
0010
0100
0010
0010
0001
1000
,
0001
0001
0100
0001
0001
0001
0100
0001
,
1000
0100
0001
1000
0010
0001
1000
0001
,
0200
0000
0301
0200
0000
0301
0100
0001
,
0010
0010
0010
0000
0011
0000
1100
0000
,
1000
0000
0000
0000
0001
0100
0000
0000
0100
0001
0000
0000
0001
1000
0000
0000
,
1000
0010
0010
0000
0110
0000
1001
0000
,
1000
0100
0001
0010
0001
0000
1001
0000
,
0001
0100
1000
0010
1000
0000
1010
0000
,
0110
0000
0110
0000
0110
0110
0000
1001
,
0000
1100
1100
0000
0011
0011
0011
0000
,
1000
0000
0100
0000
1000
0000
0000
0100
0000
0000
0100
0000
1000
0000
0000
0000
,
0001
0000
0100
0000
0001
0000
0000
0100
0000
0000
0100
0000
0001
0000
0000
0000
,
1000
0000
0010
0000
1000
0000
0000
0010
0000
0000
0010
0000
1000
0000
0000
0000
,
0001
0010
0100
0000
0010
0001
0000
1000
,
0001
0000
0100
0000
0010
0000
0000
0100
0000
0000
0100
0000
0001
0000
0000
0000
,
1000
0000
0010
0000
0100
0000
0000
0010
0000
0000
0010
0000
1000
0000
0000
0000
,
0001
0000
0010
0000
1000
0000
0000
0010
0000
0000
0010
0000
0001
0000
0000
0000
,
1000
0100
0001
0000
0100
1000
0000
0010
,
0100
0000
0100
0000
0010
0000
0100
0001
0000
0100
0001
0000
0100
0000
0010
0000
,
1000
0000
1000
0000
0010
0000
1000
0100
0000
1000
0100
0000
1000
0000
0001
0000
,
0010
0000
0010
0000
0001
0000
0100
0001
0000
0100
0001
0000
0100
0000
0010
0000
,
1000
1000
0001
1000
0010
0100
0000
0001
,
1000
0000
0100
0000
0001
0000
0100
1000
0000
0100
1000
0000
0001
0000
1000
0000
,
0001
0000
0010
0000
1000
0000
0010
0001
0000
0010
0001
0000
1000
0000
0001
0000
,
1000
0000
0010
0000
0100
0000
0010
1000
0000
0001
1000
0000
0001
0000
1000
0000
,
0001
0010
0100
0010
0001
0100
0000
0010
,
2000
0000
0100
0000
3001
0020
0100
0000
,
0032
0000
0010
0000
1003
0200
0010
0000
,
2300
0000
0100
0000
3001
0020
0100
0000
,
0032
0000
0010
0000
1003
0200
1000
0000
,
0310
0000
0100
0000
0001
0100
0000
0000
0010
0000
0100
0000
0010
1000
0000
0000
,
0001
0000
0010
0000
0100
1000
0000
0000
1000
0000
0100
0000
0010
0001
0000
0000
,
1000
0000
0010
0000
0100
0010
0100
0000
0001
0000
0010
0000
0100
0010
0100
0000
,
0010
0000
0001
0000
1000
0001
1000
0000
0001
0000
0100
0000
0010
1000
0001
0000
;

//---------------dance-single - ----------------
#NOTES:
     dance-single:
     :
     Hard:
     16:
     0.847,0.867,0.401,0.062,0.645:
0000
0000
0000
0000
,
0000
0000
0000
0000
,
0000
0000
0000
0000
,
0000
0000
0000
0000
,
0000
0000
0000
0000
,
0000
0000
0000
0000
,
0010
0000
1000
0000
0100
0000
0000
1000
0000
0001
1000
0000
0100
0000
0000
0000
,
0010
0000
0010
0000
0001
0000
0000
1000
0000
0001
1000
0000
0100
0000
0000
0000
,
0010
0000
0001
0000
1000
0000
0000
0100
0000
1000
0100
0000
1000
0000
0000
0000
,
0010
0000
0100
0001
0100
0000
0001
0000
0010
0000
0110
0000
0000
0000
1001
0000
,
0010
0000
0100
0000
0001
0010
0100
0000
1000
0000
0010
0000
0100
0010
1000
0000
,
0010
0000
1000
0000
0001
1000
0100
0000
1000
0000
0001
0000
0010
0001
0100
0000
,
0001
0000
0100
0000
0010
1000
0001
0000
1000
0000
0100
0000
0010
0100
1000
0000
,
0010
0000
0100
0000
0001
1000
0010
0000
0100
0000
0110
0000
0000
0000
1001
0000
,
0010
0000
1000
0100
1000
0000
0001
0010
0000
0001
1000
0000
0001
0000
0100
0001
,
0100
0000
0010
0100
0010
0000
1000
0010
0000
1000
0001
0000
1000
0000
0001
0010
,
0100
0000
0010
0001
0010
0000
0001
0100
0000
0010
0100
0000
0001
0000
0100
0010
,
1000
0000
0100
0010
0100
0000
1000
0001
1000
0000
0110
0000
0000
0000
1001
0000
,
0020
0000
0000
0000
0030
0000
0000
0000
0100
0000
0001
0010
0100
0000
0010
0000
,
1001
0000
0001
0100
0001
0000
0010
0000
0002
0000
0000
0000
1003
0000
0000
0000
,
0001
0000
1000
0100
1000
0000
0001
0000
2000
0000
0000
0000
3010
0000
0000
0000
,
0010
0000
1000
0100
0010
0000
0001
0000
0010
0100
1000
0000
0010
0000
0100
0001
,
1000
0000
0010
0000
0100
0001
0010
0000
0110
0000
0000
0000
1001
0000
0000
0000
,
1000
0100
0001
0010
0001
0000
1000
0001
1000
0000
0001
0100
0001
0000
1000
0000
,
0001
0100
1000
0010
1000
0000
0001
1000
0100
0000
1000
0010
1000
0000
0001
0000
,
1000
0000
0100
0010
0001
0000
0010
0000
0100
1000
0010
0000
0100
0000
0001
0010
,
0100
0000
0010
0000
0001
1000
0010
0000
0110
0000
0000
0000
1001
0000
0000
0000
,
1000
1000
0100
0100
,
0001
0001
0010
0010
,
1000
1000
0010
0010
,
0001
0001
0100
0100
,
1000
0100
0010
0100
1000
0010
0100
0001
,
0010
0000
0100
0000
1000
0000
0010
0000
0100
0010
0100
0000
0100
0010
0100
0000
,
0010
0000
0100
0001
1000
0000
0001
0100
0001
0010
0001
0010
0100
1000
0100
1000
,
0020
0000
0000
0030
,
0210
0000
0000
0000
0301
0000
0100
0000
0001
0010
0100
0000
0010
0000
0010
0000
,
0001
0000
1000
0001
0100
0000
0001
0000
1000
0010
0100
0000
0010
0000
0010
0000
,
1000
0000
0100
0010
0001
0000
0100
0000
0010
1000
0001
0000
0010
0000
0010
0000
,
0001
0000
1000
0001
0100
0000
0001
0000
0010
0001
1000
0000
0110
0000
0001
0000
,
2010
0000
0000
0000
3001
0000
0100
0000
0010
0100
0001
0000
0010
0000
0010
0000
,
0100
0000
0010
0100
1000
0000
0001
0000
0100
0010
1000
0000
0010
0000
0010
0000
,
0100
0000
0001
0100
1000
0000
0100
0000
0001
0010
1000
0000
0010
0000
0010
0000
,
1100
0001
0010
1100
0001
0010
1001
0010
,
0102
0000
1003
0101
0000
1000
0100
0011
,
0100
0000
0100
0000
0100
0000
0000
0100
0010
0000
0001
0000
1010
0000
0001
1000
,
0100
0000
0000
0001
0010
0001
0010
0000
1000
0010
1000
0000
0001
0100
0001
0000
,
0110
0000
0100
0000
0100
0000
0001
0000
1010
0000
0001
0000
0110
0000
0001
1000
,
0001
0100
1000
0010
1000
0000
0001
0000
0110
0000
0001
0000
1000
0000
0001
0000
,
1000
0100
0001
0010
0001
0000
1000
0000
0110
0000
0001
0000
1000
0000
0100
0000
,
1010
0010
1010
0010
1010
1010
0010
1010
,
0010
1010
1010
0010
1010
1010
1010
0001
,
1000
0100
1000
0100
1000
0000
0010
1000
0000
0001
1000
0000
0001
0000
0100
0000
,
0001
0010
0001
0010
0001
0000
0010
0001
0000
1000
0001
0000
1000
0000
0100
0000
,
1000
0010
1000
0010
1000
0000
0010
0100
0000
0010
1000
0000
0001
0000
0100
0000
,
0001
0010
0100
1000
0001
0000
1000
0001
0100
0000
0110
0000
0000
0000
1001
0000
,
0010
1000
0100
1000
0010
0000
0100
0001
0000
0010
0001
0000
1000
0000
0100
0000
,
0010
0001
0100
0001
0010
0000
0100
1000
0000
0010
1000
0000
0001
0000
0100
0000
,
0001
0010
0100
1000
0001
0000
1000
0010
0000
1000
0100
0000
1000
0000
0010
0000
,
0100
0010
1000
0001
0100
0000
0001
1000
0100
0000
0110
0000
0000
0000
1001
0000
,
1010
0000
0100
0000
0010
1000
0100
1000
0010
0000
1000
0000
0001
0010
0100
0010
,
0001
0000
0010
0000
0001
0100
0010
0100
0001
0000
1000
0000
0001
1000
0100
1000
,
0001
0000
1000
0000
0010
0100
0001
0100
0010
0000
1000
0000
0100
0010
0001
0010
,
0100
0000
1000
0000
0100
1000
0010
0100
0010
0000
0110
0000
0001
0000
1001
0000
,
1100
0000
0001
0000
1000
0100
0001
0010
0001
0000
1000
0000
0001
0100
1000
0010
,
1000
0000
0001
0000
1000
0010
0001
0100
0001
0000
1000
0000
0001
0010
1000
0100
,
1000
0000
0001
0000
1000
0100
0001
0100
1000
0000
0001
0000
1000
0010
0001
0010
,
1000
0000
0001
0000
1000
0100
0010
0001
1000
0000
0001
0000
1000
0001
1000
0001
,
1000
1000
0100
0100
,
0001
0001
0010
0010
,
1000
1000
0100
0100
,
0001
0001
0010
0010
,
1000
0000
0100
0000
1000
0010
1000
0010
1000
0000
1000
0000
1000
0100
1000
0000
,
0001
0000
0100
0000
0001
0010
0001
0010
0001
0000
0001
0000
0001
0100
0001
0000
,
1000
0100
0000
0001
0100
0000
1001
0100
,
0000
0000
0010
0000
1000
0000
0000
0000
0001
0000
0100
0000
0001
0010
0100
0000
;

//---------------dance-single - ----------------
#NOTES:
     dance-single:
     :
     Challenge:
     18:
     1.000,1.000,1.000,0.045,0.877:
0000
0000
0000
0000
,
0000
0000
0000
0000
,
0000
0000
0000
0000
,
0000
0000
0000
0000
,
0000
0000
0000
0000
,
0000
0000
0000
0000
,
1010
0000
1001
0000
1100
0000
0000
0011
0000
0000
1001
0000
0101
0000
0000
0000
,
0110
0000
1010
0000
0011
0000
0000
0110
0000
0000
1100
0000
0101
0000
0000
0000
,
0110
0000
0101
0000
1100
0000
0000
0110
0000
0000
1010
0000
0011
0000
0001
0000
,
0100
0001
0011
0100
0100
1001
0010
1001
,
1100
0000
0001
0010
1000
0010
0001
0000
1100
0000
0001
0010
1000
0010
0001
0000
,
0101
0000
1000
0010
0001
0010
1000
0000
0101
0000
1000
0010
0001
0010
1000
0000
,
1100
0000
0001
0100
1000
0100
0001
0000
1100
0000
0001
0100
1000
0100
0001
0000
,
1010
0000
0001
0010
1000
0010
0001
0000
0100
0000
0011
0000
0100
0000
1010
0000
,
0110
0000
0101
0000
0011
0000
0000
1100
0000
0000
1010
0000
1001
0000
0100
0000
,
0110
0000
1100
0000
1010
0000
0000
0110
0000
0000
0100
0000
1001
0000
0000
0000
,
0011
0000
1001
0000
0101
0000
0000
1010
0000
0000
1100
0000
1001
0000
0010
0000
,
0110
0000
0101
0000
0011
0000
0000
1100
0000
0000
1001
0000
0001
1000
0010
0100
,
0001
0000
0010
0001
0100
0001
0010
0000
0001
0100
1000
0100
0001
0000
1001
0000
,
1000
0100
0001
0100
1000
0100
0010
0100
1000
0000
0010
0000
0101
0000
0000
0000
,
0001
0100
1000
0100
0001
0100
0010
0100
0001
0000
0100
0000
1010
0000
0000
0000
,
0001
0010
0100
1000
0001
0000
1000
0010
0100
0001
1000
0000
0010
1000
0001
0100
,
0010
0000
0100
0001
1000
0010
0100
0000
0011
0000
0100
0000
1000
0000
1001
0000
,
1000
0100
0001
0010
0001
0000
1000
0100
0001
0100
1000
0001
1000
0000
0000
0000
,
0001
0100
1000
0010
1000
0000
0001
0100
1000
0100
0001
1000
0001
0000
0000
0000
,
0010
0001
0100
0001
0010
0000
0100
1000
0010
1000
0100
0000
0010
0100
1000
0100
,
0010
0000
0001
0100
0010
0100
0001
0000
1000
0000
0001
0000
0010
0000
0100
0000
,
1100
0101
2200
3300
,
1000
0010
0000
0100
0000
0100
0010
0000
1000
0100
0000
0000
0011
0000
0000
0000
,
0101
1100
0202
0303
,
0001
0010
0000
0100
0000
0100
0010
0000
0001
0100
0000
0000
0110
0000
0000
0000
,
0010
1000
0100
0001
0000
0100
1000
0010
0100
0001
0000
0001
1000
0000
0001
0000
,
0010
0001
0100
1000
0000
0100
0001
0010
0100
0010
0000
0010
0001
0000
1000
0100
,
1000
0010
0100
0001
0000
0001
1000
0001
1000
0010
0100
0010
0100
0001
0010
0100
,
2000
0000
0000
0001
0000
0000
0100
0000
0100
0000
0000
0000
3010
0000
0000
0000
,
0110
0000
0001
0000
0101
0000
0010
0000
1000
0100
1000
0000
0010
0000
0010
0000
,
1100
0000
0001
0010
0100
0000
1000
0000
0010
0100
0001
0000
1000
0000
1000
0000
,
0101
0000
1000
0010
0100
0000
0001
0000
1000
0001
0010
0001
1000
0000
1000
0000
,
0101
0000
1000
0100
0001
0000
1100
0000
0001
0100
1000
0000
0001
0000
0001
0000
,
0110
0000
1000
0000
1100
0000
0010
0000
0001
0100
0001
0000
1000
0000
1000
0000
,
0101
0000
1000
0010
0100
0000
0001
0000
1000
0100
0010
0000
0100
0000
0100
0000
,
0110
0000
0010
0001
0100
0000
0001
0000
1000
0010
0100
0000
0010
0000
0010
0000
,
1100
0000
0001
0010
0100
0000
1100
0000
0001
0010
0100
0000
1100
0000
0010
0000
,
1001
0000
0000
0000
0010
0000
0101
0000
0000
0000
0010
0000
1100
0000
0001
0010
,
0100
0000
0100
0000
0100
0000
0000
0000
0011
0000
0001
0000
0100
0000
0010
1000
,
0100
0000
0000
0100
1000
0010
0001
0000
0001
0010
1000
0000
1000
0100
0001
0000
,
0100
0000
0100
0000
0100
0000
0000
0000
0011
0000
0100
0000
1000
0000
0001
1000
,
0001
0100
1000
0010
1000
0000
0001
0010
0100
1000
0000
1000
0001
0000
1000
0001
,
1000
0100
0001
0010
0001
0000
1000
0100
0010
0001
0000
0001
1000
0000
0001
1000
,
0010
0100
0010
0100
0001
0100
0001
0100
0010
1000
0010
1000
0001
0010
0001
0010
,
0100
1000
0010
0100
0001
0100
0010
1000
0001
1000
0001
1000
0001
0000
1000
0000
,
1010
0000
1001
0000
1100
0000
0000
0011
0000
0000
1001
0000
0101
0000
0100
0000
,
0110
0000
1010
0000
0011
0000
0000
0110
0000
0000
1100
0000
0101
0000
0000
0000
,
0110
0000
0101
0000
1100
0000
0000
0110
0000
0000
1010
0000
0011
0000
0001
0000
,
0100
0001
0011
0100
0100
1001
0010
1001
,
0011
0000
0110
0000
1010
0000
0000
0101
0000
0000
0110
0000
1100
0000
1000
0000
,
1001
0000
0011
0000
0101
0000
0000
1001
0000
0000
1010
0000
1100
0000
0000
0000
,
1001
0000
1100
0000
1010
0000
0000
1001
0000
0000
0011
0000
0101
0000
0100
0000
,
1000
0100
0101
1000
1000
0110
0001
0110
,
1100
0000
0001
0100
1000
0100
0001
0000
1100
0000
0001
0100
1000
0100
0001
0000
,
1010
0000
0001
0010
1000
0010
0001
0000
1010
0000
0001
0010
1000
0010
0001
0000
,
1100
0000
0001
0100
1000
0100
0010
0000
0101
0000
1000
0100
0001
0100
0010
0000
,
0011
0000
1000
0010
0001
0010
0100
0000
0010
0000
0110
0000
0001
0000
1010
0000
,
1100
0000
0101
0000
0110
0000
0000
0011
0000
0000
1001
0000
0110
0000
0101
0000
,
0011
0000
0101
0000
1001
0000
0000
0110
0000
0000
1100
0000
1010
0000
0000
0000
,
0110
0000
0101
0000
0011
0000
0000
1001
0000
0000
1100
0000
0110
0000
1100
0000
,
1010
0000
0110
0000
0101
0000
1001
0000
1100
0000
0001
1000
0100
1000
0001
1000
,
0001
0000
0010
0100
1000
0100
0010
0000
0001
0000
0010
0100
1000
0100
0010
0000
,
0001
0000
0100
0010
1000
0010
0100
0000
0001
0000
0100
0010
1000
0010
0100
0000
,
0001
0000
1000
0100
0001
0100
1000
0000
0001
0000
1000
0100
0001
0100
1000
0000
,
0010
0000
1000
0010
0001
0010
1000
0000
0010
0000
1000
0010
0001
0010
1000
0000
,
0001
0000
1000
0100
0010
0001
0100
0000
0001
0000
1000
0010
0100
0001
1000
0000
,
0010
0000
0100
0001
1000
0010
0100
0000
0010
0000
0100
0010
1000
0001
0010
0000
,
0001
0000
1000
0100
0001
0100
0010
0000
0001
0000
1000
0010
0001
0010
0100
0000
,
0010
0000
1000
0100
0001
0010
1000
0000
0010
0000
0001
0100
1000
0010
0001
0000
;

//---------------dance-double - ----------------
#NOTES:
     dance-double:
     :
     Easy:
     11:
     0.370,0.399,0.080,0.125,0.000:
00000000
00000000
00000000
00000000
,
00000000
00000000
00000000
00000000
,
00000000
00000000
00000000
00000000
,
00000000
00000000
00000000
00000000
,
00000000
00000000
00000000
00000000
,
00000000
00000000
00000000
00000000
,
00010000
00000100
00001000
00000000
00000010
00000000
00000010
00000000
,
00010000
00000100
00001000
00000000
00000010
00000000
00000010
00000000
,
00010000
00001000
01000000
00000000
00100000
00000000
00100000
00000000
,
10000000
00010000
01000000
00000000
00010000
00100000
00000000
00100000
,
00001000
00000000
00001000
00000000
00010000
00001000
00010000
00000000
,
00000100
00000000
00000100
00000000
00010000
00000100
00010000
00000000
,
00000010
00000000
00000010
00000000
00000100
00000010
00000100
00000000
,
00000010
00000000
00000010
00000000
00001000
00000100
00000000
00000100
,
00010000
00001000
00010000
00000000
00001000
00000000
01000000
00000000
,
00010000
00100000
00010000
00000000
00100000
00000000
00001000
00000000
,
01000000
00001000
01000000
00000000
00001000
00000000
00010000
00000000
,
00000010
00000100
00000010
00000000
00010000
00000000
00001000
00000000
,
00022000
00033000
00010000
00010000
,
00001000
00000100
00000001
00000000
00000010
00000000
00000000
00000000
,
00001000
00000100
00000001
00000000
00000100
00000000
00000000
00000000
,
00001000
00000000
00001000
00010000
00000000
00010000
00001000
00000000
,
00100000
00001000
00000000
00001000
00010000
00000000
00010000
00000000
,
00001000
00100000
01000000
00000000
00100000
00000000
00000000
00000000
,
00001000
00100000
01000000
00000000
00100000
00000000
00000000
00000000
,
00010000
00000000
00010000
01000000
00000000
01000000
00010000
00000000
,
10000000
01000000
00000000
01000000
00100000
00000000
00100000
00000000
,
00001000
00010000
00022000
00033000
,
00010000
00010000
00010000
00000000
,
00000100
00010000
00020200
00030300
,
00001000
00001000
00000010
00000100
,
00000001
00000010
00001000
00000000
00000010
00000000
00000000
00000000
,
00000100
00001000
00010000
00000000
00001000
00000000
00000000
00000000
,
00100000
00010000
00100000
00000000
01000000
00000000
00000000
00000000
,
00200000
00000000
00000000
00300000
,
10000000
00000000
00000000
10000000
00000000
10000000
00000000
00000000
,
00010000
00000000
00000000
01000000
00000000
01000000
00000000
00000000
,
00001000
00000000
00001000
00010000
00001000
00000000
00000000
00000000
,
00010000
00000000
00000000
00000010
00000000
00000010
00000000
00000000
,
00000110
00000000
00000000
00000001
00000000
00000001
00000000
00000000
,
00001000
00000000
00000000
00000100
00000000
00000100
00000000
00000000
,
00010000
00000000
00001000
00010000
00001000
00010000
00000000
00000000
,
00002000
00000000
00000000
02003000
00000000
00000000
03020000
00000000
,
01030000
00000000
00010000
01000000
00000000
01000000
00000000
00000000
,
00100000
00100000
00100000
00000000
10000000
00000000
10000000
00000000
,
01000000
00000000
00100000
00001000
00000000
00001000
00000000
00000000
,
00010000
00010000
00010000
00000000
00000010
00000000
00000010
00000000
,
00000100
00000000
00000110
00000000
,
00000001
00000000
00001001
00000000
,
00010100
00000000
00010100
00000000
00010000
00010000
00000000
00000100
,
00000000
00000100
00000100
00000000
00010000
00010000
00010000
00000000
,
00011000
00000000
00000000
00000000
,
00000000
00000000
00000000
00000000
,
00000000
00000000
00000000
00000000
,
00000000
00000000
00000000
00000000
,
00100000
00001000
00100000
00000000
00001000
00000000
00001000
00000000
,
00010000
00000100
00010000
00000000
00001000
00000000
00001000
00000000
,
01000000
00010000
01000000
00000000
00100000
00000000
00100000
00000000
,
01000000
00010000
01000000
00000000
00010000
10000000
00000000
10000000
,
00010000
00100000
00010000
00000000
00100000
00000000
00000000
00000000
,
00001000
00010000
00001000
00000000
00010000
00000000
00000000
00000000
,
00000100
00010000
00000100
00000000
00001000
00000000
00000000
00000000
,
00000010
00000100
00000001
00000000
00000000
00001000
00000000
00001000
,
00000001
00000100
00001000
00000000
00000000
00001000
00000000
00001000
,
00010000
01000000
10000000
00000000
00000000
10000000
00000000
10000000
,
00010000
01000000
10000000
00000000
00000000
00010000
00000000
00010000
,
00001000
00000100
00000001
00000000
00000000
00000010
00000000
00000010
,
00000002
00000000
00000000
00000000
00000000
00001003
00000000
00000000
,
00000020
00000000
00000000
00000000
00000000
00010030
00000000
00000000
,
00200000
00000000
00000000
00000000
00000000
00301000
00000000
00000000
,
02000000
00000000
00000000
00000000
00000000
03100000
00000000
00000000
,
10000000
01000000
00100000
00010000
,
00001000
00000100
00000010
00000001
,
00000001
00000010
00000100
00001000
,
00010000
00100000
01000000
10000000
;

//---------------dance-double - ----------------
#NOTES:
     dance-double:
     :
     Medium:
     12:
     0.593,0.600,0.294,0.267,0.040:
00000000
00000000
00000000
00000000
,
00000000
00000000
00000000
00000000
,
00000000
00000000
00000000
00000000
,
00000000
00000000
00000000
00000000
,
00000000
00000000
00000000
00000000
,
00000000
00000000
00000000
00000000
,
00001000
00001000
00010000
00000000
00001000
00000000
01000000
00000000
,
00001000
00001000
00010000
00000000
00001000
00000000
00010000
00000000
,
00000100
00000100
00000010
00000000
00000100
00000000
00010000
00000000
,
00000010
00000010
00000100
00000000
00000001
00001000
00000000
00001000
,
00000001
00000010
00000001
00000010
00000001
00001000
00000001
00000000
,
00001000
00000010
00001000
00000010
00010000
00000100
00010000
00000000
,
00001000
00100000
00001000
00100000
00010000
01000000
00010000
00000000
,
10000000
01000000
00100000
00010000
01000000
00100000
00000000
00100000
,
01000000
00001000
00001000
00000000
00100000
00000000
00001000
00000000
,
00010000
00000100
00000100
00000000
00010000
00000000
00000010
00000000
,
00000100
00000001
00000001
00000000
00000010
00000000
00000100
00000000
,
00010000
00000100
00000100
00000000
00010000
00000000
00001000
00000000
,
00022000
00000000
00033000
00000000
00001000
01000000
00001000
00000000
,
01100000
00000000
00010000
00100000
02000000
00000000
13000000
00000000
,
00100000
00000000
01000000
00001000
00020000
00000000
00030000
00000000
,
00000200
00000000
00001300
00000200
00000000
00000301
00000200
00000000
,
00010300
00002000
00000000
00103000
00010000
01000000
00010000
00000000
,
10000000
01000000
00100000
00010000
10000000
00000000
01100000
00000000
,
00010000
01000000
00001000
00100000
00010000
00000000
00010100
00000000
,
00000110
00000000
00000001
00000200
00000000
00001300
00000200
00000000
,
00000301
00000020
00000000
00010030
00002000
00000000
00023000
00000000
,
00031000
01000000
02200000
03300000
,
10000000
01000000
00100000
00001000
00010000
00000000
00011000
00000000
,
00000010
00000100
00000220
00000330
,
00000001
00000010
00000100
00010000
00001000
00000000
00011000
00000000
,
00001000
01000000
00010000
00100000
00001000
01000000
00010000
00000000
,
00100000
00001000
00010000
00001000
01000000
00001000
00010000
00000000
,
00000010
00000100
00000001
00000000
00000010
00000010
00000100
00000100
,
00020000
00000000
00002000
00033000
,
01001000
00000000
00000000
00101000
00000000
00001000
00010000
00000000
,
00010100
00000100
00000000
00001000
00000000
00001000
00000010
00000000
,
00000110
00000010
00000000
00001000
00000000
00001000
00000001
00000000
,
00000020
00000000
00000130
00020000
00000000
00031000
00020000
00000000
,
00031000
00000000
00000000
01100000
00000000
00001000
01000000
00000000
,
00100000
10000000
01000000
00010000
00000000
01000000
10000000
00000000
,
01100000
00000000
00001000
01000000
00000000
00001000
00010000
00000000
,
00001000
00010000
00000100
00010000
00001000
00010000
00000100
00010000
,
00000010
00000000
00000100
00000001
00000000
00000010
00000100
00000000
,
00010000
00010000
00010000
00000000
00010100
00000000
00011000
00000000
,
00101000
00000000
00001000
01000000
00010000
00001000
00000100
00000001
,
00000100
00000100
00000100
00000000
00000011
00000000
00000101
00000000
,
00000010
00001000
00000100
00000000
00010100
00000000
00011000
00000000
,
00100000
00001000
01000000
00000000
01001000
00000000
01010000
00000000
,
01100000
00000000
01100000
00000000
01100000
00000000
00010000
01000000
,
00000000
01000000
00001000
00000000
00010000
00010000
00010000
00000000
,
00000100
00000000
00000100
00000000
00010000
00000000
00000000
00000100
00000000
00000000
00000100
00000000
00010000
00000000
00000000
00000000
,
00000010
00000000
00000010
00000000
00000100
00000000
00000000
00000001
00000000
00000000
00001000
00000000
00000001
00000000
00000000
00000000
,
00010000
00000000
00010000
00000000
00000100
00000000
00000000
00010000
00000000
00000000
00010000
00000000
00001000
00000000
00100000
00000000
,
00010000
01000000
00100000
10000000
00010000
01000000
00000000
01000000
,
00010000
00000000
00010000
00000000
00100000
00000000
00000000
01000000
00000000
00000000
01000000
00000000
10000000
00000000
01000000
00000000
,
00010000
00000000
00010000
00000000
00001000
00000000
00000000
00000100
00000000
00000000
00000001
00000000
00000100
00000000
00000000
00000000
,
00000001
00000000
00000010
00000000
00001000
00000000
00000000
00010000
00000000
00000000
00010000
00000000
00001000
00000000
01000000
00000000
,
00100000
00100000
01000000
00010000
00100000
01000000
00000000
01000000
,
00010000
01000000
10000000
01000000
00010000
00001000
00000100
00000001
,
00000100
00001000
00010000
01000000
10000000
01000000
00010000
00001000
,
00000010
00000100
00001000
00000100
00000010
00000001
00000100
00000001
,
00000010
00000100
00010000
00001000
00010000
00001000
00000000
00011000
,
01001000
00000000
00001000
00000000
01000000
00000000
00000000
01100000
00000000
00000000
00010000
00000000
01000000
00000000
00001000
00000000
,
00100000
00000000
00100000
00000000
00001000
00000000
00000000
00011000
00000000
00000000
00010000
00000000
00000010
00000000
00000000
00000000
,
00000100
00000000
00000100
00000000
00000010
00000000
00000000
00000110
00000000
00000000
00001000
00000000
00000001
00000000
00000010
00000000
,
00001000
00010000
01000000
10000000
00100000
01000000
00000000
01100000
,
00020000
00000000
00100000
00000000
10030000
02000000
00010000
00000000
,
03002000
00000000
00100000
00000000
00013000
00000200
00001000
00000000
,
00000320
00000000
00000001
00000000
00000130
00002000
00000010
00000000
,
00003002
00000000
00000100
00000000
00001003
00000020
00010000
00000000
,
00010030
00000100
00010000
00000100
00010000
00001000
00010000
00001000
,
01000000
00001000
01000000
00001000
00100000
00010000
00100000
00010000
,
10000000
01000000
00100000
00010000
00001000
00000100
00000010
00000001
,
00000010
00000100
00001000
00010000
00100000
01000000
10000000
00010000
;

//---------------dance-double - ----------------
#NOTES:
     dance-double:
     :
     Hard:
     17:
     0.834,0.833,0.320,0.125,0.583: // measure 1
00000000
00000000
00000000
00000000
,  // measure 2
00000000
00000000
00000000
00000000
,  // measure 3
00000000
00000000
00000000
00000000
,  // measure 4
00000000
00000000
00000000
00000000
,  // measure 5
00000000
00000000
00000000
00000000
,  // measure 6
00000000
00000000
00000000
00000000
,  // measure 7
00100000
00000000
00100000
00000000
01000000
00000000
00010000
01000000
00000000
00010000
01000000
00000000
00001000
00000000
00100000
00000000
,  // measure 8
00001000
00000000
00001000
00000000
00010000
00000000
00000100
00010000
00000000
00000100
00010000
00000000
00000010
00000000
00000000
00000000
,  // measure 9
00000100
00000000
00000100
00000000
00000001
00000000
00000010
00000100
00000000
00000010
00000100
00000000
00010000
00000000
00000100
00000000
,  // measure 10
00010000
00000000
00010000
00000000
00001000
00000000
01000000
00001000
00100000
00000000
00101000
00000000
00000000
00000000
01010000
00000000
,  // measure 11
01000000
00000000
00010000
01000000
10000000
01000000
00010000
00000000
01000000
00000000
00010000
01000000
10000000
01000000
00010000
00000000
,  // measure 12
00100000
00000000
00010000
00001000
00010000
00100000
00010000
00000000
00100000
00000000
00010000
00001000
00010000
00100000
00010000
00000000
,  // measure 13
00001000
00000000
00000100
00000001
00000100
00001000
00000100
00000000
00001000
00000000
00000100
00000001
00000100
00001000
00000100
00000000
,  // measure 14
00010000
00000000
00001000
00000100
00010000
00001000
00010000
00000000
00100000
00000000
01100000
00000000
00000000
00000000
10010000
00000000
,  // measure 15
10000000
00000000
10000000
00000000
00100000
00000000
01000000
00010000
00000000
00100000
00010000
00000000
10000000
00000000
00100000
00000000
,  // measure 16
01000000
00000000
01000000
00000000
00001000
00000000
00100000
00001000
00000000
00010000
00001000
00000000
00010000
00000000
00000000
00000000
,  // measure 17
00000010
00000000
00000010
00000000
00000100
00000000
00000001
00001000
00000000
00000100
00001000
00000000
00000001
00000000
00000010
00000000
,  // measure 18
00000100
00000000
00000100
00000000
00010000
00000000
00001000
00010000
00001000
00000000
01000000
00000000
00010000
00100000
00001000
00000000
,  // measure 19
00020000
00000000
00000000
00000000
00030000
00000000
00000000
00000000
00001000
01000000
00001000
00010000
00001000
00000000
00010000
00000000
,  // measure 20
00001000
00000000
01000000
00001000
01000000
00000000
00001000
00000000
00200000
00000000
00000000
00000000
00301000
00000000
00000000
00000000
,  // measure 21
01000000
00000000
00100000
10000000
00100000
00000000
10000000
00000000
00020000
00000000
00000000
00000000
10030000
00000000
00000000
00000000
,  // measure 22
10000000
00000000
01000000
00100000
00010000
00000000
00100000
00000000
00010000
00000100
00001000
00000000
00000100
00000000
00001000
00000010
,  // measure 23
00000100
00000000
00000010
00000000
00000100
00000001
00001000
00000000
00000001
00000000
00000010
00000000
00001000
00000000
00000010
00000000
,  // measure 24
00000001
00000100
00001000
00000010
00001000
00000000
00000001
00001000
00000001
00000000
00000000
00000000
00001100
00000000
00000000
00000000
,  // measure 25
00010000
01000000
10000000
00100000
10000000
00000000
00010000
10000000
00010000
00000000
00000000
00000000
10010000
00000000
00000000
00000000
,  // measure 26
10000000
00000000
00100000
01000000
00010000
00000000
00100000
00000000
00010000
00100000
00001000
00000000
00010000
00000000
00000100
00010000
,  // measure 27
00001000
00000000
00000010
00000000
00000100
00000001
00001000
00000000
00000010
00000000
00001000
00000000
00000100
00000000
00000001
00000000
,  // measure 28
00001000
00001000
00000200
00000300
,  // measure 29
00000001
00000001
00000020
00000030
,  // measure 30
00010000
00010000
00000200
00000300
,  // measure 31
00001000
00001000
00200000
00300000
,  // measure 32
00010000
01000000
10000000
01000000
00010000
01000000
00100000
01000000
,  // measure 33
00001000
00000000
00100000
00000000
00001000
00000000
00010000
00000000
00001000
00010000
00001000
00000000
00001000
00010000
00001000
00000000
,  // measure 34
00010000
00000000
00000010
00000100
00000001
00000000
00000010
00000100
00010000
00000100
00010000
00000100
00010000
00001000
00010000
00001000
,  // measure 35
00020000
00000000
00002000
00033000
,  // measure 36
02010000
00000000
00000000
00000000
03100000
00000000
01000000
00000000
00010000
01000000
00010000
00000000
00100000
00000000
00100000
00000000
,  // measure 37
00010000
00000000
10000000
01000000
00100000
00000000
00010000
00000000
01000000
00001000
00010000
00000000
00001000
00000000
00001000
00000000
,  // measure 38
01000000
00000000
00001000
00010000
00001000
00000000
00100000
00000000
00001000
00010000
00001000
00000000
00000010
00000000
00000010
00000000
,  // measure 39
00000100
00000000
00000001
00000100
00001000
00000000
00000100
00000000
00000001
00000010
00001000
00000000
00000010
00000000
00000010
00000000
,  // measure 40
00000001
00000000
00001000
00000001
00000100
00000000
00000010
00000000
00010000
00000100
00001000
00000000
00000100
00000000
00000100
00000000
,  // measure 41
00010000
00000000
00001000
00100000
00001000
00000000
00100000
00000000
00010000
01000000
00100000
00000000
10000000
00000000
10000000
00000000
,  // measure 42
00010000
00000000
10000000
01000000
00010000
00000000
01000000
00000000
10000000
00100000
01000000
00000000
00100000
00000000
00100000
00000000
,  // measure 43
01100000
00001000
00100000
00011000
00000100
00000010
00000001
00001000
,  // measure 44
00001001
00000000
00000000
00000000
00000010
00000000
00000100
00000000
00000000
00000000
00000010
00000000
00001000
00000000
00000100
00000010
,  // measure 45
00000001
00000000
00000001
00000000
00000001
00000000
00000000
00000000
00000110
00000000
00010000
00000000
00000100
00000000
00001000
00100000
,  // measure 46
00010000
00000000
00000000
00010000
00100000
10000000
00100000
00000000
01000000
00010000
01000000
00000000
00001000
00100000
00001000
00000000
,  // measure 47
00010000
00010000
00010000
00000000
00001100
00000010
00000001
00000100
,  // measure 48
00001000
00000100
00000001
00000010
00000001
00000000
00001000
00000001
00001000
00000000
00000000
00000000
00001100
00000000
00000000
00000000
,  // measure 49
00010000
01000000
10000000
00100000
10000000
00000000
00010000
10000000
00010000
00000000
00000000
00000000
10010000
00000000
00000000
00000000
,  // measure 50
01001000
00001000
01001000
00001000
01001000
01001000
00001000
01001000
,  // measure 51
00001000
01001000
01001000
00001000
00011000
00011000
00011000
00000000
,  // measure 52
00010000
00000000
00010000
00000000
00000010
00000000
00000100
00000010
00000000
00001000
00000001
00000000
00000010
00000000
00000100
00010000
,  // measure 53
00001000
00000000
00001000
00000000
00010000
00000000
00001000
00100000
00000000
00001000
00010000
00000000
00001000
00000000
00000000
00000000
,  // measure 54
01000000
00000000
01000000
00000000
00100000
00000000
10000000
01000000
00000000
00100000
00001000
00000000
00010000
00000000
00001000
00010000
,  // measure 55
00000010
00000000
00000100
00000000
00000001
00000000
00000100
00000010
00001000
00000000
00000110
00000000
00000000
00000000
00001001
00000000
,  // measure 56
00000010
00000000
00000010
00000000
00000100
00000000
00000010
00000100
00000000
00010000
00000100
00000000
00010000
00000000
00001000
00100000
,  // measure 57
00010000
00000000
00010000
00000000
01000000
00000000
00100000
10000000
00000000
00010000
10000000
00000000
00010000
00000000
00000000
00000000
,  // measure 58
10000000
00000000
10000000
00000000
01000000
00000000
00100000
00001000
00000000
00010000
00001000
00000000
01000000
00000000
00001000
00010000
,  // measure 59
00000100
00000000
00010000
00000000
00000010
00000000
00000100
00000010
00010000
00000000
00011000
00000000
00000000
00000000
01001000
00000000
,  // measure 60
01100000
00000000
10000000
00100000
00010000
00100000
10000000
00000000
00100000
00000000
10000000
00100000
00010000
00100000
10000000
00000000
,  // measure 61
01000000
00000000
00010000
00000100
00010000
00001000
00010000
00000000
01000000
00000000
00010000
00000100
00010000
00001000
00010000
00000000
,  // measure 62
00100000
00000000
00001000
00010000
00000100
00010000
00001000
00000000
00100000
00000000
00001000
00010000
00000100
00010000
00001000
00000000
,  // measure 63
00010000
00000000
00001000
00000100
00000001
00000100
00001000
00000000
00010000
00000000
00010100
00000000
00000000
00000000
00011000
00000000
,  // measure 64
00000010
00000000
00000110
00000000
00000100
00000000
00000001
00001000
00000000
00000100
00001000
00000000
00000001
00000000
00010000
00000100
,  // measure 65
00010000
00000000
00011000
00000000
00001000
00000000
00100000
00001000
00000000
01000000
00100000
00000000
01100000
00000000
00000000
00000000
,  // measure 66
10000000
00000000
10100000
00000000
00100000
00000000
10000000
01000000
00000000
10000000
00010000
00000000
01000000
00000000
00001000
00100000
,  // measure 67
00010000
00000000
00110000
00000000
00001000
00000000
01000000
00001000
00010000
00000000
00001000
00000000
00010000
00001000
00010000
00000000
,  // measure 68
00000100
00000000
00010000
00000000
00001000
00010000
00001000
00000000
00010000
00000000
00000200
00000000
00010000
00000000
00000000
00000000
,  // measure 69
00001300
00000000
00000010
00000000
00000100
00000010
00000100
00000000
00000010
00000000
00002000
00000000
00000100
00000000
00000000
00000000
,  // measure 70
00003001
00000000
00000010
00000000
00000001
00000010
00000001
00000000
00000100
00000000
00000020
00000000
00001000
00000000
00000000
00000000
,  // measure 71
00010030
00000000
00000100
00000000
00010000
00001000
00010000
00000000
00001000
00000000
00200000
00000000
00010000
00000000
00000000
00000000
,  // measure 72
00301000
00000000
01000000
00000000
00100000
01000000
00100000
00000000
01000000
00000000
00010000
00000000
10000000
00000000
01000000
00000000
,  // measure 73
10000000
00000000
00100000
00000000
01000000
00010000
01000000
00000000
00001000
00000000
00100000
00000000
00001000
00000000
00000100
00000000
,  // measure 74
00000001
00000000
00000010
00000000
00001000
00000010
00001000
00000000
00000010
00000000
00000001
00000000
00000100
00000000
00001000
00000000
,  // measure 75
00010000
00000000
00100000
00000000
10000000
00100000
10000000
00000000
01000000
00000000
00010000
00000000
00001000
00000100
00000001
00000000
;

//---------------dance-double - ----------------
#NOTES:
     dance-double:
     :
     Challenge:
     18:
     1.000,1.000,1.000,0.071,0.815: // measure 1
00000000
00000000
00000000
00000000
,  // measure 2
00000000
00000000
00000000
00000000
,  // measure 3
00000000
00000000
00000000
00000000
,  // measure 4
00000000
00000000
00000000
00000000
,  // measure 5
00000000
00000000
00000000
00000000
,  // measure 6
00000000
00000000
00000000
00000000
,  // measure 7
10000000
00000000
01000000
00000000
01100000
00000000
00000000
00010000
00000000
00000000
00100000
00000000
01100000
00000000
00000000
00000000
,  // measure 8
00110000
00000000
00101000
00000000
00011000
00000000
00000000
00011000
00000000
00000000
00010100
00000000
00001100
00000000
00000000
00000000
,  // measure 9
00001000
00000000
00000010
00000000
00000110
00000000
00000000
00000001
00000000
00000000
00000100
00000000
00000110
00000000
00000000
00000000
,  // measure 10
00001010
00000000
00010010
00000000
00011000
00000000
00000000
00011000
00000000
00000000
00101000
00000000
00000000
00000000
00110000
00000000
,  // measure 11
00010000
00000000
01000000
00100000
10000000
00100000
01000000
00010000
01000000
00000000
00010000
00100000
01000000
00100000
00001000
00010000
,  // measure 12
00001000
00000000
00010000
00000010
00000100
00000010
00001000
00000100
00001000
00000000
00000001
00000010
00000100
00010000
00000100
00010000
,  // measure 13
00001000
00000000
00100000
00001000
01000000
00100000
01000000
00001000
00010000
00000000
00001000
00100000
00001000
00010000
00000100
00010000
,  // measure 14
00000010
00000000
00000100
00000001
00001000
00000100
00001000
00000010
00010000
00000000
00011000
00000000
00000000
00000000
01001000
00000000
,  // measure 15
00100000
00000000
00010000
00000000
10010000
00000000
00000000
00100000
00000000
00000000
10000000
00000000
10010000
00000000
00000000
00000000
,  // measure 16
01100000
00000000
00110000
00000000
00011000
00000000
00000000
00011000
00000000
00000000
00001100
00000000
00000110
00000000
00000000
00000000
,  // measure 17
00000100
00000000
00001000
00000000
00001001
00000000
00000000
00000100
00000000
00000000
00000001
00000000
00001001
00000000
00000000
00000000
,  // measure 18
00000110
00000000
00001100
00000000
00011000
00000000
00000000
00011000
00000000
00000000
01001000
00000000
01100000
00000000
01000000
00000000
,  // measure 19
00100000
00000000
10000000
00000000
00010000
01000000
00010000
00000000
10000000
00000000
00010000
00100000
00010000
00000000
00100000
00000000
,  // measure 20
00011000
00000000
00100000
00000000
10000000
00010000
10000000
00010000
10000000
00000000
00010000
00000000
01000000
00000000
00000000
00000000
,  // measure 21
00011000
00000000
00000010
00000000
00001000
00000001
00001000
00000001
00001000
00000000
00000001
00000000
00000100
00000000
00000000
00000000
,  // measure 22
00000001
00000000
00000010
00000100
00001000
00000000
00000100
00000000
00001000
00010000
00100000
00000000
00001000
00000000
00010000
00100000
,  // measure 23
01000000
00000000
00100000
00000000
01000000
00100000
00010000
00000000
00001000
00000000
00011000
00000000
00000010
00000000
00000110
00000000
,  // measure 24
00001000
00000100
00000001
00000010
00000001
00000000
00001000
00000001
00001000
00000001
00000000
00000001
00001000
00000000
00000000
00000000
,  // measure 25
00000001
00000100
00001000
00000010
00001000
00000000
00000001
00000010
00000100
00010000
00000000
00010000
00001000
00000000
00000000
00000000
,  // measure 26
00100000
00000000
00010000
01000000
10000000
00000000
01000000
00000000
10000000
00100000
00010000
00000000
00001000
00000000
00000010
00000001
,  // measure 27
00000100
00000000
00000001
00000000
00000010
00001000
00000100
00000000
00010000
00000000
00000000
00000000
00110000
00000000
00000000
00000000
,  // measure 28
01010000
11000000
02020000
03030000
,  // measure 29
10000000
01000000
00100000
00001000
00000000
00001000
00010000
00000000
00001000
00000000
00000000
00000000
00011000
00000000
00000000
00000000
,  // measure 30
00001100
00000101
00002200
00003300
,  // measure 31
00000001
00000010
00000100
00010000
00000000
00010000
00001000
00000000
00010000
00000000
00000000
00000000
00011000
00000000
00000000
00000000
,  // measure 32
10000000
01000000
00010000
00100000
00010000
00000000
10000000
01000000
00100000
00001000
00000000
00001000
00010000
00000000
00001000
00010000
,  // measure 33
00001000
00000100
00000001
00000010
00000001
00000000
00001000
00000010
00000100
00000001
00000000
00000001
00001000
00000000
00000001
00000010
,  // measure 34
00000001
00000100
00001000
00000010
00001000
00000000
00000100
00010000
00001000
00100000
00001000
00100000
00001000
00010000
00001000
00010000
,  // measure 35
00002000
00000000
00000000
01000000
00000000
00000000
01000000
00000000
00013000
00000000
00000000
00000000
00011000
00000000
00000000
00000000
,  // measure 36
00102000
00000000
00000000
00000000
01003000
00000000
00001000
00000000
01000000
00001000
01000000
00000000
01100000
00000000
01100000
00000000
,  // measure 37
00010000
00000000
10000000
01000000
00100000
00000000
00010000
00000000
10000000
01000000
00100000
00000000
00101000
00000000
00101000
00000000
,  // measure 38
00011000
00000000
00001000
00010000
00000100
00000000
00010000
00000000
00000010
00001000
00000100
00000000
00000110
00000000
00000110
00000000
,  // measure 39
00000011
00000000
00000001
00000100
00000010
00000000
00001010
00000000
00001000
00000010
00000100
00000000
00000110
00000000
00010010
00000000
,  // measure 40
00012000
00000000
00000000
00000000
01003000
00000000
00001000
00000000
00100000
00001000
00100000
00000000
00110000
00000000
00110000
00000000
,  // measure 41
00101000
00000000
00001000
00010000
00000100
00000000
00010000
00000000
00000010
00001000
00000100
00000000
00000110
00000000
00000110
00000000
,  // measure 42
00000011
00000000
00000001
00000100
00000010
00000000
00010010
00000000
00010000
00000010
00000100
00000000
00000110
00000000
00000110
00000000
,  // measure 43
00001100
00000000
00000100
00010000
00001000
00000000
00010100
00000000
00001000
00010000
01000000
00000000
00100000
00000000
00001000
00000000
,  // measure 44
00102000
00000000
00000000
00000000
01003000
00000000
01001000
00000000
00000000
00000000
00001000
01000000
00100000
00000000
01000000
00001000
,  // measure 45
00100000
00000000
00101000
00000000
00101000
00000000
00000000
00000000
01001000
00000000
00010000
00000000
01000000
00000000
00100000
01000000
,  // measure 46
10000000
00000000
00000000
01000000
00100000
10000000
01000000
00000000
00100000
00001000
00010000
00000000
00001000
00010000
00000100
00000000
,  // measure 47
00000110
00000000
00000110
00000000
00000110
00000000
00000000
00000000
00000001
00000000
00001000
00000000
00000100
00000000
00001000
00000001
,  // measure 48
00001000
00000100
00000001
00000010
00000001
00000000
00001000
00000100
00000010
00000001
00000000
00000001
00001000
00000000
00000001
00001000
,  // measure 49
00000001
00000100
00001000
00000010
00001000
00000000
00000010
00010000
00000100
00010000
00000000
00010000
00001000
00000000
01000000
00001000
,  // measure 50
00100000
01000000
00100000
01000000
10000000
01000000
10000000
01000000
00100000
00001000
00100000
00001000
00010000
00001000
00010000
00001000
,  // measure 51
00010000
00000010
00010000
00000010
00000100
00000010
00000100
00000010
00001000
00000000
00001001
00000000
00001001
00000000
00000000
00000000
,  // measure 52
00000011
00000000
00000110
00000000
00001001
00000000
00000000
00000100
00000000
00000000
00010100
00000000
00001000
00000000
00010000
00000000
,  // measure 53
00011000
00000000
01000000
00000000
00110000
00000000
00000000
01000000
00000000
00000000
00100000
00000000
10010000
00000000
00000000
00000000
,  // measure 54
10100000
00000000
01100000
00000000
01010000
00000000
00000000
00100000
00000000
00000000
00101000
00000000
00010000
00000000
00001000
00000000
,  // measure 55
00010010
00000000
00000100
00000000
00000001
00000000
00001000
00000001
00000100
00000000
00001001
00000000
00000010
00000000
00001001
00000000
,  // measure 56
00000011
00000000
00000110
00000000
00001100
00000000
00000000
00000110
00000000
00000000
00000011
00000000
00001001
00000000
00000010
00000000
,  // measure 57
00001010
00000000
00000110
00000000
00010010
00000000
00000000
00010100
00000000
00000000
00000100
00000000
00011000
00000000
00000000
00000000
,  // measure 58
00101000
00000000
00110000
00000000
01100000
00000000
00000000
00110000
00000000
00000000
01000000
00000000
00011000
00000000
00100000
00000000
,  // measure 59
00011000
00000000
00010100
00000000
00001100
00000000
00001000
00000010
00000100
00000000
00000110
00000000
00000001
00000000
00000110
00000000
,  // measure 60
00010010
00000000
00000010
00010000
00001000
00010000
00000010
00000000
00010000
00000000
00000100
00010000
00001000
00010000
00001000
00000000
,  // measure 61
00100000
00000000
00010000
01000000
00100000
01000000
00010000
00000000
10000000
00000000
01000000
00100000
00001000
00010000
00001000
00000000
,  // measure 62
00010000
00000000
00000010
00000100
00000001
00000100
00000010
00000000
00001000
00000000
00000100
00000010
00000001
00000010
00000100
00000000
,  // measure 63
00001000
00000000
00000100
00000001
00000100
00001000
00010000
00000000
00001000
00000000
00101000
00000000
00010000
00000000
01100000
00000000
,  // measure 64
10100000
00000000
01100000
00000000
01010000
00000000
00000000
00101000
00000000
00000000
00011000
00000000
00010100
00000000
00011000
00000000
,  // measure 65
00010010
00000000
00001010
00000000
00000110
00000000
00000000
00000101
00000000
00000000
00000011
00000000
00001001
00000000
00000000
00000000
,  // measure 66
00001100
00000000
00001100
00000000
00000110
00000000
00000000
00010100
00000000
00000000
00011000
00000000
00101000
00000000
00011000
00000000
,  // measure 67
01100000
00000000
00110000
00000000
00011000
00000000
00001000
01000000
00100000
00000000
01100000
00000000
00010000
00000000
01100000
00000000
,  // measure 68
10000000
00000000
01000000
00010000
01000000
10000000
01000000
00000000
10000000
00000000
01000000
00010000
01000000
10000000
01000000
00000000
,  // measure 69
10000000
00000000
00100000
00010000
00001000
00010000
00100000
00000000
10000000
00000000
00100000
00010000
00001000
00010000
00100000
00000000
,  // measure 70
01000000
00000000
00100000
01000000
00001000
01000000
00100000
00000000
01000000
00000000
00100000
01000000
00001000
01000000
00100000
00000000
,  // measure 71
00010000
00000000
00001000
00000100
00000001
00000100
00001000
00000000
00010000
00000000
00001000
00000100
00000001
00000100
00001000
00000000
,  // measure 72
00000010
00000000
00000100
00000010
00010000
00000010
00000100
00000000
00000010
00000000
00000100
00000010
00010000
00000010
00000100
00000000
,  // measure 73
00000001
00000000
00000010
00001000
00010000
00001000
00000010
00000000
00000001
00000000
00000010
00001000
00010000
00001000
00000010
00000000
,  // measure 74
00000100
00000000
00000010
00000001
00000010
00001000
00000010
00000000
00000100
00000000
00010000
00000100
00010000
00001000
00100000
00000000
,  // measure 75
01000000
00000000
00100000
00000010
00100000
00000010
00100000
00000000
01000000
00000000
00010000
00001000
00000100
00000001
00000100
00000000
;
