#TITLE:Burn Burn Burning;
#SUBTITLE:;
#ARTIST:Super Momo Tarosans;
#TITLETRANSLIT:;
#SUBTITLETRANSLIT:;
#ARTISTTRANSLIT:;
#GENRE:;
#CREDIT:;
#MENUCOLOR:;
#METERTYPE:DDR;
#BANNER:Burn Burn Burning.png;
#BACKGROUND:Burn Burn Burning-bg.png;
#LYRICSPATH:;
#CDTITLE:./CDTITLES/GITADORA.PNG;
#MUSIC:Burn Burn Burning.ogg;
#OFFSET:0.000;
#SAMPLESTART:49.800;
#SAMPLELENGTH:15.000;
#SELECTABLE:YES;
#LISTSORT:;
#BPMS:0.000=200.000;
#STOPS:150.000=0.300
,255.500=0.300
,256.500=0.300
;
#BGCHANGES:;
#ATTACKS:;

//---------------dance-single - ----------------
#NOTES:
     dance-single:
     :
     Beginner:
     4:
     0.140,0.161,0.008,0.000,0.000:
0000
0000
0000
0000
,
0000
0000
0000
0000
,
0000
0000
0000
0000
,
0000
0000
0000
0000
,
0000
0000
0000
0000
,
0000
0000
0000
0000
,
0000
0000
0000
0000
,
0000
0000
0000
0000
,
0000
0000
0000
0000
,
0000
0000
0000
0000
,
0010
0000
0000
0000
,
0010
0000
0000
0000
,
1000
0000
0000
0000
,
1000
0000
0000
0000
,
0001
0000
0000
0000
,
0001
0000
0000
0000
,
0100
0000
0000
0000
,
0100
0000
0000
0000
,
0001
0000
0001
0000
,
0001
0000
0000
0000
,
1000
0000
1000
0000
,
1000
0000
0000
0000
,
0010
0000
0010
0000
,
0010
0000
0000
0000
,
0100
0000
0100
0000
,
0100
0000
0000
0000
,
0001
0000
1000
0000
,
0001
0000
0000
0000
,
1000
0000
0001
0000
,
1000
0000
0000
0000
,
0010
0000
0100
0000
,
0010
0000
0000
0000
,
0100
0000
0010
0000
,
0100
0000
0000
0000
,
0010
0000
0000
0000
,
0010
0000
0000
0000
,
0100
0000
0000
0000
,
0100
0000
0000
0010
,
0000
0000
0000
0010
,
0000
0000
0000
1000
,
0000
0000
0000
0001
,
0000
0000
0000
1000
,
0000
0000
0000
1000
,
0000
0000
0000
0001
,
0000
0000
0000
0001
,
0000
0000
0000
0010
,
0000
0010
0000
0010
,
0000
0000
0000
0100
,
0000
0100
0000
0100
,
0000
0000
0000
0010
,
0000
0000
0000
0001
,
0000
0000
0000
1000
,
0000
0000
0000
0010
,
0000
0000
0000
0100
,
0000
0000
0000
0100
,
0000
0000
0000
0010
,
0000
0010
0000
0010
,
0000
0000
0000
1000
,
0000
1000
0000
1000
,
0000
0000
0000
0001
,
0000
0001
0000
0001
,
0000
0000
0000
0100
,
0000
0100
0000
0100
,
0000
0000
0000
0010
,
0010
0010
0000
0000
,
0000
1000
0000
0001
,
0000
1000
0000
0000
,
0000
0001
0000
1000
,
0000
0001
0000
0000
,
0000
0100
0000
0010
,
0000
0100
0000
0000
,
0000
0010
0000
0100
,
0000
0010
0000
0000
,
0000
1000
0000
0000
,
0000
0001
0000
0000
,
0000
1000
0000
0000
,
0000
0001
0000
0000
,
0000
0001
0000
0000
,
0000
1000
0000
0000
,
0000
0010
0000
0000
,
0000
0100
0000
0000
,
0000
0000
0000
0010
,
0000
0000
0000
0010
,
0000
0000
0000
0100
,
0000
0100
0000
0100
,
0000
0000
0000
0001
,
0000
0000
0000
0001
,
0000
0000
0000
1000
,
0000
1000
0000
1000
,
0000
0000
0000
0001
,
0000
0001
0000
0000
,
0000
1000
0000
0000
,
0000
0010
0000
0100
,
0000
0010
0000
0010
,
0000
0100
0000
0100
,
0000
0001
0000
0000
,
0000
1000
0000
0000
,
0000
0001
0000
0001
,
0000
0001
0000
0001
,
0000
1000
0000
1000
,
0000
1000
0000
1000
,
0000
0010
0000
0010
,
0000
0010
0000
0010
,
0000
0100
0000
0000
,
0000
0010
0000
0000
,
0000
1001
0000
0000
,
0010
0000
0000
0000
;

//---------------dance-single - ----------------
#NOTES:
     dance-single:
     :
     Easy:
     8:
     0.399,0.485,0.122,0.114,0.015:
0000
0000
0000
0000
,
0000
0000
0000
0000
,
0000
0000
0000
0000
,
0000
0000
0000
0000
,
0000
0000
0000
0000
,
0000
0000
0000
0000
,
0000
0000
0000
0000
,
0000
0000
0000
0000
,
0000
0000
0000
0000
,
0000
0000
0000
0000
,
0001
0100
0001
1000
,
0001
0010
0100
1000
,
0001
0100
0001
1000
,
0001
0010
1000
0010
,
0001
0100
0001
1000
,
0001
0100
1000
0100
,
0001
0010
0010
0010
,
0100
1000
1000
1000
,
0010
0100
0110
0000
,
0001
1000
0100
1000
,
0001
0100
0101
0000
,
1000
0100
0010
0001
,
1000
0010
1010
0000
,
0010
0100
0001
1000
,
0001
0001
0010
0010
,
0100
0100
1000
1000
,
0100
1000
1001
0000
,
0010
0100
0001
0010
,
0001
1000
1010
0000
,
1000
0100
0010
0001
,
1000
0001
0101
0000
,
0010
0100
0001
1000
,
0010
0010
0100
0100
,
0001
0001
1000
0000
,
2100
0000
0010
0000
,
3001
0010
0100
0010
,
0002
0000
0100
0000
,
1003
0010
0100
0020
,
0000
1000
0000
0130
,
0010
1000
0001
0020
,
0000
0000
0000
0100
0000
0000
0000
0000
0000
0031
0000
1000
,
0000
0000
0001
0000
0000
0000
1000
0000
0000
0000
0000
0000
0000
0000
0000
0010
0000
0000
0000
0000
0000
0000
0000
0000
,
1000
0000
0001
0000
0000
0010
0000
0000
,
0001
0000
1000
0000
0000
0001
0000
0000
,
1000
0100
1000
0010
,
0100
0000
0001
0000
0000
0100
0000
0000
,
0010
1000
0010
0100
,
0010
0000
0001
0000
0000
0010
0000
0000
,
0100
0001
0001
0010
,
0100
0000
0100
0000
0000
1000
0000
0000
,
0001
0000
0010
0000
0000
0001
0000
0000
,
1000
0000
0010
0000
0000
1000
0000
0000
,
0001
0000
0100
0000
0000
0001
0000
1000
,
0000
0010
0000
0100
0000
0010
0000
0000
,
1000
0100
0001
0100
,
1000
0000
0010
0000
0000
0100
0000
0000
,
0010
0000
1000
0000
0000
0001
0000
0000
,
1000
0001
0100
0010
,
0010
0020
0030
1000
,
0000
0001
0000
0100
,
0100
0200
0300
0001
,
0000
1000
0000
0001
,
0001
0002
0003
0010
,
0000
0000
0100
0000
0000
0000
1000
1000
,
0001
0001
0100
0000
0100
0000
0220
0000
,
0330
1000
0100
0010
,
0100
1000
0100
0001
,
0100
0010
0001
0100
,
0010
1000
0010
0001
,
0010
0000
1000
0000
0000
1100
0000
0000
,
0011
0000
0000
1001
0000
0000
0001
0000
,
0100
0000
0001
0000
0000
0101
0000
0000
,
0110
1000
0010
0100
,
0000
2001
0000
0000
0010
0000
0010
0000
,
0010
0001
0001
0001
,
3100
0020
0000
0000
0001
0000
0001
0000
,
0130
0000
0000
0001
0000
1000
0000
0010
0000
0000
0000
0000
,
0000
0200
0000
0000
0000
0000
0000
0000
,
0000
0320
0000
0000
0000
0000
0000
0000
,
0000
2030
0000
0000
0000
0000
0000
0000
,
0000
3001
0000
0001
0000
0001
0000
0000
,
0000
1001
0000
0000
0010
0000
1000
0000
,
0001
0010
0000
0000
0001
0000
1000
0000
,
0010
0100
0000
0000
0010
0000
1000
0000
,
0100
0010
0000
0001
0000
1000
0000
0010
,
0000
0100
0000
0010
1000
0000
0001
0000
,
1000
0010
0000
0000
0100
0000
0010
0000
,
1000
0001
0000
0000
0100
0000
1000
0000
,
0100
0000
0001
0000
0100
0000
0010
0100
,
0010
1000
0000
0000
0001
0000
0010
0000
,
0000
0001
0000
0000
1000
0000
0010
0000
,
0000
1000
0000
0000
0010
0000
0100
0000
,
0000
0000
0001
0010
0000
0100
0000
1000
,
0000
0001
0100
0000
0010
0000
0100
0000
,
1000
0100
0010
0100
,
0001
0010
0000
0000
1000
0000
0010
0000
,
0100
0010
0000
0000
0001
0000
1000
0000
,
0001
1001
0100
0001
,
1000
0001
0010
0100
,
1000
0001
0100
0001
,
1000
0001
0010
1000
,
0010
0001
1000
0100
,
1000
0001
0100
1000
,
0100
0000
0010
0000
0000
0010
0000
0000
,
0010
0000
0100
0000
0001
0000
1000
0001
,
0100
0002
0000
0000
0000
0000
0000
0000
,
1003
0001
0000
0000
0000
0000
0000
0000
;

//---------------dance-single - ----------------
#NOTES:
     dance-single:
     :
     Medium:
     11:
     0.625,0.687,0.274,0.244,0.015:
0000
0000
0000
0000
,
0000
0000
0000
0000
,
0000
0000
0000
0000
,
0000
0000
0000
0000
,
0000
0000
0000
0000
,
0000
0000
0000
0000
,
0000
0000
0000
0000
,
0000
0000
0000
0000
,
0000
0000
0000
0000
,
0000
0000
0000
0000
,
1000
0000
0001
0000
1000
0010
1000
0000
,
0001
0010
0001
0010
0001
1000
0001
0000
,
0100
0000
0001
0000
0010
0001
0010
0000
,
0001
1000
0100
1000
0100
1000
0100
0000
,
1000
0000
0010
0000
1000
0001
1000
0000
,
0100
1000
0100
1000
0001
0100
0001
0000
,
1000
0000
0010
0100
0001
0000
0010
0000
,
0100
0000
0010
0000
0001
1000
0100
1000
,
0001
0000
0101
0000
1100
0000
0001
0010
,
0000
0100
0000
0010
0001
0000
1000
0000
,
0010
0000
1100
0000
0101
0000
1000
0010
,
0000
0100
0000
0001
1000
0000
0001
0000
,
0100
0000
0110
0000
1010
0000
0010
1000
,
0000
0001
0000
0010
0100
0000
0010
0000
,
0001
0000
0100
0000
0001
1000
0001
0000
,
1000
0000
0010
0000
1000
0001
0100
0001
,
1000
0000
1100
0000
0110
0000
1000
0100
,
0000
0001
0000
0100
1000
0000
0010
0000
,
0100
0000
0101
0000
0110
0000
0001
0010
,
0000
1000
0000
0010
0001
0000
0100
0000
,
0010
0000
1010
0000
1001
0000
0001
0010
,
0000
0100
0000
1000
0010
0000
1000
0000
,
0001
0100
0001
1000
0001
0010
0001
0000
,
1000
0100
1000
0001
1000
0010
1000
0000
,
0010
0000
0100
0000
0001
0100
0000
0100
,
0001
0100
0000
0100
0010
0000
1000
0000
,
0001
0000
1000
0000
0010
0100
0000
0100
,
0010
1000
0000
1000
0001
0000
1000
0000
,
0100
0000
0001
0100
0000
0100
1000
0100
,
0000
0100
1000
0000
0001
0000
1000
0000
,
0010
0000
0000
0000
0000
0000
0100
0000
0000
0001
0000
0000
0000
0000
0000
0001
0000
0000
0100
0000
0000
0000
0001
0000
,
0000
0000
1000
0000
0000
0000
2001
0000
0000
0000
0000
0000
3010
0000
0000
2000
0000
0000
0000
0000
0000
3010
0000
0000
,
0100
0000
0010
0000
1000
0200
0000
1300
,
0001
0000
0100
0000
0001
0020
0000
0031
,
1000
0000
0001
0100
0001
1000
0000
0010
,
1000
0001
0000
1000
0001
0200
0000
0301
,
0010
0000
0001
0100
0001
0000
1000
0010
,
1000
0000
0001
0010
0100
2000
0000
3100
,
0010
0011
1001
0101
,
1001
0000
0010
0100
0010
0200
0000
0310
,
1000
0000
0001
0010
0001
0020
0000
0031
,
1000
0000
0100
1000
0100
0020
0000
0130
,
1000
0000
0010
0100
0010
0000
1000
0010
,
0100
0001
0000
1000
0001
0100
0000
0100
,
0001
0010
0001
0100
0001
0010
0001
1000
,
0100
1000
0010
0100
0001
2000
0000
3010
,
0100
0010
1000
0100
0001
0200
0000
1300
,
0010
0100
0001
0000
1000
0000
0001
0000
,
1000
0002
0000
0100
,
0000
1003
0000
1000
,
0001
2000
0000
0100
,
0000
0000
3001
0000
0000
0000
0100
0010
,
0000
1000
0000
0001
0000
0010
0000
0001
,
0000
0100
0001
1000
0000
0100
1000
1000
,
0001
0001
1000
0100
1000
0001
2000
0000
,
0000
0000
3001
0000
0100
0000
0001
1000
,
0001
0010
0000
0001
1000
0001
0000
1000
,
0100
0000
1000
0000
0010
0000
1000
0100
,
1000
0001
0000
1000
0001
0100
0000
0001
,
1000
0001
0010
0000
0100
0010
0000
0010
,
0001
0000
0001
0100
0000
0100
0010
0000
,
1000
0000
0010
0000
1000
0100
0000
0100
,
0010
0000
0001
0100
0010
1000
0001
1000
,
0001
0020
0000
0031
0100
0000
0101
0000
,
1100
0000
0110
0000
0011
0000
1000
0100
,
0010
0002
0000
1003
0010
0000
0110
0000
,
1010
0000
0000
0010
0000
0100
0000
0120
0000
0000
0000
0000
,
0000
2030
0000
0000
0000
0000
0000
0000
,
0000
3002
0000
0000
0000
0000
0000
0000
,
0000
0023
0000
0000
0000
0000
0000
0000
,
0000
0130
0000
0110
0000
1001
0000
0000
,
0000
0020
0000
0031
1000
0000
0010
1000
,
0001
0200
0000
0301
1000
0000
0001
0010
,
0100
2000
0000
3100
0010
0000
0001
0100
,
0001
0000
1000
0010
0100
0010
0000
1000
,
0100
2000
0000
3001
0010
0000
0001
0100
,
0001
0020
0000
0031
1000
0000
0010
0100
,
0001
0100
0000
0100
0010
0000
0110
0000
,
0101
0000
0110
0000
1010
0000
1000
0001
,
1000
0200
0000
1300
0100
0000
1000
0010
,
0100
0002
0000
0013
0001
0000
1000
0001
,
0100
0020
0000
1030
0001
0000
0010
0001
,
0100
0000
0001
0010
0100
1000
0000
0001
,
1000
0020
0000
0130
0010
0100
0010
0100
,
0010
1000
0010
1000
0010
0001
0010
0001
,
0010
2000
0000
3001
0010
0100
0010
0001
,
1000
0200
0000
1300
0010
0000
1000
0001
,
1000
0001
1000
0000
1100
0000
1000
0010
,
0100
0000
0001
0010
0001
1000
0001
0100
,
0001
0000
0010
0000
0011
0000
0001
0100
,
0010
0000
1000
0010
1000
0001
1000
0100
,
1000
0000
0010
0000
0110
0000
0001
1000
,
0100
0000
1000
0001
0010
0001
1000
0001
,
1000
0000
0101
0000
0000
1010
0000
0000
,
1100
0000
0010
0001
0100
0010
1000
0100
,
0001
0200
0000
0000
0000
0000
0000
0000
,
1300
0001
0000
0000
0000
0000
0000
0000
;

//---------------dance-single - ----------------
#NOTES:
     dance-single:
     :
     Hard:
     15:
     0.798,0.889,0.518,0.289,0.160:
0000
0000
0000
0000
,
0000
0000
0000
0000
,
0000
0000
0000
0000
,
0000
0000
0000
0000
,
0000
0000
0000
0000
,
0000
0000
0000
0000
,
0000
0000
0000
0000
,
0000
0000
0000
0000
,
0000
0000
0000
0000
,
0000
0000
0000
0000
,
1000
0000
1100
0000
1000
0100
0010
0001
,
1000
0100
0010
0100
1000
0100
0010
0001
,
0100
0000
0101
0000
0001
0100
0010
0000
,
0100
0001
0010
0100
0010
0001
1000
0010
,
1000
0000
1001
0000
0010
0100
0001
0000
,
1000
0001
0100
0010
1000
0001
0010
0001
,
1000
0000
0100
1000
0010
0100
0001
0010
,
0001
0000
0000
0000
0100
0000
0010
0000
1000
0000
0001
0000
1000
0001
0100
0000
,
0001
0000
0101
0000
1100
0000
0101
0100
,
0001
0010
0001
1000
0100
0010
0100
1000
,
0010
0000
1010
0000
1100
0000
0110
0100
,
1000
0010
0100
0001
0010
0001
1000
0010
,
0100
0001
1000
0001
0000
1100
0000
0001
,
0010
0100
0010
0001
0000
1010
0000
1000
,
0100
1000
0001
0000
0100
0001
1000
0000
,
1010
0000
0000
0000
0110
0000
0000
0000
0001
1000
0100
1000
0001
0000
1000
0000
,
0001
0100
0101
0000
1100
0000
1010
0010
,
1000
0010
0100
0001
0010
0100
1000
0001
,
0010
0001
0101
0000
1100
0000
0110
0100
,
1000
0010
0100
0001
1000
0010
0001
0010
,
1000
0100
1100
0000
0110
0000
1100
0100
,
1000
0010
0100
0001
0010
1000
0010
0001
,
0100
0010
0110
0000
1000
0001
1001
0000
,
1000
0000
0100
0000
0020
0000
0000
0000
0031
1000
0010
0100
0010
0000
1000
0000
,
1010
0010
1000
0010
1010
0000
1100
0100
,
1000
0000
0100
0000
0010
0000
0100
1000
0001
0000
0100
0000
0001
0000
1000
0000
,
1001
1000
0001
0010
0011
0000
0010
0001
,
0100
0000
0010
0000
0100
0000
0001
1000
0010
0000
0000
0000
1100
0000
0100
0000
,
1000
0010
1010
0000
0110
0010
1000
0001
,
0100
0000
0001
1000
0100
0000
0010
0000
0001
0000
1000
0000
0001
0000
0100
0000
,
0010
0000
0000
0100
0000
0000
0201
0000
0000
0000
0000
0000
0310
0000
0000
0000
0000
0000
1000
0000
0000
0000
0100
0000
,
0000
0000
1100
0000
0000
0000
0120
0000
0000
0000
0000
0000
0031
0000
0000
2000
0000
0000
0000
0000
0000
3010
0000
0000
,
1000
0000
0001
0100
0010
0200
0000
0301
,
0010
0000
0001
1000
0100
0020
0000
0130
,
1000
0001
0100
0010
1000
0001
0000
1000
,
0100
0010
0000
0100
1000
0020
0000
0130
,
0010
0000
0100
0001
0100
0020
0000
1030
,
0001
0000
0010
0001
1000
0200
0000
1300
,
0001
0101
1100
0101
,
0011
0000
0001
1000
1000
0020
0000
1030
,
0100
0000
1000
0010
0100
0002
0000
0013
,
0001
0000
0100
0010
1000
0020
0000
0130
,
0001
0000
0010
0100
1000
0000
0010
0100
,
0001
0100
0000
0100
0010
2000
0000
3010
,
1000
0100
0100
0100
1000
0100
0100
0100
,
0001
0100
0100
0100
1000
0020
0000
0130
,
0010
0100
0010
0000
1000
0100
1000
0100
1000
0000
0002
0000
0000
0000
0103
0000
,
0010
0100
0010
0000
1000
0100
1000
0000
0001
0100
0001
0000
1000
0000
0000
0000
,
1000
1000
1000
0100
,
0100
0100
0100
0001
,
0001
0001
0001
0010
,
0010
0000
0010
0000
0010
0000
1000
0100
,
0000
1000
0000
0001
0000
0100
0000
0010
,
0000
0000
1000
0000
0001
0010
0001
0000
1000
0000
0100
0000
1000
0000
2001
0000
,
3001
0000
1002
0000
0103
0010
0100
0010
0100
0000
0010
0100
0020
0000
0000
0000
,
0000
2030
0100
3001
,
1000
0100
0000
1000
0100
0001
0000
0001
,
0100
1000
0010
0100
0001
0100
1000
0100
,
0001
0010
0100
1000
0001
0010
0002
0000
,
1003
0100
1000
0000
0001
0000
0100
0000
0100
0000
1000
0000
0100
0000
0100
0000
,
0001
0000
0010
0000
0010
0000
0001
0000
1001
0000
0000
0000
0010
0100
0001
0100
,
0010
1000
1001
0000
0100
1100
0000
0010
,
0011
0000
0000
0000
1000
0000
0100
0000
0010
0000
0001
0000
1000
0001
1000
0001
,
1000
0020
0000
0130
0001
0000
0101
0000
,
1100
0011
1010
1001
,
1010
0000
0120
0000
0000
0000
1030
0000
0100
0000
0000
0000
1000
0001
1000
0001
,
0010
0000
0000
0100
0000
0000
0010
0000
0000
0000
0000
0000
0011
0000
0000
0000
0000
0000
0000
0000
1100
0000
0000
0000
0000
0000
0000
0000
0102
0000
0000
0000
0000
0000
0000
0000
0000
0000
0000
0000
0000
0000
0000
0000
0000
0000
0000
0000
,
0000
2003
0000
0000
0000
0000
0000
0000
,
0000
3002
0000
0000
0000
0000
0000
0000
,
0000
0023
0000
0000
0000
0000
0000
0000
,
0000
0130
0000
0110
0000
1001
0000
0000
,
0000
2010
0000
3001
0100
0000
0001
0010
,
0100
2000
0000
3010
1000
0000
0010
0100
,
0001
0020
0000
0031
1000
0100
1000
0010
,
0100
0001
0000
1000
0010
0001
0000
1000
,
0100
0002
0000
0013
0100
0000
0010
0001
,
0100
0020
0000
1030
0001
0000
0010
0100
,
1000
0200
0000
1300
0010
0000
1010
0000
,
1001
0000
1100
0000
0110
0000
0011
0010
,
0010
0002
0000
1003
0010
0000
0100
0010
,
1000
0001
0000
0010
0001
0100
0010
1000
,
0001
0200
0000
0310
1000
0000
0001
0010
,
0100
0000
1000
0010
0100
0001
0000
0100
,
0010
0000
2000
0000
0000
0000
3010
0000
0100
0000
0010
1000
0010
0000
1000
0000
,
1000
0000
0001
0000
0010
0000
0100
0000
0100
0000
0010
0001
0010
0000
0001
0000
,
0001
0000
2000
0000
0000
0000
3001
0000
0100
0000
0001
1000
0010
0100
0010
0100
,
0010
0000
2000
0000
0000
0000
3010
0000
0100
0001
0100
0001
1000
0001
1000
0001
,
1000
0001
1000
0001
1000
0000
0100
0000
0010
0000
0100
0000
1000
0000
0010
0000
,
0000
1000
0100
1000
0001
0100
0010
0100
,
0001
0100
0001
0010
0100
0010
0001
1000
,
0000
0001
0010
1000
0010
0001
0100
1000
,
0100
0001
1000
0100
0010
0100
1000
0010
,
0000
1000
0001
0100
0010
1000
0001
0010
,
0100
1000
0001
0000
0101
0000
0001
0000
1000
0000
1001
0000
0000
0000
1000
0000
,
1100
0000
0001
0010
0010
0010
0100
0100
,
0010
0120
0000
0000
0000
0000
0000
0000
,
0031
1001
0000
0000
0000
0000
0000
0000
;

//---------------dance-single - ----------------
#NOTES:
     dance-single:
     :
     Challenge:
     16:
     0.937,1.000,0.792,0.327,0.316: // measure 1
0000
0000
0000
0000
,  // measure 2
0000
0000
0000
0000
,  // measure 3
0000
0000
0000
0000
,  // measure 4
0000
0000
0000
0000
,  // measure 5
0000
0000
0000
0000
,  // measure 6
0000
0000
0000
0000
,  // measure 7
0000
0000
0000
0000
,  // measure 8
0000
0000
0000
0000
,  // measure 9
0000
0000
0000
0000
,  // measure 10
0000
0000
0000
0000
,  // measure 11
0010
0000
1010
0010
1000
0100
1000
0001
,  // measure 12
1000
0100
0010
0001
1000
0010
0001
0010
,  // measure 13
1000
0000
1100
0100
1000
0001
0100
0001
,  // measure 14
1000
0010
0100
0001
1000
0010
0001
0010
,  // measure 15
0100
0000
0110
0010
1000
0001
1000
0010
,  // measure 16
1000
0100
0010
0001
1000
0100
0001
0100
,  // measure 17
1000
0100
1100
0000
0001
0100
0101
0000
,  // measure 18
1000
0000
0010
0000
1010
0000
0000
0000
0001
0000
0010
0000
0001
1000
0001
1000
,  // measure 19
0010
0100
0110
0000
0101
0000
1001
0001
,  // measure 20
0010
0001
0100
1000
0100
0001
0010
0100
,  // measure 21
1000
0100
1100
0000
1001
0000
1010
0010
,  // measure 22
1000
0010
0100
0001
1000
0010
0001
0010
,  // measure 23
0100
0010
1010
0000
1001
0000
1100
0100
,  // measure 24
0010
0001
0100
0001
1000
0010
0100
0001
,  // measure 25
2000
0100
0000
0001
0000
0010
0000
3001
,  // measure 26
0200
0000
0001
0000
0000
0000
0310
0000
0100
0010
0100
0010
1000
0010
1000
0010
,  // measure 27
1000
0001
0101
0000
1100
0000
0011
0001
,  // measure 28
1000
0001
0010
0100
1000
0010
0001
0010
,  // measure 29
1000
0100
0110
0000
1100
0000
0110
0010
,  // measure 30
0001
0100
0010
1000
0001
0010
0100
1000
,  // measure 31
0001
0100
0101
0000
0110
0000
1010
0010
,  // measure 32
1000
0100
0010
0001
1000
0100
0001
0100
,  // measure 33
2000
0001
0000
0100
0000
0001
0000
3010
,  // measure 34
0002
0000
0100
0000
0000
0000
1003
0000
0010
0100
0010
0100
0001
0100
0001
0100
,  // measure 35
0001
0010
0001
0100
0101
0100
0001
1000
,  // measure 36
0010
1000
0100
1000
1100
0100
1000
0010
,  // measure 37
0100
0010
1000
0001
1001
1000
0100
0010
,  // measure 38
0100
0000
1000
0000
0001
0000
0100
0010
2000
0000
0000
0000
3010
0000
0100
0000
,  // measure 39
0001
0010
0011
0001
1000
0010
1000
0100
,  // measure 40
0010
0100
0110
0100
1000
0010
0100
0001
,  // measure 41
1000
0000
0000
0001
0000
0000
0011
0000
0000
0001
0000
0000
1000
0000
0000
0001
0000
0000
0101
0000
0000
0000
1100
0000
,  // measure 42
0000
0000
0011
0000
0000
0000
2001
0000
0000
0000
0000
0000
3010
0000
0000
0210
0000
0000
0000
0000
0000
0301
0000
0000
,  // measure 43
0101
0000
0000
0001
1000
0000
0001
0000
1000
0000
0200
0000
0000
0000
0310
0000
,  // measure 44
0100
0000
0000
1000
0010
0000
0100
0000
0010
0000
2000
0000
0000
0000
3010
0000
,  // measure 45
1000
0000
0000
0001
0100
0000
0001
0000
1000
0000
0200
0000
0000
0000
0310
0000
,  // measure 46
0100
0000
0000
1000
0010
0000
0100
0000
0001
0000
0020
0000
0000
0000
0031
0000
,  // measure 47
0100
0000
0000
0001
1000
0000
0001
0000
0010
0000
0002
0000
0000
0000
1003
0000
,  // measure 48
0100
0000
0000
1000
0001
0000
1000
0000
0010
0000
0200
0000
0000
0000
0310
0000
,  // measure 49
1010
0011
1100
0101
,  // measure 50
1001
0000
1100
0100
0100
1200
0000
1300
,  // measure 51
0001
0000
0000
0100
0001
0000
0010
0000
0001
0000
2000
0000
0000
0000
3010
0000
,  // measure 52
1000
0000
0000
0010
0100
0000
0010
0000
1000
0000
0002
0000
0000
0000
0013
0000
,  // measure 53
0001
0000
0000
1000
0100
0000
1000
0000
0001
0000
0200
0000
0000
0000
0310
0000
,  // measure 54
1000
0000
0000
0001
0100
0000
0001
0000
1000
0000
0020
0000
0000
0000
0130
0000
,  // measure 55
0001
0000
0100
0010
0100
0000
0100
0000
0001
0000
0100
0010
0100
0000
0100
0000
,  // measure 56
1000
0000
0100
0010
0100
0000
0100
0000
0001
0000
2000
0000
0000
0000
3001
0010
,  // measure 57
0001
1000
0001
1000
0010
1000
0010
1000
0010
0100
0020
0000
0000
0000
1030
0000
,  // measure 58
0001
1000
0100
0000
1000
0001
0100
0000
0010
1000
0100
0000
0110
0000
0000
0000
,  // measure 59
0011
0000
0011
0000
0101
0100
0001
0010
,  // measure 60
0001
1000
0010
0100
0010
1000
0010
0010
,  // measure 61
1000
0010
0010
0010
0001
0010
0010
0010
,  // measure 62
1000
0100
0001
0100
1000
0010
0100
0101
,  // measure 63
0001
1001
1000
1100
1000
1001
0001
0101
,  // measure 64
0001
0000
1001
0000
0010
0100
0010
0100
0001
1000
0001
0100
0010
0000
1010
0000
,  // measure 65
1001
0000
1001
0000
1000
0100
1000
0100
1000
0001
1000
0001
1000
0100
0010
0001
,  // measure 66
2000
0000
3001
0010
0000
0011
0000
0001
,  // measure 67
0100
1000
0000
1000
0100
0001
0000
0001
,  // measure 68
0010
0000
0100
1000
0001
0000
1000
0000
0100
0000
0001
0000
0100
0000
1000
0000
,  // measure 69
0010
0000
0100
0000
0001
0000
0010
0000
1000
0000
0010
0000
0001
0010
0100
1000
,  // measure 70
0001
0100
0101
0001
0001
1100
1000
1000
,  // measure 71
0011
0000
0001
0000
0001
0000
1010
0000
1010
0000
1000
0000
0010
0100
0010
0100
,  // measure 72
0001
0100
0001
0100
0010
0000
0100
0000
0100
0000
0001
0000
0010
0000
0010
0000
,  // measure 73
0001
0000
1000
0000
0001
0000
0010
0000
0001
0000
0011
0000
1000
0100
1000
0010
,  // measure 74
1000
0002
0000
0103
0110
0000
0110
0000
,  // measure 75
0110
1010
1010
1001
,  // measure 76
1100
0000
0012
0000
0000
0000
1003
0000
0001
1000
0001
0100
0010
1000
0010
1000
,  // measure 77
0020
0000
0000
1030
0000
0011
0000
2001
0000
0000
0000
0000
,  // measure 78
0000
3020
0000
0000
0000
0000
0000
0000
,  // measure 79
0000
0230
0000
0000
0000
0000
0000
0000
,  // measure 80
0000
0302
0000
0000
0000
0000
0000
0000
,  // measure 81
0000
1003
0000
1100
0000
0101
0000
0010
,  // measure 82
0000
0000
2001
0000
0000
0000
3010
0000
1000
0000
0000
0001
0100
0000
0001
0000
,  // measure 83
0010
0000
0002
0000
0000
0000
1003
0000
0100
0000
0000
1000
0010
0000
1000
0000
,  // measure 84
0001
0000
0200
0000
0000
0000
0310
0000
1000
0000
0000
0001
0100
0000
0001
0000
,  // measure 85
0010
0002
0000
1003
0100
0002
0000
0103
,  // measure 86
1000
0000
0020
0000
0000
0000
0130
0000
0010
0000
0000
1000
0010
0000
0100
0000
,  // measure 87
0010
0000
2000
0000
0000
0000
3001
0000
0010
0000
0000
0100
0010
0000
0001
0000
,  // measure 88
0100
0010
1000
0010
1010
0000
1001
0000
,  // measure 89
1001
0000
1100
0000
0011
0000
1001
1001
,  // measure 90
1001
0000
0102
0000
0000
0000
1003
0000
0010
0000
0100
0001
1000
0000
0001
0000
,  // measure 91
0010
0000
0002
0000
0000
0000
1003
0000
0100
0000
0010
0100
1000
0000
0010
0000
,  // measure 92
0100
0000
0020
0000
0000
0000
1030
0000
0001
0000
0010
0001
1000
0000
0001
0000
,  // measure 93
0100
0001
0010
0001
0101
0000
0010
1000
,  // measure 94
0100
0000
0210
0000
0000
0000
0310
0000
0001
0000
0100
0001
0100
0000
0100
0000
,  // measure 95
1000
0000
0100
1000
0100
0000
0100
0000
0010
0000
0100
0001
0100
0000
0100
0000
,  // measure 96
0010
0000
2001
0000
0000
0000
3001
0000
0010
0001
0010
0001
0100
0001
0100
0001
,  // measure 97
0100
0010
0200
0000
0000
0000
0310
0000
1000
0010
1000
0000
0001
0010
0001
0000
,  // measure 98
1000
0001
1000
0001
1000
0000
0100
0000
1100
0000
0100
0000
1000
0000
0010
0000
,  // measure 99
1010
0010
1000
0100
0001
0100
1000
0100
,  // measure 100
0010
0001
0100
0001
0011
0001
0100
0001
,  // measure 101
1001
0001
0100
0001
0010
1000
0010
0001
,  // measure 102
0100
0010
1000
0001
0101
0001
1000
0100
,  // measure 103
1100
0000
0100
0000
1000
0000
0010
0000
0100
0000
0001
0000
1000
0010
1000
0010
,  // measure 104
0100
0001
0100
0000
0101
0000
0100
0000
0100
0000
1100
0000
0100
0000
0100
0000
,  // measure 105
0011
0010
0010
1010
0010
0010
0110
0110
,  // measure 106
0110
0220
0000
0000
0000
0000
0000
0330
,  // measure 107
1001
1001
0000
0000
0000
0000
0000
0000
;
