#TITLE:Brain Power;
#SUBTITLE:;
#ARTIST:ノマ;
#TITLETRANSLIT:;
#SUBTITLETRANSLIT:;
#ARTISTTRANSLIT:NOMA;
#GENRE:;
#CREDIT:;
#MENUCOLOR:;
#METERTYPE:DDR;
#BANNER:Brain Power.png;
#BACKGROUND:Brain Power-bg.png;
#LYRICSPATH:;
#CDTITLE:./CDTITLES/SOUND VOLTEX.PNG;
#MUSIC:Brain Power.ogg;
#OFFSET:0.000;
#SAMPLESTART:71.947;
#SAMPLELENGTH:15.000;
#SELECTABLE:YES;
#LISTSORT:;
#BPMS:0.000=170.000,168.000=170.100,172.000=170.200,176.000=170.300,180.000=170.420,184.000=170.550,188.000=170.700,192.000=171.000,196.000=171.300,200.000=171.800,204.000=172.400,208.000=173.000;
#STOPS:;
#BGCHANGES:0.000=Brain Power.avi=1.000=0=0=0,
99999=-nosongbg-=1.000=0=0=0 // don't automatically add -songbackground-
;
#ATTACKS:;

//---------------dance-single - ----------------
#NOTES:
     dance-single:
     t7r:
     Beginner:
     3:
     0.143,0.226,0.025,0.051,0.000:
0000
0000
0000
0000
,
0000
0000
0000
0000
,
0000
0000
0000
0000
,
0000
0000
0000
0000
,
0000
0000
0000
0000
,
0000
0000
0000
0000
,
1000
0000
1000
0000
,
1000
0000
0000
0000
,
0001
0000
0001
0000
,
0001
0000
0000
0000
,
0100
0000
0100
0000
,
0100
0000
0000
0000
,
0010
0000
0010
0000
,
0010
0000
0000
0000
,
1001
0000
0000
0000
,
0100
0000
0000
0000
,
0010
0000
1000
0000
,
0001
0000
0000
0000
,
1000
1000
1000
0000
,
0000
0000
0000
0000
,
0001
0001
0001
0000
,
0000
0000
0000
0000
,
0100
0000
0000
0000
,
0000
0000
0000
0000
,
0010
0000
0000
0000
,
1000
0000
0001
0000
,
1000
1000
0000
0000
,
0001
0001
0000
0000
,
0010
0000
0010
0000
,
0000
0000
0100
0100
,
0100
0000
0000
0000
,
0000
0000
0000
0010
,
0010
0010
0000
0000
,
0000
0000
0000
0000
,
0002
0000
0000
0000
,
0003
0000
0000
0000
,
2000
0000
0000
0000
,
3000
0000
0000
0000
,
0020
0000
0000
0000
,
0030
0000
0000
0000
,
0200
0000
0000
0000
,
0300
0000
0000
0000
,
0010
0000
0010
0000
,
0010
0000
0000
0000
,
1000
0000
1000
0000
,
1000
0000
0000
0000
,
0001
0000
0001
0000
,
0001
0000
0000
0000
,
1000
0000
0001
0000
,
0100
0000
0000
0000
,
0010
0000
0010
0000
,
1000
0000
0000
0000
,
1001
0000
0000
0000
,
1000
1000
1000
0000
,
0001
0000
0000
0000
,
0010
0010
0010
0000
,
0100
0000
0000
0000
,
0010
0010
0010
0000
,
0001
0000
0000
0000
,
1000
1000
1000
0000
,
0010
0000
0000
0000
,
1000
1000
1000
0000
,
0001
0000
0000
0000
,
0100
0100
0100
0000
,
0001
0000
0000
0000
,
0010
0010
0010
0000
,
0100
0000
0000
0000
,
1000
1000
1000
0000
,
0001
0000
1000
0000
,
0001
0001
0001
0000
,
1000
0000
0001
0000
,
0100
0100
0100
0000
,
0020
0000
0030
0000
,
1000
1000
1000
0000
,
0002
0000
0003
0000
,
0100
0100
0100
0000
,
1001
0000
0000
0000
;

//---------------dance-single - ----------------
#NOTES:
     dance-single:
     t7r:
     Easy:
     6:
     0.327,0.397,0.068,0.212,0.000:
0000
0000
0000
0000
,
0000
0000
0000
0000
,
0000
0000
0000
0000
,
0000
0000
0000
0000
,
0000
0000
0000
0000
,
0000
0000
0000
0000
,
0001
1000
0001
1000
,
0010
0100
0010
0100
,
0001
0010
0001
0010
,
0100
1000
0100
1000
,
0001
0100
0001
0100
,
0010
1000
0010
1000
,
0100
0010
0100
0010
,
0100
1000
0100
1000
,
0002
1000
1000
1003
,
0020
0100
0100
0130
,
0002
0013
2000
3100
,
2002
0000
0000
3003
,
0110
0010
1000
0010
,
0000
1000
0100
1000
,
0001
0100
0001
0010
,
0000
0001
1000
0100
,
0010
0100
0000
0100
,
0010
0001
0000
0001
,
0100
0010
0000
0010
,
2000
0000
0001
3001
,
1000
0100
1000
0100
,
0010
0001
0010
0001
,
1000
0010
1000
0010
,
0100
0001
0100
0100
,
0010
1000
0000
0001
,
1000
0100
0000
1000
,
0001
0010
0000
0001
,
1000
0010
0100
0010
,
2000
0000
0001
3001
,
0020
0000
0100
0130
,
0002
0000
0010
0013
,
2000
0000
0100
3100
,
2000
0000
0010
3010
,
0200
0000
0001
0301
,
0020
0000
0100
0130
,
0020
0000
0001
1030
,
0010
0001
0100
0001
,
0010
0001
1000
0001
,
1000
0100
0010
0001
,
1000
0010
0100
0010
,
1000
0100
0000
1000
,
0001
0010
0000
0001
,
0100
0010
0000
0100
,
0001
1000
0000
0001
,
1000
1000
0001
0001
,
0100
0000
0110
0000
,
2010
0000
0000
0000
,
0010
0010
0001
3100
,
0002
0000
0000
0000
,
0010
0010
1000
0103
,
2000
0000
0000
0000
,
0010
0010
0100
3010
,
0002
0000
0000
0000
,
0100
0100
0010
0103
,
2000
0100
0000
3100
,
1000
0010
0100
0001
,
0020
0001
0000
1030
,
0001
0100
0010
1000
,
0002
0010
0000
1003
,
0100
0010
1000
0001
,
0200
0010
0000
1300
,
0001
0100
0010
1000
,
0001
1000
0000
0010
,
1000
0100
0010
0001
,
1000
0001
0000
0010
,
0001
0100
0010
1000
,
1001
0001
0001
0001
,
1001
1000
1000
1000
,
0110
0010
1000
0100
,
0010
0001
1000
0010
,
0220
0000
0000
0000
,
0000
0000
0000
0000
,
0330
0000
0000
0000
;

//---------------dance-single - ----------------
#NOTES:
     dance-single:
     t7r:
     Medium:
     9:
     0.505,0.529,0.093,0.238,0.017:
0000
0000
0000
0000
,
0000
0000
0000
0000
,
0000
0000
0000
0000
,
0000
0000
0000
0000
,
0000
0000
0000
0000
,
0000
0000
0000
0000
,
0001
0010
0001
0000
0001
1000
0001
0000
,
1000
0010
1000
0000
1000
0001
1000
0000
,
0100
1000
0100
0000
0100
0010
0100
0000
,
1000
0010
0100
0001
2000
0000
3001
0000
,
1000
0100
1000
0000
1000
0100
1000
0000
,
1000
0010
1000
0000
1000
0010
1000
0000
,
0001
0100
0001
0000
0001
0100
0001
0000
,
0001
0010
0001
0000
0001
1000
0001
0000
,
1000
0010
0100
0000
0001
0010
0100
0000
,
1000
0001
0100
0000
0001
1000
0010
0000
,
1000
0100
0010
0000
0001
0100
0010
0000
,
1000
0000
0000
0001
0000
0000
1000
0000
0000
0010
0000
0000
0100
0000
0001
0000
,
1000
0100
0010
0100
0000
1000
0010
0000
,
0100
0000
0001
0000
1000
0001
0100
0000
,
0001
0010
0100
0010
0000
0001
0100
0000
,
0001
0000
0010
0000
0001
1000
0100
0000
,
1000
0000
0010
0000
0100
0010
1000
0000
,
0001
0000
0010
0000
0100
0010
0001
0000
,
1000
0000
0001
0000
0100
0001
1000
0000
,
0210
0000
0301
1000
0002
0000
2003
0000
,
3001
0010
0001
0000
1000
0000
0100
0000
,
1000
0010
1000
0000
0001
0000
0100
0000
,
0001
0010
0100
0000
0010
0000
0001
0000
,
1000
0010
0100
0000
0010
0000
1000
0000
,
0001
0000
0100
0001
0000
1000
0100
1000
,
0000
0001
0010
0001
0000
1000
0010
0000
,
0100
0000
0010
1000
0000
0001
0010
0001
,
1000
0000
0001
1000
0200
0000
0320
0000
,
0230
0000
0000
0000
1000
1000
1300
0000
,
0002
0000
0000
0000
0100
0100
0103
0000
,
0020
0000
0000
0000
1000
1000
1030
0000
,
0200
0000
0010
0010
0010
0000
1300
0000
,
0002
0000
0000
0000
0010
0010
0013
0000
,
2000
0000
0000
0000
0100
0100
3100
0000
,
0020
0000
0000
0000
0100
0100
0130
0000
,
0002
0000
1003
0001
0200
0000
0302
0000
,
1003
0100
1000
0001
0000
0100
0001
1000
,
0000
0001
1000
0100
0000
1000
0001
0000
,
0010
0001
0010
0100
0000
0010
0001
1000
,
0000
0010
1000
0001
0000
1000
0001
0000
,
0100
0010
1000
0010
0000
0100
0001
0010
,
0000
0100
1000
0010
0000
0100
0001
0000
,
1000
0010
0100
0010
0000
1000
0001
0100
,
0000
0001
1000
0100
0000
0010
0001
0000
,
0100
0001
0010
0000
0100
1000
0010
0000
,
0100
0000
0000
0010
0000
0000
0100
0000
0000
0110
0000
0000
0001
0000
0000
0000
,
2000
0100
0001
3010
,
1000
0100
0010
0001
1000
0000
0001
0000
,
0200
0001
0010
1300
,
0001
0010
0100
1000
0001
0000
0010
0000
,
0002
0100
1000
0013
,
1000
0010
0100
0001
1000
0000
0010
0000
,
2000
0100
0001
3010
,
0100
0010
1000
0001
0010
0000
0001
0000
,
2000
0100
3010
1010
,
0001
0100
0010
1000
0001
0000
0010
0000
,
0002
0100
0013
0011
,
1000
0100
0010
0001
1000
0000
0010
0000
,
0200
0010
1300
0110
,
0010
1000
0001
0100
0001
0000
0010
0000
,
0002
0100
1003
1001
,
0010
0001
0100
0010
1000
0000
0001
0000
,
2000
3100
1000
1001
,
0001
0100
0010
1000
0100
0000
0110
0000
,
0020
0031
0100
0110
,
0010
0100
0001
1000
0001
0000
1001
0000
,
1000
0010
1000
0010
0100
0010
1000
0000
,
0001
0010
0001
0010
0100
0010
0001
0000
,
1000
0100
1000
0100
0001
0100
0001
0100
,
1000
0010
0100
0001
1000
0000
0001
0000
,
0220
0000
0000
0000
,
0000
0000
0000
0000
,
0330
0000
0000
0000
;

//---------------dance-single - ----------------
#NOTES:
     dance-single:
     t7r:
     Hard:
     13:
     0.692,0.794,0.212,0.161,0.174:
0000
0000
0000
0000
,
0000
0000
0000
0000
,
0000
0000
0000
0000
,
0000
0000
0000
0000
,
0000
0000
0000
0000
,
0000
0000
0000
0000
,
0010
1000
0100
1000
0010
1000
0100
1000
,
0010
0100
0001
0100
0010
0100
0001
0100
,
0001
0010
0100
1000
0001
0010
0100
1000
,
0001
0000
0000
0100
0000
0000
0010
0000
0000
1000
0000
0000
0001
0000
0010
0000
0001
0000
1000
0000
0000
0010
0000
0000
,
1000
0100
0010
0100
1000
0100
0010
0100
,
1000
0010
0100
0001
1000
0010
0100
0001
,
1000
0010
0100
0010
1000
0010
0100
0010
,
1000
0100
0010
0100
1000
0100
0010
0100
,
1000
0001
1000
0000
0001
0000
0100
0000
0001
0000
0010
0000
0100
0000
0010
0000
,
0001
1000
0001
0000
1000
0000
0100
0000
1000
0010
1000
0000
0001
0000
0100
0000
,
0001
0000
0010
0001
0010
0000
0001
0000
1000
0010
1000
0000
0001
0100
0001
1000
,
0001
0000
0000
1001
0000
0000
1010
0000
0000
0110
0000
0000
0001
0000
1000
0000
,
0100
1000
0010
0100
0010
1000
0001
0100
,
0000
0001
0010
0100
0010
0001
1000
0100
,
0010
0100
0010
0001
0100
0010
0100
0001
,
0000
1000
0010
0100
0010
1000
0001
0001
,
0010
0001
0101
0000
0010
1000
0001
0000
,
1000
0100
0110
0000
0100
1000
0010
0000
,
0100
0001
1001
0000
0010
1000
0001
0000
,
0210
0000
0000
0301
0100
0010
1000
0000
0000
0110
0000
0000
,
0001
0010
0100
1000
0001
0100
0010
0100
,
0001
0010
0100
1000
0001
0100
0010
0100
,
0010
1000
0001
0100
0010
1000
0100
0010
,
0100
1000
0001
0010
0001
0100
0010
0010
,
0100
0001
0011
0000
1000
0001
0100
0000
,
0010
1000
1100
0000
1000
0001
0010
0001
,
0100
0010
0110
0000
0010
1000
0100
0010
,
0100
0000
0000
1000
0000
0000
0001
0000
0000
0100
0000
0000
0001
0000
0000
0000
1000
0000
0001
0000
1000
0000
0010
0000
,
0200
0000
0000
0000
0010
0010
0310
0010
,
2000
0000
0000
0001
0000
0000
0001
0000
0001
0000
0000
0000
3001
0000
0000
0000
,
0020
0000
0031
0010
0100
0100
0100
0000
,
2000
0000
3010
0100
0001
0001
0001
0000
,
2001
0000
0000
0000
0000
0000
0000
0000
0010
0000
0000
0010
0000
0000
3010
0000
,
0210
0000
0000
0000
1000
1000
1300
0000
,
0102
0000
0010
0010
0000
0000
0013
0000
,
1200
0000
0000
0301
0100
1000
0001
0000
0000
1001
0000
0000
,
0010
0100
0001
0100
0010
0100
0001
0100
,
0010
1000
0001
0100
0010
1000
0001
0100
,
0001
0010
0100
0010
0001
0010
0100
0010
,
0001
0010
0100
1000
0001
0010
0100
0100
,
0010
0001
1000
0100
0010
0001
1000
0100
,
1000
0010
0100
0001
1000
0010
0100
0001
,
1000
0100
0001
0100
1000
0100
0001
0100
,
1000
0010
0001
0010
1000
0010
0001
0010
,
1000
0000
1000
0000
0100
0000
0100
0000
0010
0001
1000
0001
1000
0000
0001
1000
,
0100
0000
0000
1100
0000
0000
0011
0000
0000
1001
0000
0000
0110
0000
0010
0000
,
2000
0000
3010
1000
0100
1000
0010
0010
,
0100
0001
0010
0010
0100
1000
0100
0010
,
0002
0000
0103
0001
0010
0001
1000
1000
,
0001
0010
0100
1000
0010
0100
0001
1000
,
0200
0000
1300
1000
0010
1000
0001
0001
,
0100
0001
0010
0100
0010
0001
0100
0010
,
2000
0000
3010
0010
0100
0010
0010
1000
,
0010
0100
0001
0010
0100
1000
0001
0001
,
2001
0000
3010
0000
1000
0100
0011
0000
,
1000
0100
0001
0100
1000
0010
0100
0001
,
0020
0000
0031
0000
0100
0001
0010
0000
,
0001
0010
1000
0010
0001
0100
1000
0100
,
0002
0000
0103
0000
0010
1000
0100
0000
,
1000
0010
0100
0001
0010
0001
0100
0001
,
0020
0000
0130
0000
0010
0001
0100
0000
,
0001
0010
0100
1000
0001
0100
0010
0010
,
0100
0000
0001
0000
0100
0001
0000
0100
0010
0000
0100
0000
0001
0100
0000
0010
,
0100
0001
0010
0100
1000
0100
0010
0001
,
1000
0000
0010
0000
0100
0010
0000
1000
0010
0000
0100
0000
0010
1000
0000
0010
,
0100
0010
1000
0100
0010
0001
1000
0010
,
0100
0010
0100
0010
0100
0000
0010
0000
1000
0000
0001
0000
0100
0000
0001
0000
,
1000
0001
1000
0001
1000
0000
0100
0000
0010
0000
0001
0000
1000
0000
0010
0000
,
0100
0001
0100
0101
1000
0100
1000
1100
,
0001
0010
0100
0010
0001
0000
1000
0000
0010
1000
0001
1000
0010
0000
0100
0000
,
0220
0000
0000
0000
,
0000
0000
0000
0000
,
0330
0000
0000
0000
;

//---------------dance-single - ----------------
#NOTES:
     dance-single:
     t7r:
     Challenge:
     16:
     0.934,1.000,0.518,0.187,0.747: // measure 1
0000
0000
0000
0000
,  // measure 2
0000
0000
0000
0000
,  // measure 3
0000
0000
0000
0000
,  // measure 4
0000
0000
0000
0000
,  // measure 5
0000
0000
0000
0000
,  // measure 6
0000
0000
0000
0000
,  // measure 7
1000
0001
1100
0001
1000
0001
1100
0001
,  // measure 8
1000
0010
0101
0010
1000
0010
0101
0010
,  // measure 9
1000
0100
0011
0100
1000
0100
0011
0100
,  // measure 10
1000
0000
0000
0001
0000
0000
0100
0000
0000
0110
0000
0000
0010
0000
1000
0000
0001
0000
0100
0000
0000
0001
0000
0000
,  // measure 11
1000
0000
0100
1000
0001
0000
0100
0000
0001
0000
0010
0000
0100
0000
1000
0000
,  // measure 12
0001
0000
0100
0001
1000
0000
0001
0000
1000
0000
0010
0000
0100
0000
0001
0000
,  // measure 13
1000
0000
0010
1000
0001
0000
1000
0000
0001
0000
0010
0000
0100
0000
1000
0000
,  // measure 14
0001
0000
0010
0001
1000
0000
0001
0000
1000
0000
0100
0000
0010
0000
0001
0000
,  // measure 15
1000
0010
1000
0010
1000
0010
1000
0010
1000
0000
0001
0000
0100
0000
0001
0000
,  // measure 16
1000
0100
1000
0100
1000
0100
1000
0100
0010
0000
0100
0000
1000
0000
0001
0000
,  // measure 17
0100
0010
0100
0010
0100
0010
0100
0010
1000
0001
1000
0001
1000
0001
1000
0001
,  // measure 18
1000
0000
0000
1100
0000
0000
0011
0000
0000
1001
0000
0000
0110
0000
1001
0000
,  // measure 19
0001
0100
1010
0100
0001
1000
1001
1000
,  // measure 20
0100
0010
0110
0100
1000
0010
0110
0010
,  // measure 21
1000
0001
0110
0001
1000
0001
0101
0001
,  // measure 22
1000
0100
0110
0100
1000
0010
0100
0100
,  // measure 23
0110
0010
1010
1000
0001
0100
0101
0001
,  // measure 24
1000
0100
1100
1000
0010
0100
0110
0010
,  // measure 25
1000
0001
0011
0001
1000
0001
0101
0001
,  // measure 26
2000
0000
0000
3010
0100
0001
2000
0000
0000
3002
0000
0000
,  // measure 27
1003
0100
0011
0100
1000
0100
0011
0100
,  // measure 28
1000
0010
0101
0010
1000
0010
0101
0010
,  // measure 29
1000
0001
0110
0001
1000
0001
0110
0001
,  // measure 30
0010
0100
1100
0010
0001
0100
0110
0010
,  // measure 31
1010
0001
1001
0001
0010
0100
1100
1000
,  // measure 32
0010
0100
0110
0010
1000
0001
1001
0001
,  // measure 33
0010
0001
0101
0001
1000
0010
0110
0010
,  // measure 34
1000
0000
0000
0010
0000
0000
1010
0000
0000
0010
0000
0000
2000
0000
0000
0000
3001
0000
0100
0000
0001
0000
0010
0000
,  // measure 35
0002
0000
0000
0000
0000
0000
0000
0000
0000
0000
0000
0000
0103
0000
0001
0000
1000
0000
0010
0000
0000
1000
0000
0000
,  // measure 36
0010
0000
0000
0000
0000
0000
0100
0000
0000
0010
0000
0000
0000
0000
0000
0100
0000
0000
0001
0000
0000
0000
0000
0000
0100
0000
0000
0000
0010
0000
0000
0000
1000
0000
0000
0000
0002
0000
0000
0000
0000
0000
0000
0000
0000
0000
0000
0000
,  // measure 37
2003
0000
0000
0000
0000
0000
3001
1000
0100
0000
0100
0000
1000
0000
0100
0000
,  // measure 38
0010
0000
0001
1000
0010
0000
0100
0000
0010
0100
0010
0100
0001
0010
0100
1000
,  // measure 39
0002
0000
0000
0000
0000
0000
0013
0001
1000
0000
0001
0100
0000
0001
0010
0000
,  // measure 40
0002
0000
0000
0000
0000
0000
0000
0000
0000
0000
0000
0000
0000
0000
0000
0000
0000
0000
1003
0000
0000
0100
0000
0000
0010
0000
0000
0000
0100
0000
0000
0000
1000
0000
0000
0000
0002
0000
0000
0000
0000
0000
0000
0000
0000
0000
0000
0000
,  // measure 41
1003
0000
0000
0000
0000
0000
0010
0000
0000
1000
0000
0000
0000
0000
0000
0010
0000
0000
0100
0000
0000
0000
0000
0000
0002
0000
0000
0000
0000
0000
0000
0000
1003
0000
0000
0000
0001
0000
0000
0000
0100
0000
0000
0000
0001
0000
0000
0000
,  // measure 42
0020
0000
0000
0000
0000
0000
0000
0000
0031
0000
0000
0000
0010
0000
0000
0000
0100
0000
0000
0000
1000
0000
0000
0000
0001
0000
0000
0100
0000
0000
0001
0000
0000
0100
0000
0000
0001
0000
0000
0010
0000
0000
0100
0000
0000
1000
0000
0000
,  // measure 43
0001
0000
0010
0000
0101
0000
0010
1000
0001
0000
1000
0000
0100
0000
0010
0000
,  // measure 44
0100
0000
1000
0000
0011
0000
1000
0010
0100
0000
0010
0000
1000
0000
0001
0000
,  // measure 45
0100
0000
0001
0000
0110
0000
0001
0010
0100
0000
1000
0000
0010
0000
0100
0000
,  // measure 46
0001
0000
1000
0000
0110
0000
0001
1000
0010
0000
1000
0000
0100
0000
0100
0000
,  // measure 47
0010
0000
0100
0000
1100
0000
0100
0010
0001
0000
0100
0000
0010
0000
1000
0000
,  // measure 48
0010
0000
0100
0000
0101
0000
0100
0010
1000
0000
0001
0000
0010
0000
0001
0000
,  // measure 49
1000
0000
0100
0000
0110
0000
0100
1000
0010
0000
0100
0000
0001
0000
0010
0000
,  // measure 50
0001
0000
0100
0000
0110
0000
0100
0001
0010
0000
0001
0000
1000
0000
0010
0000
,  // measure 51
0100
0000
0100
0000
0010
0000
0010
0000
1000
0100
0010
0001
1000
0010
0100
0001
,  // measure 52
1000
0000
0000
1100
0000
0000
0101
0000
0000
1010
0000
0000
1001
0000
1001
0000
,  // measure 53
0120
0000
0000
0000
1030
0010
1000
0010
1000
0100
1000
0100
0010
0100
0010
0100
,  // measure 54
1000
0100
0010
0000
0001
0000
0100
0000
1000
0000
0100
0000
0001
0000
0010
0000
,  // measure 55
0002
0000
0000
0000
1003
0010
1000
0010
0100
0001
0100
0001
1000
0100
1000
0100
,  // measure 56
0010
0100
1000
0001
0010
0000
0001
0000
0010
0000
1000
0000
0010
0000
0001
0000
,  // measure 57
0200
0000
0000
0000
0310
1000
0010
0000
1000
0000
0010
0100
0000
0100
0001
0000
,  // measure 58
0010
0100
1000
0100
0010
0000
0001
0000
0100
0000
0001
0000
1000
0000
0010
0000
,  // measure 59
0002
0000
0000
0000
0013
0000
0100
0000
0010
1000
0000
1000
0100
0000
0010
0000
,  // measure 60
0001
0100
0001
0010
0001
0000
1000
0000
0010
1000
0001
0100
0001
0000
1000
0000
,  // measure 61
0020
0000
0000
0000
0130
0010
0100
0010
1000
0100
1000
0100
0010
0100
1000
0100
,  // measure 62
0010
0001
0010
0001
0100
0000
0010
0000
1000
0000
0100
0000
0001
0000
0100
0000
,  // measure 63
2000
0000
0000
0000
3001
0010
0001
0010
0100
1000
0100
1000
0010
0100
0010
0100
,  // measure 64
0001
0010
0100
1000
0001
0000
0010
0000
1000
0000
0010
0000
0001
0000
0100
0000
,  // measure 65
0002
0000
0000
0000
1003
0000
0010
1000
0000
1000
0001
0000
0100
0001
0000
0001
,  // measure 66
1000
0001
1000
0001
0010
0100
0010
0000
0001
0000
0100
0000
1000
0000
0100
0000
,  // measure 67
0002
0000
0000
0000
0013
0001
0010
0000
0001
0100
0000
0100
0001
0000
1000
0010
,  // measure 68
1000
0100
1000
0100
0010
0000
0100
0000
1000
0100
0010
0001
1000
0001
1000
0001
,  // measure 69
0100
0000
0001
0000
1010
0000
1000
0010
0100
0000
0001
0000
1010
0000
0001
0010
,  // measure 70
0100
0010
0100
0010
0001
1000
0100
1000
0001
0000
0100
0000
1000
0000
0100
0000
,  // measure 71
0010
0000
1000
0000
0101
0000
1000
0010
0100
0000
0010
0000
0101
0000
0010
1000
,  // measure 72
0100
1000
0100
1000
0001
0010
0100
0010
0001
0000
0010
0000
1000
0000
0010
0000
,  // measure 73
0001
0010
0001
0010
0001
0010
0001
0010
0001
1000
0001
1000
0001
1000
0001
1000
,  // measure 74
0010
0100
0010
0100
0001
0010
0100
1000
0100
0010
0001
1000
0001
1000
0010
0100
,  // measure 75
0010
1000
0010
1000
0001
0100
0001
0100
0001
0010
0001
0010
0100
1000
0100
1000
,  // measure 76
0001
0010
1000
0010
0001
0010
1000
0010
0001
0100
1000
0100
0001
0010
0100
1000
,  // measure 77
2002
0000
0000
0000
,  // measure 78
0000
0000
0000
0000
,  // measure 79
3003
0000
0000
0000
;
