#TITLE:Bailamos;
#SUBTITLE:;
#ARTIST:Enrique Iglesias;
#TITLETRANSLIT:;
#SUBTITLETRANSLIT:;
#ARTISTTRANSLIT:;
#GENRE:;
#CREDIT:;
#MENUCOLOR:;
#METERTYPE:DDR;
#BANNER:Bailamos.png;
#BACKGROUND:Bailamos-bg.png;
#LYRICSPATH:;
#CDTITLE:./CDTITLES/NONE.PNG;
#MUSIC:Bailamos.ogg;
#OFFSET:0.000;
#SAMPLESTART:45.045;
#SAMPLELENGTH:15.000;
#SELECTABLE:YES;
#LISTSORT:;
#DISPLAYBPM:100.000;
#BPMS:0.000=99.900;
#STOPS:;
#BGCHANGES:0.000=Bailamos.avi=1.000=0=0=0,
99999=-nosongbg-=1.000=0=0=0 // don't automatically add -songbackground-
;
#ATTACKS:;

//---------------dance-single - ----------------
#NOTES:
     dance-single:
     :
     Beginner:
     1:
     0.073,0.096,0.000,0.000,0.000:
0000
0000
0000
0000
,
0000
0000
0000
0000
,
0000
0000
0000
0000
,
0000
0000
0000
0000
,
0000
0000
0000
0000
,
0000
0000
0000
0000
,
0000
0000
0000
0000
,
1000
0000
0000
0000
,
0001
0000
0000
0000
,
0010
0000
0000
0000
,
0100
0000
0000
0000
,
0010
0000
0000
0000
,
1000
0000
0000
0000
,
0001
0000
0000
0000
,
1000
0000
0000
0000
,
0100
0000
0100
0000
,
0010
0000
0010
0000
,
0000
0001
0000
1000
,
0000
0001
0000
0000
,
1000
0000
0000
0000
,
0010
0000
0010
0000
,
0100
0000
0000
0000
,
0001
0000
0001
0000
,
1000
0000
0000
0000
,
0001
0000
0001
0000
,
0010
0000
0000
0000
,
0100
0000
0100
0000
,
0010
0000
0000
0000
,
0001
0000
1000
0000
,
0001
0000
0000
0000
,
1000
0000
0000
0000
,
0010
0000
0000
0000
,
0100
0000
0000
0000
,
0010
0010
0010
0000
,
1000
0000
1000
0000
,
0001
0000
1000
0000
,
0001
0000
0001
0000
,
0000
1000
0000
1000
,
0000
0010
0000
0010
,
0000
0100
0000
0100
,
0000
0001
0000
0001
,
0001
0000
0010
0000
,
0100
0000
1000
0000
,
0001
0000
1000
0000
,
0010
0000
0100
0000
,
0010
0000
0000
0000
;

//---------------dance-single - ----------------
#NOTES:
     dance-single:
     :
     Easy:
     3:
     0.119,0.160,0.008,0.059,0.000:
0000
0000
0000
0000
,
0000
0000
0000
0000
,
0000
0000
0000
0000
,
0000
0000
0000
0000
,
0000
0000
0000
0000
,
0000
0000
0000
0000
,
0000
0000
0000
0000
,
0001
0001
0001
0000
,
1000
0000
1000
0000
,
0010
0010
0010
0000
,
0100
0000
0100
0000
,
0010
0010
0010
0000
,
1000
0000
0001
0000
,
0100
0100
0100
0000
,
0001
0000
1000
0000
,
0001
1000
0001
0000
,
1000
0001
1000
0000
,
0010
0000
0100
0000
,
0010
0000
0000
1000
,
2000
0000
0000
3000
,
0001
0000
0001
0000
,
0020
0000
0000
0030
,
0100
0000
0100
0000
,
0020
0000
0000
0030
,
0001
0000
0001
0000
,
2000
0000
0000
3000
,
0010
0000
0010
0000
,
0200
0000
0000
0300
,
0010
0000
0010
0000
,
1000
0001
1000
0000
,
0001
0000
0001
0000
,
0100
0010
0100
0000
,
0010
0000
0010
0000
,
1000
0001
1000
0000
,
0001
0000
0010
0000
,
0100
0010
0100
0000
,
0010
0000
0001
0000
,
1000
0100
1000
0000
,
0001
0100
0001
0000
,
1000
0010
0100
0001
,
1000
0000
0001
0000
,
1000
0010
1000
0000
,
0001
0010
0001
0000
,
1000
0100
0010
0001
,
1000
0000
0001
0000
,
0220
0000
0000
0000
,
0000
0000
0000
0000
,
0000
0330
0000
0000
0000
0000
0000
0000
0000
0000
0000
0000
0000
0000
0000
0000
0000
0000
0000
0000
0000
0000
0000
0000
0000
0000
0000
0000
0000
0000
0000
0000
0000
0000
0000
0000
0000
0000
0000
0000
0000
0000
0000
0000
0000
0000
0000
0000
0000
0000
0000
0000
0000
0000
0000
0000
0000
0000
0000
0000
0000
0000
0000
0000
0000
0000
0000
0000
0000
0000
0000
0000
0000
0000
0000
0000
0000
0000
0000
0000
0000
0000
0000
0000
0000
0000
0000
0000
0000
0000
0000
0000
0000
0000
0000
0000
0000
0000
0000
0000
0000
0000
0000
0000
0000
0000
0000
0000
0000
0000
0000
0000
0000
0000
0000
0000
0000
0000
0000
0000
0000
0000
0000
0000
0000
0000
0000
0000
0000
0000
0000
0000
0000
0000
0000
0000
0000
0000
0000
0000
0000
0000
0000
0000
0000
0000
0000
0000
0000
0000
0000
0000
0000
0000
0000
0000
0000
0000
0000
0000
0000
0000
0000
0000
0000
0000
0000
0000
0000
0000
0000
0000
0000
0000
0000
0000
0000
0000
0000
0000
0000
0000
0000
0000
0000
0000
0000
0000
0000
0000
0000
0000
;

//---------------dance-single - ----------------
#NOTES:
     dance-single:
     :
     Medium:
     6:
     0.248,0.299,0.008,0.221,0.004:
0000
0000
0000
0000
,
0000
0000
0000
0000
,
0000
0000
0000
0000
,
0000
0000
0000
0000
,
0000
0000
0000
0000
,
0000
0000
0000
0000
,
0000
0000
0000
0000
,
0100
1000
0010
0000
0100
0000
0100
0000
,
0010
1000
0100
0000
0010
0000
0010
0000
,
0001
0100
0010
0000
0100
0000
0100
0000
,
0001
0010
0100
0000
0010
0000
0010
0000
,
0001
0100
0010
0000
1000
0000
0001
0000
,
1000
0100
0010
0000
0001
0000
1000
0000
,
0100
1000
0010
0000
0100
0000
0010
0000
,
0100
0001
0010
0000
0100
0000
0010
0000
,
0002
0000
0103
0001
0100
0000
0010
0000
,
2000
0000
3100
1000
0100
0000
0010
0000
,
0001
0000
0100
1000
0100
0000
0001
1000
,
0002
0000
0010
0000
1000
0000
0103
0010
,
2000
0100
0010
3001
,
1000
0001
0100
0000
0001
1000
0010
0000
,
0200
0010
1000
0301
,
1000
0100
0010
0000
0001
0100
0010
0100
,
0002
0010
1000
0103
,
0001
1000
0100
0000
1000
0001
0010
0000
,
0200
0010
0001
1300
,
0010
1000
0100
0000
0010
0001
0100
0000
,
0020
1000
0000
0001
,
0000
1000
0000
0031
,
0200
0320
2030
3000
,
0001
0000
0010
0000
,
0200
0320
0032
0003
,
1000
0000
0010
0000
,
2000
3200
0302
0003
,
0100
0000
1000
0000
,
0001
0100
0010
1000
,
0001
0000
0010
0000
0100
0000
0000
0000
1000
0000
0000
0010
0100
0000
0010
0000
,
2000
0000
3100
1000
0200
0000
1300
0000
,
0002
0000
0103
0001
0200
0000
0301
0000
,
1000
0000
0010
0000
1000
0001
0100
0000
,
0001
0000
0010
0000
0001
1000
0100
0000
,
1000
0010
0200
0000
0001
0000
0310
0100
,
0002
0000
0013
0100
2000
0000
3010
0000
,
1000
0000
0100
0001
0100
0000
1000
0010
,
1000
0000
0010
0100
0001
0000
0010
0100
,
2200
0000
0000
0000
,
0000
0000
0000
0000
,
3300
0000
0000
0000
;

//---------------dance-single - ----------------
#NOTES:
     dance-single:
     :
     Hard:
     9:
     0.387,0.439,0.025,0.289,0.348: // measure 1
0000
0000
0000
0000
,  // measure 2
0000
0000
0000
0000
,  // measure 3
0000
0000
0000
0000
,  // measure 4
0000
0000
0000
0000
,  // measure 5
0000
0000
0000
0000
,  // measure 6
0000
0000
0000
0000
,  // measure 7
0000
0000
0000
0000
,  // measure 8
0001
0000
0000
0100
0001
0000
0100
0000
0010
0000
0000
0100
1000
0000
0100
0000
,  // measure 9
0010
0000
0000
1000
0100
0000
0001
0000
0100
0000
0000
1000
0010
0000
1000
0000
,  // measure 10
0001
0000
0000
0010
0100
0000
0010
0000
0001
0000
0000
1000
0010
0000
0100
0000
,  // measure 11
0010
0000
0000
1000
0001
0000
0100
0000
0001
0000
0010
0000
0001
1000
0001
0000
,  // measure 12
1000
0000
0000
0100
1000
0000
0100
0000
0010
0000
0000
0100
0001
0000
0100
0000
,  // measure 13
0010
0000
0000
0001
0100
0000
1000
0000
0100
0000
0000
0001
0010
0000
0001
0000
,  // measure 14
1000
0000
0000
0010
0100
0000
0010
0000
1000
0000
0000
0001
0010
0000
0100
0000
,  // measure 15
0010
0000
0000
0001
1000
0000
0100
0000
1000
0000
0010
0000
1000
0001
0000
0001
,  // measure 16
2000
0000
0100
0000
3010
0000
0000
0001
0100
0000
0010
0000
0100
0000
0000
0000
,  // measure 17
0002
0000
0100
0000
0013
0000
0000
1000
0100
0000
0010
0000
0100
0000
0000
0000
,  // measure 18
1000
0000
0000
0100
0001
0000
0100
0000
0010
0000
0000
0001
0100
0000
1000
0000
,  // measure 19
0100
0000
0000
0010
0100
0000
0001
0000
1000
0000
0000
0001
1000
0000
0001
0000
,  // measure 20
1002
0000
0000
0013
0001
0000
0100
0000
0010
0000
0000
1000
0100
0000
1000
0010
,  // measure 21
1000
0000
0000
0001
0100
0000
0010
0000
0100
0000
0000
0001
0010
0000
0100
0000
,  // measure 22
0020
0000
0000
0031
0010
0000
0001
0000
0100
0000
0000
0001
1000
0000
0100
0000
,  // measure 23
0002
0000
0000
0103
1000
0000
0010
0000
0002
0000
0000
0013
1000
0000
0001
0000
,  // measure 24
2001
0000
0000
3010
1000
0000
0010
0000
0100
0000
0000
0001
0100
0000
0001
0010
,  // measure 25
0001
0000
0000
1000
0100
0000
0010
0000
0100
0000
0000
1000
0010
0000
0100
0000
,  // measure 26
0020
0000
0000
1030
0010
0000
1000
0000
0100
0000
0000
1000
0001
0000
0100
0000
,  // measure 27
2000
0000
0000
3100
0001
0000
0010
0000
2000
0000
0000
3010
0001
0000
1000
0001
,  // measure 28
2000
0000
0000
3100
0010
0000
0100
0000
1000
0000
0000
0100
0010
0000
0100
0010
,  // measure 29
0001
0000
0100
0010
0000
0100
0010
0000
2000
0000
0000
0000
3010
0000
0100
0000
,  // measure 30
0002
0100
1000
0013
,  // measure 31
2000
0100
0001
3010
,  // measure 32
0200
0010
1000
0301
,  // measure 33
0020
0001
1000
0130
,  // measure 34
2000
0100
3010
0000
0002
0100
0013
0000
,  // measure 35
0200
0010
1300
0000
0020
0100
0031
0000
,  // measure 36
2000
0100
3001
0000
0002
0100
1003
0000
,  // measure 37
0020
0000
1000
0000
0130
0000
0000
0000
1000
0000
0000
0001
0100
0000
0001
0010
,  // measure 38
0002
0000
0000
0000
0000
0000
2003
0000
0000
0000
3100
0000
0001
0000
0000
0000
0200
0000
0000
0000
0000
0000
0000
0000
0000
0000
1300
0000
0000
0010
0000
0000
,  // measure 39
0200
0000
0000
0301
0000
0010
1000
0020
0000
0000
0000
0000
0000
0000
0000
0000
,  // measure 40
0030
0000
0000
0001
0000
0100
1000
0000
0100
0010
0100
0000
0010
0000
1000
0000
,  // measure 41
0002
0000
0000
0013
0100
0000
0010
0001
0000
0010
0000
0001
0100
0010
0100
0000
,  // measure 42
0001
0000
1000
0000
0200
0000
0000
0000
0000
0000
0000
1300
0001
1000
0000
0020
,  // measure 43
0000
0000
0000
0130
0000
0010
0000
2000
0000
0000
0000
0000
0000
0000
0000
3001
,  // measure 44
0010
0000
0000
0100
0000
1000
0000
0100
0001
0100
0000
1000
0000
0001
0000
1000
,  // measure 45
0000
0010
0000
0100
0001
0000
0100
0000
1000
0100
0000
0100
0001
0000
0010
0000
,  // measure 46
0022
0000
0000
0000
,  // measure 47
0000
0000
0000
0000
,  // measure 48
0033
0000
0000
0000
;

//---------------dance-single - ----------------
#NOTES:
     dance-single:
     :
     Challenge:
     11:
     0.476,0.479,0.017,0.280,0.565: // measure 1
0000
0000
0000
0000
,  // measure 2
0000
0000
0000
0000
,  // measure 3
0000
0000
0000
0000
,  // measure 4
0000
0000
0000
0000
,  // measure 5
0000
0000
0000
0000
,  // measure 6
0000
0000
0000
0000
,  // measure 7
0000
0000
0000
0000
,  // measure 8
1000
0000
0010
1000
0010
0000
1000
0000
0001
0000
0010
0001
0010
0000
0001
0000
,  // measure 9
1000
0000
0100
1000
0100
0000
1000
0000
0001
0000
0100
0001
0100
0000
0001
0000
,  // measure 10
0010
0000
0100
0010
0001
0000
0100
0000
0010
0000
1000
0010
0100
0000
0010
0000
,  // measure 11
1000
0000
0001
1000
0010
0000
1000
0000
0001
0000
1000
0001
0100
0000
0001
0000
,  // measure 12
1000
0000
0100
1000
0100
0000
1000
0000
0001
0000
0100
0001
0100
0000
0001
0000
,  // measure 13
1000
0000
0010
1000
0010
0000
1000
0000
0001
0000
0010
0001
0010
0000
0001
0000
,  // measure 14
1000
0000
0001
0010
0100
0000
1000
0000
0001
0000
1000
0010
0100
0000
0010
0000
,  // measure 15
1000
0000
0001
1000
0100
0000
1000
0000
0001
0000
0010
0001
1000
0001
0000
0001
,  // measure 16
0200
0000
0000
0301
0010
0000
1000
0000
0010
0000
0100
1000
0001
0000
1000
0000
,  // measure 17
0020
0000
0000
1030
0010
0000
0001
0000
0010
0000
0100
0001
1000
0001
1000
0000
,  // measure 18
0001
0000
0100
1000
0100
0000
0010
0000
1000
0000
0001
0010
0001
0000
1000
0000
,  // measure 19
0010
0000
1000
0001
1000
0000
0001
0000
1000
0000
0000
0100
0010
0000
0001
0000
,  // measure 20
0021
0000
0000
0031
0100
0000
0010
1000
0010
0000
0000
1000
0100
0000
1000
0010
,  // measure 21
2000
0000
0000
3001
0100
0000
0001
0010
0002
0000
0000
1003
0100
0000
1000
0010
,  // measure 22
0200
0000
0000
0310
1000
0000
0001
0010
0001
0000
0000
1000
0001
0000
0100
0010
,  // measure 23
2000
0000
0000
3010
0001
0000
0010
0100
0002
0000
0000
0013
1000
0000
0010
0000
,  // measure 24
0002
0000
0000
0103
0001
0000
0100
0010
0100
0000
0000
0010
1000
0000
0010
0100
,  // measure 25
0002
0000
0000
1003
0100
0000
1000
0010
2000
0000
0000
3001
0100
0000
0010
0100
,  // measure 26
0002
0000
0000
0013
0001
0000
1000
0100
0010
0000
0000
0100
1000
0000
0001
0100
,  // measure 27
0020
0000
0000
1030
0010
0000
0001
0010
0200
0000
0000
0301
1000
0000
0001
0010
,  // measure 28
0001
0000
0100
0010
1000
0000
0001
0000
0010
0000
0100
0010
0001
0000
1000
0100
,  // measure 29
0001
0000
0100
1000
0000
0100
0001
0000
0100
0000
1000
0010
0100
0001
1000
0000
,  // measure 30
0002
0000
0000
0000
0103
0000
0001
0100
0000
0000
0000
0000
0000
0000
0010
0000
,  // measure 31
0020
0000
0000
2030
0000
0000
3200
0000
0000
0000
0000
0000
0300
0000
0000
0000
,  // measure 32
2000
0000
0000
0000
3010
0000
1000
0010
0000
0000
0000
0000
0000
0000
0100
0000
,  // measure 33
0200
0000
0000
0302
0000
0000
0013
0000
0002
0000
0000
0000
0000
1003
0001
1000
,  // measure 34
0001
0100
0000
0001
1000
0000
0001
0000
1000
0010
0000
1000
0001
0000
1000
0000
,  // measure 35
0001
0100
0000
0010
0100
0000
0001
0000
1000
0100
0000
0010
0100
0000
1000
0000
,  // measure 36
0001
0100
0000
1000
0100
0000
0001
0000
1000
0010
0000
0001
0010
0000
1000
0000
,  // measure 37
0001
0010
0000
0100
0010
0000
0001
0000
1000
0010
0000
0100
0010
1000
0001
1000
,  // measure 38
0002
0000
0000
0000
0000
0000
2003
0000
0000
0000
3010
0000
0001
0000
0010
0000
0200
0000
0000
0000
0000
0000
0000
0000
0000
0000
0301
0000
0000
0010
0000
0000
,  // measure 39
0200
0000
0000
0000
0000
0000
0000
0000
0000
0000
0000
0000
1300
0000
0000
0000
0000
0000
0000
0000
0100
0001
0000
0000
0000
0000
0000
0000
0200
0000
0000
0000
0000
0000
0000
0000
0000
0000
0000
0000
0000
0000
0000
0000
0000
0000
0000
0000
0000
0000
0000
0000
0000
0000
0000
0000
0000
0000
0000
0000
0000
0000
0000
0000
,  // measure 40
0300
0000
0000
1000
0000
0010
0100
0000
0001
0010
1000
0010
0200
0000
1300
0000
,  // measure 41
0010
0000
0000
0000
0000
0000
0000
0000
0100
0000
0000
0000
0001
0000
0000
0000
0100
0000
0000
0000
0000
0000
0000
0000
0001
0000
0000
0000
0010
0001
0000
0000
0000
0000
0000
0000
1000
0000
0000
0000
0010
0000
0000
0000
0100
0000
0000
0000
0001
0000
0000
0000
0010
0000
0000
0000
0100
0000
0000
0000
1000
0000
0000
0000
,  // measure 42
0001
0100
1000
0100
0002
0000
0000
0000
0000
0000
0000
0013
0001
1000
0000
0020
,  // measure 43
0000
0000
0000
0000
0000
0000
0000
0000
1030
0000
0000
0000
0100
0000
0000
0000
0000
0000
0000
0000
0001
0100
0000
0000
0000
0000
0000
0000
2000
0000
0000
0000
0000
0000
0000
0000
0000
0000
0000
0000
0000
0000
0000
0000
0000
0000
0000
0000
0000
0000
0000
0000
0000
0000
0000
0000
0000
0000
0000
0000
3001
0000
0000
0000
,  // measure 44
0100
0000
0000
1000
0000
0100
0000
0010
1000
0001
0000
0010
0000
0001
0000
1000
,  // measure 45
0100
0000
1000
0000
0001
0000
0000
0000
0100
0000
0000
0000
0010
1000
0010
1000
0100
0000
0010
0000
0000
0000
0010
0000
0001
0000
1000
0000
0001
0000
0000
0000
,  // measure 46
2002
0000
0000
0000
,  // measure 47
0000
0000
0000
0000
,  // measure 48
3003
0000
0000
0000
;
