#TITLE:All My Friends;
#SUBTITLE:;
#ARTIST:Madeon;
#TITLETRANSLIT:;
#SUBTITLETRANSLIT:;
#ARTISTTRANSLIT:;
#GENRE:;
#CREDIT:;
#MENUCOLOR:;
#METERTYPE:DDR;
#BANNER:All My Friends.png;
#BACKGROUND:All My Friends-bg.png;
#LYRICSPATH:;
#CDTITLE:./CDTITLES/NONE.PNG;
#MUSIC:All My Friends.ogg;
#OFFSET:0.000;
#SAMPLESTART:65.660;
#SAMPLELENGTH:15.000;
#SELECTABLE:YES;
#LISTSORT:;
#BPMS:0.000=106.000;
#STOPS:;
#BGCHANGES:0.000=All My Friends.avi=1.000=0=0=0,
99999=-nosongbg-=1.000=0=0=0 // don't automatically add -songbackground-
;
#ATTACKS:;

//---------------dance-single - ----------------
#NOTES:
     dance-single:
     :
     Beginner:
     1:
     0.094,0.108,0.000,0.061,0.000:
0000
0000
0000
0000
,
0000
0000
0000
0000
,
0000
0000
0000
0000
,
0000
0000
0000
0000
,
0000
0000
0000
0000
,
0010
0000
0000
0000
,
1000
0000
0000
0000
,
0001
0000
0000
0000
,
0100
0000
0000
0000
,
0001
0001
0000
0000
,
1000
0000
0000
0000
,
0010
0010
0000
0000
,
0100
0000
0000
0000
,
0010
0010
0000
0000
,
1000
0000
0000
0000
,
0100
0000
0000
0000
,
0010
0000
0000
0000
,
0002
0003
0000
0000
,
2000
3000
0000
0000
,
0020
0030
0000
0000
,
0200
0300
0000
0000
,
0010
0000
0010
0000
,
0100
0000
0000
0000
,
0001
0000
0001
0000
,
1000
0000
0000
0000
,
0001
0000
0001
0000
,
1000
0000
1000
0000
,
0010
0000
0010
0000
,
0100
0000
0100
0000
,
0001
0000
1000
0000
,
0001
0000
1000
0000
,
0010
0000
0100
0000
,
0010
0000
0000
0000
,
1000
1000
0000
0000
,
0001
0000
0000
0000
,
0100
0100
0000
0000
,
0010
0000
0000
0000
,
1000
1000
0000
0000
,
0100
0000
0000
0000
,
0010
0010
0000
0000
,
0001
0000
0000
0000
,
0200
0300
0000
0000
,
0020
0030
0000
0000
,
2000
3000
0000
0000
,
0002
0003
0000
0000
,
0000
1000
0000
1000
,
1000
0000
0000
0000
,
0000
0001
0000
0001
,
0001
0000
0000
0000
,
0100
0000
0100
0000
,
0010
0000
0010
0000
,
1000
0000
1000
0000
,
0001
0000
0001
0000
,
0100
0000
0010
0000
,
0100
0000
0100
0000
,
0001
0000
1000
0000
,
0001
0000
0001
0000
;

//---------------dance-single - ----------------
#NOTES:
     dance-single:
     :
     Easy:
     4:
     0.183,0.217,0.076,0.137,0.000:
0000
0000
0000
0000
,
0000
0000
0000
0000
,
0000
0000
0000
0000
,
0000
0000
0000
0000
,
0000
0000
0000
0000
,
0002
0100
0000
0103
,
2000
0100
0000
3100
,
0002
0010
0000
0013
,
2000
0010
0000
3010
,
0001
1000
0000
0001
,
0100
0000
0010
0000
,
1000
0001
0000
0000
,
1000
0000
0100
0000
,
1000
0010
0000
0000
,
0100
0000
0010
0000
,
1000
0100
0100
0000
,
0010
0001
0001
0000
,
2002
0000
0000
3003
,
0020
0000
0000
0030
,
0200
0000
0000
0300
,
0002
0000
2000
3003
,
0001
0000
0001
0000
,
0100
0200
0300
0000
,
1000
0000
1000
0000
,
0100
0100
0100
0110
,
0001
0000
1000
0000
,
0001
0010
0100
1000
,
0001
0000
1000
0000
,
0010
1000
0001
0100
,
0010
0000
0100
0000
,
0010
1000
0001
0010
,
0001
0000
1000
0000
,
0100
0010
0001
1000
,
0010
0110
0001
1000
,
0100
0000
0100
0000
,
0010
0110
1000
0001
,
0100
0000
0010
0000
,
1000
1001
0010
0100
,
0001
0000
0010
0000
,
0001
1001
0010
1000
,
0100
0000
0100
0000
,
2002
0000
0000
3003
,
0020
0000
0000
0030
,
0200
0000
0000
0300
,
0002
0000
2000
3003
,
0001
0010
0000
0001
,
1000
0010
0000
1000
,
0001
1000
0000
0100
,
0010
0010
0010
0110
,
1000
0001
1000
0100
,
1000
0010
0001
0010
,
1000
0001
1000
0010
,
1000
0100
0001
0100
,
1000
0000
0110
0000
,
0001
0010
1000
0100
,
0001
0000
0110
0000
,
1000
0010
0001
0200
,
0300
0000
0000
0000
;

//---------------dance-single - ----------------
#NOTES:
     dance-single:
     :
     Medium:
     7:
     0.294,0.282,0.114,0.168,0.084:
0000
0000
0000
0000
,
0000
0000
0000
0000
,
0000
0000
0000
0000
,
0000
0000
0000
0000
,
0000
0000
0000
0000
,
2001
0100
0000
3001
,
1002
0100
0000
1003
,
0210
0001
0000
1300
,
0120
1000
0000
0031
,
1000
0000
0100
0000
1000
0001
0100
0000
,
0001
0000
0010
0000
0001
1000
0010
0000
,
1000
0000
0001
0000
0100
0010
1000
0000
,
0001
0000
1000
0000
0010
0100
0001
0000
,
1000
0000
0100
0000
0010
0100
1000
0000
,
0001
0000
0100
0000
0010
0100
0001
0000
,
2000
0100
0001
3010
,
0002
0100
1000
0013
,
0220
0000
0000
0330
,
2000
0000
0000
3000
,
0002
0000
0010
0000
0000
0000
0103
0010
,
2000
0000
0000
3002
0000
0000
2003
0000
0000
0000
0000
0000
3001
0000
0000
0000
,
1000
0100
0010
0001
,
1000
0010
0100
0001
,
1000
0001
0100
0010
,
1000
0000
0000
0001
0000
0000
0100
0000
0000
0010
0000
0000
1001
0000
0000
0000
,
0010
0000
0000
1000
0000
0000
0010
0000
0000
0000
1000
0000
0001
0000
0000
0000
,
0010
0000
0000
0001
0000
0000
0010
0000
0000
0000
0001
0000
1000
0000
0000
0000
,
0100
0000
0000
1000
0000
0000
0100
0000
0000
0000
1000
0000
0010
0000
0000
0000
,
0100
0000
0000
0001
0000
0000
0100
0000
0000
0000
0001
0000
0010
0000
0000
0000
,
0001
0000
0000
1000
0000
0000
0010
0000
0000
0000
1000
0000
0100
0000
0000
0000
,
1000
0000
0000
0001
0000
0000
0010
0000
0000
0000
0001
0000
0100
0000
0000
0000
,
0001
0000
0000
0010
0000
0000
1000
0000
0000
0000
0010
0000
0100
0000
0000
0000
,
1000
0000
0000
0010
0000
0000
0001
0000
0000
0000
0010
0000
0100
0000
0000
0000
,
0001
0100
0101
0000
0001
0000
1000
0000
,
0100
1000
0010
0000
0100
0000
0110
0000
,
1000
0010
1010
0000
1000
0000
0001
0000
,
0010
0001
0100
0000
0010
0000
0110
0000
,
1000
0001
1001
0000
0001
0000
0010
0000
,
0100
1000
0001
0000
0100
0000
0101
0000
,
0010
1000
0100
0000
0010
0001
0100
0000
,
0010
1000
0100
0001
0100
1000
0001
0000
,
0220
0000
0000
0330
,
2000
0000
0000
3000
,
0002
0000
0010
0000
0000
0000
1003
0010
,
0200
0000
0000
0320
0000
0000
0230
0000
0000
0000
0000
0000
0301
0000
0000
0000
,
1000
0000
0100
0000
1000
0100
0010
0000
,
0001
0000
0100
0000
0001
0010
0100
0000
,
0010
0000
0001
0000
1000
0001
0100
0000
,
0001
0000
0000
1000
0000
0000
0010
0000
0000
0100
0000
0000
1001
0000
0000
0000
,
1000
0000
0000
0100
0000
0000
0010
0000
0000
0000
0001
0000
0010
0000
0000
0000
,
0001
0000
0000
0100
0000
0000
0010
0000
0000
0000
1000
0000
0010
0000
0000
0000
,
0100
0000
0000
0001
0000
0000
1000
0000
0000
0000
0001
0000
0010
0000
0000
0000
,
0100
0000
0000
1000
0000
0000
0001
0000
0000
0000
1000
0000
0010
0000
0000
0000
,
1000
0000
0000
0010
0000
0000
0001
0000
0000
0000
0010
0000
0100
0000
0001
0000
,
1000
0000
0000
0100
0000
0000
0001
0000
0000
0000
0100
0000
0010
0000
0001
0000
,
0010
0000
0000
1000
0000
0000
0010
0000
0000
0000
0100
0000
1000
0000
0001
0000
,
0100
0000
0000
1000
0000
0000
0100
0000
0000
0000
0001
0000
0220
0000
0000
0000
,
0330
0000
0000
0000
;

//---------------dance-single - ----------------
#NOTES:
     dance-single:
     :
     Hard:
     10:
     0.432,0.456,0.122,0.221,0.183: // measure 1
0000
0000
0000
0000
,  // measure 2
0000
0000
0000
0000
,  // measure 3
0000
0000
0000
0000
,  // measure 4
0000
0000
0000
0000
,  // measure 5
0000
0000
0000
0000
,  // measure 6
0201
0010
1000
0301
,  // measure 7
1200
0010
0001
1300
,  // measure 8
0021
1000
0100
0031
,  // measure 9
1020
0000
0001
0000
0100
0000
1030
0001
,  // measure 10
0200
0000
0001
0000
0310
1000
0001
0000
,  // measure 11
0020
0000
1000
0000
0031
1000
0100
0000
,  // measure 12
2000
0000
0010
0000
3001
0100
0010
0000
,  // measure 13
0200
0000
1000
0000
0310
0100
0001
0000
,  // measure 14
2000
0000
0010
0000
3001
0100
0010
0100
,  // measure 15
0002
0000
0010
0000
1003
0100
0010
0100
,  // measure 16
0020
0000
0001
0000
1030
0010
0100
1000
,  // measure 17
0001
0000
0100
0000
0001
0000
0100
0000
0010
1000
0000
0001
1000
0000
0001
0000
,  // measure 18
0020
0000
0001
0130
,  // measure 19
2000
0000
0010
3001
,  // measure 20
0200
0000
0000
0000
0000
0000
0000
0000
0010
0000
0000
0000
1300
0000
0001
1000
,  // measure 21
0002
0000
0000
0023
0000
0000
0230
0000
0000
0000
1300
0000
0010
0000
0000
0000
,  // measure 22
2000
0010
0100
3001
,  // measure 23
0200
0010
1000
0301
,  // measure 24
0020
0001
0100
1030
,  // measure 25
0001
0000
1000
0010
0000
1000
0001
0000
1000
0100
0010
0000
0110
0000
0001
0000
,  // measure 26
0100
0000
0000
0010
1000
0000
0010
0000
0100
0000
0010
0000
1000
0000
0010
0000
,  // measure 27
1000
0000
0000
0001
0010
0000
0100
0000
0010
0000
0001
0000
0010
0000
0100
0000
,  // measure 28
0010
0000
0000
0100
1000
0000
0001
0000
0100
0000
0001
0000
1000
0000
0010
0000
,  // measure 29
0100
0000
0000
0010
1000
0000
0001
0000
0010
0000
0100
0000
0010
0000
0001
0000
,  // measure 30
1000
0000
0000
0100
0001
0000
0100
0000
1000
0000
0100
0000
0010
0000
0001
0000
,  // measure 31
1000
0000
0000
0010
0001
0000
0010
0000
1000
0000
0010
0000
0100
0000
0001
0000
,  // measure 32
0010
0000
0000
0001
0010
0000
1000
0000
0010
0000
0100
0000
1000
0000
0010
0000
,  // measure 33
0100
0000
0000
0001
0100
0000
1000
0000
0100
0010
0000
1000
0002
0000
0000
0000
,  // measure 34
1003
0100
1100
0000
0001
0010
0011
0000
,  // measure 35
0001
0000
0000
0100
0001
0000
1000
0000
0100
0000
0010
0000
0001
0000
1000
0000
,  // measure 36
0001
0100
0101
0000
1000
0010
1010
0000
,  // measure 37
1000
0000
0000
0100
1000
0000
0001
0000
0010
0000
0100
0000
1000
0000
0001
0000
,  // measure 38
0100
0010
1010
0000
0010
0100
0101
0000
,  // measure 39
0010
0000
0000
0100
0010
0000
0001
0000
0100
0000
0010
0000
1000
0000
0001
0000
,  // measure 40
1000
0100
0101
0100
1000
0001
1001
0000
,  // measure 41
1000
0000
0010
0000
0011
0000
0010
0000
1000
0001
0000
1000
0010
0000
0000
0000
,  // measure 42
2000
0000
0100
0000
0001
0000
3100
0020
,  // measure 43
0001
0000
0100
0000
1000
0000
0031
0100
,  // measure 44
0020
0000
0000
0000
1000
0000
0000
0000
0100
0000
0000
0000
0031
0000
1000
0001
,  // measure 45
2000
0000
0000
3200
0000
0000
0320
0000
0000
0000
0031
0000
1000
0000
0001
0000
,  // measure 46
0100
0000
0000
0010
1000
0000
0010
0000
0001
0000
0010
0000
0100
0000
0001
0000
,  // measure 47
0010
0000
0000
0100
0001
0000
0100
0000
1000
0000
0100
0000
0010
0000
0001
0000
,  // measure 48
1000
0000
0000
0010
0001
0000
0010
0000
1000
0000
0010
0000
0100
0000
0001
0000
,  // measure 49
0010
0000
0001
0010
0000
0001
1000
0000
0010
0100
0001
0000
0110
0000
1000
0000
,  // measure 50
0001
0000
1000
0100
0000
0010
0100
0000
1000
0000
0010
0000
0100
0000
0001
0000
,  // measure 51
1000
0000
0001
0010
0000
0001
0100
0000
0001
0000
0010
0000
0100
0000
1000
0000
,  // measure 52
0010
0000
0100
0001
0000
0100
0010
0000
1000
0000
0010
0000
0100
0000
0001
0000
,  // measure 53
0100
0000
0010
1000
0000
0001
1000
0000
0001
0000
0010
0000
0100
0000
1000
0001
,  // measure 54
1000
0000
0100
0001
0000
0100
1000
0000
0100
0000
0010
0000
0001
0000
1000
0000
,  // measure 55
0001
0000
0100
1000
0000
0100
0001
0000
0010
0000
0100
0000
1000
0000
0001
0000
,  // measure 56
0100
0000
0010
1000
0000
0010
0001
0000
0010
0000
0100
0000
0001
0000
1000
0000
,  // measure 57
0100
0000
0001
0100
0000
1000
0001
0000
0100
0010
1000
0000
0220
0000
0000
0000
,  // measure 58
0330
0000
0000
0000
;

//---------------dance-single - ----------------
#NOTES:
     dance-single:
     :
     Challenge:
     13:
     0.497,0.564,0.297,0.175,0.308: // measure 1
0000
0000
0000
0000
,  // measure 2
0000
0000
0000
0000
,  // measure 3
0000
0000
0000
0000
,  // measure 4
0000
0000
0000
0000
,  // measure 5
0000
0000
0000
0000
,  // measure 6
0010
0000
0000
1000
0100
0000
0000
0000
1000
0000
0000
0000
0001
0000
0000
0000
,  // measure 7
0010
0000
0000
0001
0100
0000
0000
0000
0001
0000
0000
0000
1000
0000
0000
0000
,  // measure 8
0100
0000
0000
1000
0010
0000
0000
0000
1000
0000
0000
0000
0001
0000
0000
0000
,  // measure 9
0100
0000
0000
0001
0010
0000
0000
0000
0001
0000
0000
0000
1000
0000
0000
0000
,  // measure 10
0001
1000
0200
0000
1300
0010
0100
0001
,  // measure 11
0010
0000
0001
0100
0010
0100
0001
0000
,  // measure 12
1000
0001
0200
0000
0301
0010
0100
1000
,  // measure 13
0010
0000
0100
0001
1000
0010
0100
0000
,  // measure 14
0010
1000
0200
0000
0310
0100
1000
0010
,  // measure 15
0100
0000
0001
0100
0010
0100
0001
0010
,  // measure 16
0100
0000
0010
0001
0100
1000
0100
0000
,  // measure 17
0010
0000
1000
0000
0001
0000
0000
0000
1000
0001
0000
0000
0110
0000
0000
0000
,  // measure 18
2020
0000
0000
0000
0000
0000
0000
0000
0030
0000
0000
0000
3001
0000
0100
0010
,  // measure 19
2000
0000
0000
0000
0000
3100
0010
0001
,  // measure 20
0200
0000
0010
0000
1000
0000
0001
0000
0010
0000
0000
0000
0301
0000
1000
0010
,  // measure 21
2000
0000
0000
3200
0000
0000
0302
0000
0000
0000
0103
0000
0010
0000
0001
0000
,  // measure 22
0101
0000
0000
0000
0010
0000
0000
0000
1000
0001
0000
0000
1001
0000
0000
0000
,  // measure 23
1100
0000
0000
0000
0010
0000
0000
0000
0001
1000
0000
0000
1001
0000
0000
0000
,  // measure 24
0110
0000
0000
0000
1000
0000
0000
0000
0100
0010
0000
0000
0011
0000
0000
0000
,  // measure 25
1000
0000
0000
0000
0100
1000
0001
0000
0100
0000
0000
0000
0010
0000
0000
0000
1000
0000
0100
0000
0010
0000
0001
0000
1000
0000
0000
0000
0110
0000
0000
0000
,  // measure 26
0001
0100
0000
0010
0100
0000
0002
0000
0010
0000
1003
0000
0001
0000
1100
0000
,  // measure 27
1000
0010
0000
0100
0010
0000
2000
0000
0001
0000
3100
0000
1000
0000
0101
0000
,  // measure 28
0010
0100
0000
0010
1000
0000
0020
0000
0100
0000
0031
0000
1000
0000
0011
0000
,  // measure 29
0100
0010
0000
0100
0001
0000
0200
0000
0010
0000
1300
0000
0001
0000
1010
0000
,  // measure 30
1000
0100
0000
1000
MMMM
0000
0001
0000
0100
0000
1000
0000
0100
0000
1010
0000
,  // measure 31
0001
0100
0000
0001
MMMM
0000
1000
0000
0100
0000
0001
0000
0100
0000
0011
0000
,  // measure 32
1000
0010
0000
1000
MMMM
0000
0001
0000
0010
0000
1000
0000
0010
0000
1100
0000
,  // measure 33
0001
0010
0000
0001
MMMM
0000
1000
0000
0010
0100
0001
0000
0110
0000
0000
0000
,  // measure 34
1000
0000
0010
0000
1010
0000
1000
0100
0010
0000
0100
0000
1000
0000
0001
0000
,  // measure 35
0010
0000
0001
0000
0011
0000
0001
0100
0010
0000
0100
0000
0001
0000
1000
0000
,  // measure 36
0001
0000
0100
0000
0101
0000
0001
0010
0100
0000
0010
0000
0001
0000
1000
0000
,  // measure 37
0010
0000
1000
0000
1010
0000
1000
0100
0010
0000
0100
0000
1000
0000
0001
0000
,  // measure 38
0100
0000
0010
0000
MMMM
0000
0010
1000
0100
0000
1000
0000
0001
0000
0100
0000
,  // measure 39
0010
0000
0100
0000
MMMM
0000
0010
0001
0100
0000
0001
0000
1000
0000
0010
0000
,  // measure 40
1000
0100
1100
0000
0001
0010
MMMM
0000
,  // measure 41
0001
0000
0100
0000
0010
0000
1000
0000
0001
1000
0000
0000
0110
0000
0000
0000
,  // measure 42
0202
0000
0000
0000
0000
0000
0000
0000
0300
0000
0000
0000
1003
0000
0010
0100
,  // measure 43
0002
0000
0000
0000
0000
0013
0100
1000
,  // measure 44
0020
0000
0100
0000
0001
0000
1000
0000
0100
0000
0000
0000
1030
0000
0001
0100
,  // measure 45
0002
0000
0000
0023
0000
0000
2030
0000
0000
0000
3010
0000
0100
0000
1000
0000
,  // measure 46
1010
0000
0000
0100
0010
0000
1000
0100
0010
0000
0100
0000
1100
0000
0000
0000
,  // measure 47
0011
0000
0000
0100
0010
0000
0100
0001
0010
0000
0100
0000
0110
0000
0010
0001
,  // measure 48
1000
0000
0000
0000
0000
0000
0001
0000
0100
0000
0000
0000
0010
0000
1000
0000
0001
0000
0000
0000
1000
0000
0000
0000
1001
0000
0000
0000
0001
1000
0001
1000
,  // measure 49
0001
0000
0000
0000
0010
0001
1000
0000
0010
0000
0000
0000
0100
0000
0000
0000
0001
0000
0010
0000
0100
0000
1000
0000
0001
0000
0000
0000
0110
0000
0000
0000
,  // measure 50
1000
0100
MMMM
0001
0100
0000
0110
0000
0001
1000
0010
0000
0100
0000
0001
0000
,  // measure 51
1000
0010
MMMM
0001
0010
0000
0110
0000
1000
0001
0010
0000
0100
0000
1000
0000
,  // measure 52
0001
0100
MMMM
1000
0100
0000
0110
0000
0001
1000
0100
0000
1000
0000
0001
0000
,  // measure 53
1000
0010
MMMM
0001
0010
0000
0110
0000
1000
0001
0100
0000
0001
0000
1000
0001
,  // measure 54
0100
1000
0000
0100
MMMM
0000
1010
0000
0001
0100
0010
0000
0100
0000
0001
0000
,  // measure 55
0010
0001
0000
0010
MMMM
0000
0101
0000
1000
0100
0010
0000
0100
0000
1000
0000
,  // measure 56
0001
0100
MMMM
1000
0010
0000
0110
0000
1000
0001
0100
0000
0001
0000
1010
0000
,  // measure 57
1000
0100
MMMM
0001
0010
0000
0001
0000
1000
0010
0100
0000
0220
0000
0000
0000
,  // measure 58
0330
0000
0000
0000
;
