#TITLE:Admirável Chip Novo;
#SUBTITLE:;
#ARTIST:Pitty;
#TITLETRANSLIT:Admiravel Chip Novo;
#SUBTITLETRANSLIT:;
#ARTISTTRANSLIT:;
#GENRE:;
#CREDIT:;
#MENUCOLOR:;
#METERTYPE:DDR;
#BANNER:Admiravel Chip Novo.png;
#BACKGROUND:Admiravel Chip Novo-bg.png;
#LYRICSPATH:;
#CDTITLE:./CDTITLES/NONE.PNG;
#MUSIC:Admiravel Chip Novo.ogg;
#OFFSET:0.000;
#SAMPLESTART:52.941;
#SAMPLELENGTH:14.980;
#SELECTABLE:YES;
#LISTSORT:;
#BPMS:0.000=136.000;
#STOPS:116.000=0.44117647058823529411764705882353‬
,211.000=1.3235294117647058823529411764706
;
#BGCHANGES:0.000=Admiravel Chip Novo.avi=1.000=0=0=0,
99999=-nosongbg-=1.000=0=0=0 // don't automatically add -songbackground-
;
#ATTACKS:;

//---------------dance-single - ----------------
#NOTES:
     dance-single:
     :
     Beginner:
     1:
     0.104,0.138,0.000,0.000,0.000:
0000
0000
0000
0000
,
0000
0000
0000
0000
,
0000
0000
0000
0000
,
0000
0000
0000
0000
,
0000
0000
0000
0000
,
0000
0000
0000
0000
,
0010
0000
0010
0000
,
0100
0000
0100
0000
,
0001
0000
0001
0000
,
1000
0000
0000
0000
,
0001
0000
0000
0000
,
0000
0000
0000
0000
,
0000
1000
0000
1000
,
1000
0000
0000
0000
,
0000
0001
0000
0001
,
0001
0000
0000
0000
,
0000
0100
0000
0100
,
0100
0000
0000
0000
,
0000
0010
0000
0010
,
0010
0000
0000
0000
,
0000
1000
0000
1000
,
0000
1000
0000
0000
,
0000
0001
0000
0001
,
0000
0001
0000
0000
,
0000
0100
0000
0100
,
0100
0000
0100
0000
,
0010
0000
0000
0000
,
0000
0000
0000
0000
,
1000
0000
0000
0000
,
0000
0000
0000
0001
,
0000
0001
0000
0001
,
0000
0000
0000
1000
,
0000
1000
0000
1000
,
0000
0000
0000
0010
,
0000
0010
0000
0010
,
0000
0000
0000
0100
,
0000
0100
0000
0100
,
0000
0000
0000
0010
,
0000
0100
0000
0010
,
0000
0000
0000
1000
,
0000
0001
0000
1000
,
0000
0000
0000
0100
,
0000
0010
0000
0100
,
0000
0000
0000
0010
,
0000
0010
0000
0010
,
0000
0000
0000
0001
,
0000
0001
0000
0001
,
0000
0001
0000
1000
,
0000
1000
0000
1000
,
0000
1000
0000
0010
,
0000
0010
0000
0010
,
0000
0010
0000
0100
,
0000
0100
0000
0100
,
0000
0000
0010
0000
,
0000
0000
0010
0000
,
0000
0000
0000
0000
,
1000
0000
0000
0000
;

//---------------dance-single - ----------------
#NOTES:
     dance-single:
     :
     Easy:
     5:
     0.224,0.249,0.010,0.059,0.000:
0000
0000
0000
0000
,
0000
0000
0000
0000
,
0000
0000
0000
0000
,
0000
0000
0000
0000
,
0000
0000
0000
0000
,
0000
0000
0000
0000
,
0001
1000
0001
0001
,
1000
0001
1000
1000
,
0010
0100
0010
0010
,
0200
0000
0000
0300
,
0020
0000
0000
0000
,
0000
0000
0000
0030
,
1000
0001
1000
0000
,
0010
0000
1000
0000
,
0001
1000
0001
0000
,
0010
0000
0001
0000
,
1000
0001
1000
0000
,
0001
0000
0100
0000
,
0010
1000
0010
0000
,
1000
0000
0100
0000
,
0010
0001
0010
0000
,
0001
0000
0100
0000
,
0010
1000
0001
0000
,
0100
0000
0001
0000
,
1000
0001
0100
0000
,
0010
0000
1000
0000
,
0002
0000
1000
0000
,
1000
0000
1000
0000
,
0203
0000
0000
0000
,
0300
0010
0010
1001
,
0010
1000
0100
1000
,
0010
0100
0001
0010
,
0001
0100
0010
1000
,
0100
0010
0001
1000
,
0010
0100
0001
1000
,
0001
0010
0001
1000
,
0100
0010
0001
0100
,
0010
1000
0001
1000
,
0010
0001
0010
1000
,
0100
0001
0100
1000
,
0100
0010
0001
2000
,
0000
0010
3010
0001
,
0010
0100
1000
0001
,
0100
0010
1000
0010
,
0100
0000
0010
1000
,
0001
0000
1000
0001
,
0001
0010
0010
0100
,
0100
1000
1000
0100
,
0100
0010
0010
0001
,
0001
1000
1000
0001
,
0001
0010
0010
1000
,
1000
0010
0010
0001
,
0001
0100
0100
0010
,
1000
0000
1000
0000
,
0001
0000
0001
0000
,
0200
0000
0000
0000
,
0310
0000
0000
0000
;

//---------------dance-single - ----------------
#NOTES:
     dance-single:
     :
     Medium:
     7:
     0.352,0.414,0.020,0.089,0.000:
0000
0000
0000
0000
,
0000
0000
0000
0000
,
0000
0000
0000
0000
,
0000
0000
0000
0000
,
0000
0000
0000
0000
,
0000
0000
0000
0000
,
0001
0010
0100
0000
0010
0001
0020
0000
,
0031
1000
0100
0000
1000
0010
2000
0000
,
3010
0100
0001
0000
0100
0001
0200
0000
,
0320
0000
0000
0030
,
2002
0000
0000
0000
,
0000
0000
0000
3003
,
1000
0000
0100
0000
1000
0001
0000
1000
,
0000
0001
0100
0000
0001
0010
0001
0000
,
0100
0000
0010
0000
0100
0001
0000
0010
,
0000
0001
1000
0000
0010
1000
0010
0000
,
1000
0000
0100
0000
0010
0100
0000
1000
,
0000
0001
0100
0000
0010
0100
0001
0000
,
0100
0000
0001
0000
0010
0001
0000
1000
,
0000
0001
0010
0000
0001
1000
0010
0000
,
1000
0000
0100
0000
1000
0001
0000
0010
,
0000
0001
1000
0000
0001
0100
0001
0000
,
0100
0000
0010
0000
0100
0001
0000
1000
,
0000
0100
1000
0000
0001
0010
0100
0000
,
0010
0000
0001
0000
1000
0010
0000
1000
,
0000
0001
0010
0000
0001
1000
0100
0000
,
2000
0000
0000
0100
0100
0000
0100
0000
,
0010
0000
0000
0010
0010
0000
0010
0000
,
0002
0000
0000
0000
,
3003
0100
0100
0000
0100
0000
0110
0000
,
0001
0000
1000
0001
0100
0000
0001
0000
,
0010
0000
0001
1000
0100
0000
1000
0000
,
0010
0000
1000
0001
0100
0000
0010
0000
,
0100
0000
0001
0010
0100
0000
0010
0000
,
0001
0000
1000
0100
0010
0000
0100
0000
,
1000
0000
0010
0100
0001
0000
1000
0000
,
0010
0000
0100
0010
1000
0000
0001
0000
,
0010
0000
0100
0010
0001
0000
1000
0000
,
0100
0000
0001
0100
1000
0000
0001
0000
,
0010
0000
1000
0010
0001
0000
0100
0000
,
0010
0000
1000
0010
0100
0020
1000
0000
,
0130
0000
0010
1000
0001
0000
1000
0000
,
0010
0000
0100
0001
0010
0000
0001
0000
,
0010
0000
0100
1000
0010
0000
0100
0000
,
0001
0000
1000
0001
0100
0000
0001
1000
,
0001
0000
1000
0100
0010
0000
0001
0001
,
0000
0010
0010
0000
0100
0100
0000
1000
,
1000
0000
0100
0010
0001
0000
1000
1000
,
0000
0010
0010
0000
0100
0100
0000
0001
,
0001
0000
1000
0010
0100
0000
0001
0001
,
0000
0010
0010
0000
1000
1000
0000
0010
,
0010
0000
0001
0100
0010
0000
1000
1000
,
0000
0100
0100
0000
0001
0100
1000
0001
,
0001
0000
0000
0100
0100
0000
0000
0010
,
0010
0000
0000
1000
1000
0000
0000
0001
,
1000
0000
0100
0000
0010
0000
0001
1000
,
0010
0000
0000
0000
;

//---------------dance-single - ----------------
#NOTES:
     dance-single:
     :
     Hard:
     10:
     0.478,0.552,0.365,0.109,0.015: // measure 1
0000
0000
0000
0000
,  // measure 2
0000
0000
0000
0000
,  // measure 3
0000
0000
0000
0000
,  // measure 4
0000
0000
0000
0000
,  // measure 5
0000
0000
0000
0000
,  // measure 6
0000
0000
0000
0000
,  // measure 7
0010
1000
0100
1000
0001
0010
0200
0000
,  // measure 8
0310
0001
0100
0001
0010
0100
2000
0000
,  // measure 9
3010
0000
0100
0000
0001
0000
0010
0000
0001
1000
0001
0000
1000
0000
0100
0000
,  // measure 10
0220
0000
0000
0330
,  // measure 11
2200
0000
0000
0000
,  // measure 12
0000
0000
0000
3300
,  // measure 13
0010
0000
1000
0000
0001
0100
0001
1000
,  // measure 14
0000
1000
0100
0010
0100
1000
0010
0100
,  // measure 15
0001
0000
0010
0000
0001
1000
0010
0100
,  // measure 16
0000
0100
0010
1000
0001
0100
0001
1000
,  // measure 17
0100
0000
0010
0000
0100
1000
0001
0100
,  // measure 18
0000
0100
0010
0100
0001
0010
0100
0010
,  // measure 19
0001
0010
1000
0010
0001
0010
0100
1000
,  // measure 20
0000
1000
0010
0100
0001
1000
0100
0010
,  // measure 21
0100
1000
0100
0001
0100
0010
0001
1000
,  // measure 22
0000
1000
0010
0100
0001
0010
0100
0000
,  // measure 23
0010
0001
0010
1000
0010
0100
0010
0001
,  // measure 24
0000
0001
1000
0010
0100
0001
0010
0000
,  // measure 25
0001
0100
1000
0100
0001
0010
0100
0010
,  // measure 26
0000
0010
0001
0100
0010
1000
0001
0000
,  // measure 27
2001
0000
0000
0100
0100
0000
0100
0000
,  // measure 28
0010
0000
0000
0010
0010
0000
0010
0000
,  // measure 29
0002
0000
0000
0000
,  // measure 30
3003
0000
0100
0010
0100
0000
0010
0000
1000
0000
0001
0000
1000
0000
0000
0000
,  // measure 31
1001
0000
1100
0100
1000
0000
0001
0000
,  // measure 32
1001
0000
0101
0100
0001
0000
0010
0000
,  // measure 33
0011
0000
1001
0001
1000
0000
0010
0000
,  // measure 34
1010
0000
1001
1000
0001
0000
1000
0000
,  // measure 35
1100
0000
0110
0100
1000
0000
0010
0000
,  // measure 36
0110
0000
0101
0100
0001
0000
0010
0000
,  // measure 37
0011
0000
1001
0001
1000
0000
0010
0000
,  // measure 38
0101
0000
1100
0100
0010
0000
1100
0000
,  // measure 39
1001
0000
1010
0010
1000
0001
0101
0000
,  // measure 40
1001
0000
0011
0001
1000
0100
1100
0000
,  // measure 41
0110
0000
1100
0100
1000
0020
0100
0000
,  // measure 42
1030
0000
0001
1000
0100
0000
1100
0000
,  // measure 43
0110
0000
0011
0001
1000
0001
0101
0000
,  // measure 44
0110
0000
1010
0010
1000
0001
1001
0000
,  // measure 45
0110
0000
0101
0100
0001
0010
0001
1000
,  // measure 46
0100
0000
1000
0001
0010
0001
1000
0100
,  // measure 47
0001
0100
1000
0000
1000
0100
0010
0100
,  // measure 48
1000
0000
1000
0010
0100
0001
1000
0010
,  // measure 49
0001
0010
1000
0000
1000
0010
0001
0010
,  // measure 50
1000
0000
1000
0100
0010
0001
0100
0010
,  // measure 51
0100
0001
0100
0000
0100
0010
0100
1000
,  // measure 52
0100
0000
0001
0010
0100
1000
0010
0100
,  // measure 53
0010
0000
0001
0000
0010
0000
0000
0000
0010
0000
0100
0000
0010
0000
1000
0001
,  // measure 54
2000
0000
0000
0100
0100
0000
0000
0100
,  // measure 55
0100
0000
0000
0010
0010
0000
0000
0010
,  // measure 56
3010
2000
0000
3001
0100
0000
0001
0010
,  // measure 57
1000
0000
0000
0000
;

//---------------dance-single - ----------------
#NOTES:
     dance-single:
     :
     Challenge:
     13:
     0.581,0.608,0.355,0.099,0.123: // measure 1
0000
0000
0000
0000
,  // measure 2
0000
0000
0000
0000
,  // measure 3
0000
0000
0000
0000
,  // measure 4
0000
0000
0000
0000
,  // measure 5
0000
0000
0000
0000
,  // measure 6
0000
0000
0000
0000
,  // measure 7
0001
1000
0100
1000
0010
0100
0002
0000
,  // measure 8
1003
0001
0100
0001
0010
0100
2000
0000
,  // measure 9
3010
0000
0100
0000
0001
0000
1000
0000
0010
0100
0010
0100
0001
0100
0001
0100
,  // measure 10
0020
1000
0100
0031
,  // measure 11
2200
0000
0000
0000
,  // measure 12
0000
0000
0000
3300
,  // measure 13
1000
0100
0010
0001
0100
0100
0010
0100
,  // measure 14
0001
1000
0001
0010
0100
1000
0001
0100
,  // measure 15
0001
0010
0001
1000
0100
0100
1000
0010
,  // measure 16
0100
0010
1000
0010
0100
0001
1000
0100
,  // measure 17
1000
0001
0100
0010
0100
0100
0010
1000
,  // measure 18
0001
0010
0100
1000
0001
0100
1000
0100
,  // measure 19
0001
0010
0011
0001
0100
0100
0010
1000
,  // measure 20
0001
0010
0100
1000
0001
0100
0010
0100
,  // measure 21
0001
1000
1100
1000
0100
0100
1000
0010
,  // measure 22
0100
0010
1000
0001
0100
0001
1000
0100
,  // measure 23
0010
0100
0110
0010
0100
0100
0010
0001
,  // measure 24
0100
1000
0100
0001
0010
1000
0010
0001
,  // measure 25
1000
0001
1001
0001
0100
0100
0010
1000
,  // measure 26
0001
0000
0010
0000
0100
0000
1000
0000
0001
0000
0100
0000
0010
0000
1000
0001
,  // measure 27
2000
0000
0000
0100
0100
0000
0001
0100
,  // measure 28
0100
0000
0001
0010
0010
0000
3010
0100
,  // measure 29
0200
0000
0000
0000
0000
0000
0310
0010
,  // measure 30
0010
0000
1000
0001
1000
0000
0001
0000
0010
0000
0100
0000
0110
0000
0000
0000
,  // measure 31
0011
0000
0000
0001
0100
0000
0001
0000
1000
0000
0010
0000
0100
0000
0000
0000
,  // measure 32
0110
0000
0000
0010
1000
0000
0010
0000
1000
0000
0001
0000
0100
0000
0000
0000
,  // measure 33
0101
0000
0000
0001
1000
0000
0100
0000
0010
0000
0100
0000
1000
0000
0000
0000
,  // measure 34
1100
0000
0000
1000
0100
0000
0010
0000
0100
0000
1000
0000
0010
0000
0000
0000
,  // measure 35
1010
0000
0000
0010
1000
0000
0001
0000
0100
0000
0001
0000
0010
0000
0000
0000
,  // measure 36
0011
0000
0000
0001
0010
0000
0100
0000
0010
0000
0001
0000
1000
0000
0000
0000
,  // measure 37
1001
0000
0000
0001
1000
0000
0100
0000
0010
0000
0100
0000
1000
0000
0000
0000
,  // measure 38
1010
0000
0000
0010
1000
0000
0010
0000
0100
0000
0001
0000
1001
0000
0000
0000
,  // measure 39
0101
0000
0000
0001
1000
0000
0100
0000
1000
0000
0010
0000
1010
0000
0000
0000
,  // measure 40
1001
0000
0000
1000
0001
0000
0010
0000
0001
0000
0100
0000
0110
0000
0000
0000
,  // measure 41
0101
0000
0000
0001
0100
0000
0010
0000
0100
0000
0002
0000
0010
0000
1003
0000
,  // measure 42
0100
0000
0000
0010
0100
0000
0010
0000
1000
0000
0001
0000
1000
0000
0100
0000
,  // measure 43
0010
0000
0100
1000
0001
0000
0100
0000
0010
0000
0100
0000
0001
0000
0010
0000
,  // measure 44
0100
0000
0010
0001
1000
0000
0001
0000
0010
0000
0100
0000
1000
0000
0010
0000
,  // measure 45
0001
0000
1000
0100
0010
0000
1000
0000
0001
0000
0010
0000
0001
0000
0100
0000
,  // measure 46
0010
0000
0001
0010
0100
0000
0010
0000
1000
0000
0001
0000
1001
0000
1000
0000
,  // measure 47
0100
1000
1100
1000
1001
0001
0100
0001
,  // measure 48
0101
0001
0011
0001
1000
0001
1001
1000
,  // measure 49
0100
1000
1100
1000
1001
0001
0100
0001
,  // measure 50
0101
0001
0010
0100
0010
0001
0101
0001
,  // measure 51
0100
0010
0110
0010
1010
0010
0100
0010
,  // measure 52
0110
0010
1010
1000
0100
0001
0101
0001
,  // measure 53
0100
0000
1000
0000
1001
0000
1000
0000
0010
0000
0100
0010
0200
0000
0310
0100
,  // measure 54
0020
0000
1000
0100
0100
0000
0001
0100
,  // measure 55
0100
0000
0000
0000
1000
0000
0100
0000
0100
0000
0000
0000
1030
0000
0001
1000
,  // measure 56
0001
0010
0000
0001
1000
0000
0001
0100
,  // measure 57
1000
0000
0000
0000
;
