#TITLE:Adeyyo;
#SUBTITLE:;
#ARTIST:Ece Seçkin;
#TITLETRANSLIT:;
#SUBTITLETRANSLIT:;
#ARTISTTRANSLIT:Ece Seckin;
#GENRE:;
#CREDIT:;
#MENUCOLOR:;
#METERTYPE:DDR;
#BANNER:Adeyyo.png;
#BACKGROUND:Adeyyo-bg.png;
#LYRICSPATH:;
#CDTITLE:./CDTITLES/NONE.PNG;
#MUSIC:Adeyyo.ogg;
#OFFSET:0.000;
#SAMPLESTART:63.158;
#SAMPLELENGTH:15.000;
#SELECTABLE:YES;
#LISTSORT:;
#BPMS:0.000=95.000;
#STOPS:;
#BGCHANGES:0.000=Adeyyo.avi=1.000=0=0=0,
99999=-nosongbg-=1.000=0=0=0 // don't automatically add -songbackground-
;
#ATTACKS:;

//---------------dance-single - ----------------
#NOTES:
     dance-single:
     :
     Beginner:
     1:
     0.077,0.096,0.000,0.000,0.000:
0000
0000
0000
0000
,
0000
0000
0000
0000
,
0000
0000
0000
0000
,
0000
0000
0000
0000
,
0000
0000
0000
0000
,
0001
0000
0000
0000
,
1000
0000
0000
0000
,
0010
0000
0000
0000
,
0100
0000
0100
0000
,
0010
0000
0010
0000
,
0010
0000
0000
0000
,
1000
0000
1000
0000
,
1000
0000
0000
0000
,
0001
0000
0001
0000
,
0001
0000
0000
0000
,
0100
0000
0100
0000
,
0100
0000
0000
0000
,
0010
0000
0100
0000
,
0010
0000
0000
0000
,
1000
0000
0001
0000
,
1000
0000
0000
0000
,
0001
0000
1000
0000
,
0001
0000
0000
0000
,
0100
0000
0010
0000
,
0100
0000
0000
0000
,
0010
0000
0010
0000
,
0010
0000
0000
0000
,
1000
0000
1000
0000
,
1000
0000
0000
0000
,
0001
0000
0001
0000
,
0001
0000
0000
0000
,
0100
0000
0100
0000
,
0100
0000
0000
0000
,
0001
0000
0000
0000
,
1000
0000
0000
0000
,
0001
0000
0000
0000
,
1000
0000
1000
0000
,
0001
0000
0001
0000
,
0001
0000
0000
0000
,
1000
0000
1000
0000
,
1000
0000
0000
0000
,
0010
0000
0010
0000
,
0010
0000
0010
0000
,
0100
0000
0100
0000
,
0100
0000
0100
0000
,
0001
0000
0001
0000
,
0001
0000
0001
0000
,
1000
0000
1000
0000
,
1000
0000
1000
0000
;

//---------------dance-single - ----------------
#NOTES:
     dance-single:
     :
     Easy:
     3:
     0.176,0.212,0.024,0.150,0.000:
0000
0000
0000
0000
,
0000
0000
0000
0000
,
0000
0000
0000
0000
,
0000
0000
0000
0000
,
0000
0000
0000
0000
,
0002
1003
0100
1000
,
2000
3001
0100
0001
,
0020
0130
0010
0001
,
0200
0310
0100
0001
,
1000
0000
0001
0000
,
1000
0000
0100
1000
,
0001
0000
0100
0000
,
0001
0000
0010
0001
,
1000
0020
1030
0020
,
0030
0000
1000
1000
,
0001
0020
0031
0020
,
0030
0000
0001
0001
,
1000
0000
0100
0000
,
0001
0000
0100
0000
,
1000
0000
0010
0000
,
0001
0000
0010
0000
,
1000
0100
1000
0000
,
0001
0100
0001
0000
,
1000
0010
1000
0000
,
0001
0010
0001
0000
,
2000
0000
3001
0000
,
0200
0000
0310
0010
,
2000
0000
3001
0000
,
0200
0000
0310
0010
,
2000
0000
3100
0000
,
0020
0000
0031
1000
,
0002
0000
0103
0000
,
0020
0000
1030
0001
,
1000
0000
1001
0000
,
0001
0000
1001
0000
,
0010
0000
0110
0000
,
0100
0000
0100
0000
,
0010
0010
0010
0020
,
1030
1000
1000
2000
,
3001
0001
0001
0002
,
0103
0100
0010
0010
,
1000
0001
1000
0100
,
1000
0010
0100
0100
,
0001
1000
0001
0100
,
0001
0010
0100
0100
,
1000
0001
1000
0010
,
1000
0100
0010
0010
,
0001
1000
0001
0100
,
0001
0010
0100
0100
;

//---------------dance-single - ----------------
#NOTES:
     dance-single:
     :
     Medium:
     7:
     0.335,0.386,0.087,0.277,0.016:
0000
0000
0000
0000
,
0000
0000
0000
0000
,
0000
0000
0000
0000
,
0000
0000
0000
0000
,
0000
0000
0000
0000
,
2000
0000
3001
0100
0001
0100
0020
0000
,
0230
0000
0301
0010
0001
0010
0200
0000
,
0320
0000
0031
1000
0001
1000
0200
0000
,
2300
0000
3001
1000
0001
1000
0020
0000
,
1030
0000
0100
0000
1000
0001
0100
0000
,
0001
0000
1000
0000
0001
1000
0010
0000
,
1000
0000
0010
0000
0100
0010
1000
0000
,
0001
0000
0010
0000
0100
0010
0001
0000
,
1000
0200
1000
0300
1000
0200
0000
0300
,
1000
0010
0100
0000
0001
0010
0010
0000
,
0001
0200
0001
0300
0001
0200
0000
0300
,
0001
0010
0100
0000
1000
0001
0001
0000
,
0100
0010
1000
0000
0001
1000
0010
0000
,
1000
0100
0010
0000
0001
1000
1000
0000
,
0001
0100
0010
0000
1000
0001
0010
0000
,
0100
1000
0001
0000
0010
0100
0100
0000
,
0010
0001
0100
0000
0010
1000
0100
0000
,
0010
0100
1000
0000
0001
0010
0010
0000
,
0100
1000
0010
0000
0100
0001
0010
0000
,
0001
0100
1000
0000
0100
0001
1000
0000
,
0002
0000
0013
0000
0001
0100
0001
1000
,
0020
0000
1030
0000
0100
0010
0001
0000
,
2000
0000
3100
0000
1000
0010
1000
0001
,
0020
0000
0031
0000
0100
0001
1000
0000
,
0020
0000
0130
0000
0001
0100
0010
1000
,
0200
0000
0310
0000
0100
1000
0001
0000
,
2000
0000
3100
0000
1000
0100
0010
0001
,
0200
0000
0310
0000
0100
0001
1000
0000
,
0010
0000
0000
1000
0000
0000
0001
0000
1000
0000
0000
0000
0100
0000
0000
0000
,
0010
0000
0000
0001
0000
0000
1000
0000
0001
0000
0000
0000
0100
0000
0000
0000
,
0010
0000
0000
0100
0000
0000
0001
0000
0010
0000
0000
0000
0001
0000
0000
0000
,
1000
0000
0000
0100
0000
0000
1000
0000
0001
0000
0000
0000
1000
0000
0000
0000
,
0002
0000
0013
0001
0100
0010
2000
0000
,
3020
0000
0130
0001
1000
0100
0020
0000
,
0230
0000
1300
0001
0100
0001
2000
0000
,
3020
0000
0130
0001
0010
0100
0110
0000
,
0020
0000
0031
0010
0100
1000
0001
0000
,
2000
0000
3010
0100
0001
1000
1001
0000
,
0200
0000
0310
1000
0001
0100
0010
0000
,
2000
0000
3001
0010
0100
0010
0011
0000
,
1002
0000
0103
0001
1000
0010
1010
0000
,
1200
0000
1300
0100
0010
0001
1001
0000
,
0201
0000
0310
0100
0001
0010
0110
0000
,
2100
0000
3001
1000
0010
0100
0110
0000
;

//---------------dance-single - ----------------
#NOTES:
     dance-single:
     :
     Hard:
     10:
     0.501,0.463,0.491,0.190,0.226:
0000
0000
0000
0000
,
0000
0000
0000
0000
,
0000
0000
0000
0000
,
0000
0000
0000
0000
,
0000
0000
0000
0000
,
0020
0000
0000
0130
0001
0000
0100
0000
0010
0000
1000
0000
1200
0000
0000
0000
,
2300
0000
0000
3100
1000
0000
0100
0000
0010
0000
0001
0000
0201
0000
0000
0000
,
0320
0000
0000
0130
0010
0000
0100
0000
0001
0000
1000
0000
1020
0000
0000
0000
,
2030
0000
0000
3100
1000
0000
0100
0000
0010
0000
0110
0000
1100
0000
0000
0000
,
0001
0000
0010
0001
0010
0000
0001
0000
1000
0000
0010
1000
0010
0000
1000
0000
,
0001
0000
0010
0001
0010
0000
0001
0000
1000
0000
1001
0000
0110
0000
0000
0000
,
0010
0000
1000
0100
1000
0000
0001
0000
1000
0000
0001
0100
0001
0000
1000
0000
,
0001
0000
1000
0100
1000
0000
0001
0000
1000
0000
0110
0000
0101
0000
0010
0000
,
1000
0200
1000
0310
1000
0200
1000
0300
,
1000
0010
0100
0000
0001
0110
0011
0000
,
0001
0200
0001
0310
0001
0200
0001
0300
,
0010
1000
0100
0000
0010
0110
1100
0000
,
0001
0000
0100
0010
1000
0000
0001
0000
0100
0001
1000
0001
0100
0000
0001
0000
,
1000
0000
0100
0010
0001
0000
1000
0000
0100
0000
0110
0000
1100
0000
0000
0000
,
0010
0000
0100
0001
1000
0000
0001
0000
0010
0001
1000
0001
0100
0000
0001
0000
,
1000
0000
0001
1000
0010
0000
1000
0000
0001
0000
1001
0000
0110
0000
0000
0000
,
0010
0000
0100
0010
1000
0000
0001
0000
0010
0100
0010
0001
1000
0000
0001
0000
,
0100
0000
0001
0010
0100
0000
0010
0000
0001
0000
0011
0000
0110
0000
0000
0000
,
1010
0000
0010
1000
0100
0000
0010
0000
0001
0100
0001
0010
0001
0000
1000
0000
,
0001
0000
0010
0100
1000
0000
0001
0000
1000
0000
1001
0000
1100
0000
0000
0000
,
1020
0000
0000
1030
0010
0000
1000
0000
0100
0000
1000
0000
0001
0000
0010
0000
,
0002
0000
0000
0013
0001
0000
0010
0000
0100
0000
0010
0000
0110
0000
0000
0000
,
0012
0000
0000
1003
0001
0000
0100
0000
0001
0000
1000
0000
0100
0000
1000
0000
,
0020
0000
0000
1030
0010
0000
0100
0000
0010
0000
1000
0000
1100
0000
0000
0000
,
0210
0000
0000
0310
0001
0000
0100
0000
0010
0000
1000
0000
0001
0000
0100
0000
,
0002
0000
0000
1003
0100
0000
1000
0000
0001
0000
0100
0000
0101
0000
0000
0000
,
1020
0000
0000
1030
0010
0000
1000
0000
0100
0000
0010
0000
0100
0000
1000
0000
,
0002
0000
0000
0103
0001
0000
0100
0000
0010
0000
0100
0000
0110
0000
0000
0000
,
1010
0000
0000
1001
0000
0000
1100
0000
0001
0000
0010
0100
1000
0000
0001
0000
,
1001
0000
0000
0101
0000
0000
1001
0000
1000
0000
0010
0100
0001
0000
1000
0000
,
0110
0000
0000
0101
0000
0000
1010
0000
0001
0000
0010
0100
1000
0000
0010
0000
,
0110
0000
0000
0101
0000
0000
1100
0000
0001
0000
0010
0000
0110
0000
0000
0000
,
0021
0000
0000
0031
0010
0000
0001
0000
1000
0000
0100
0000
1100
0000
0000
0000
,
1020
0000
0000
1030
0010
0000
1000
0000
0010
0000
0100
0000
0110
0000
0000
0000
,
2100
0000
0000
3100
1000
0000
0100
0000
0010
0000
0001
0000
0011
0000
0000
0000
,
0201
0000
0000
0301
0100
0000
0010
0000
0100
0000
0110
0000
0101
0000
0000
0000
,
1100
0000
0001
1000
0100
0000
1000
0000
0001
0000
1000
0001
0010
0000
0001
0000
,
1000
0000
0001
1000
0100
0000
1000
0000
0010
0000
0110
0000
0101
0000
0000
0000
,
1010
0000
0010
1000
0100
0000
1000
0000
0010
0000
0100
0001
0010
0000
0001
0000
,
0100
0000
0010
1000
0100
0000
0010
0000
0100
0000
1100
0000
0110
0000
0000
0000
,
0011
0000
0001
1000
0010
0000
1000
0000
0001
0000
0100
0001
1000
0000
0001
0000
,
0010
0000
0001
1000
0100
0000
1000
0000
0001
0000
0011
0000
0101
0000
0000
0000
,
0110
0000
1000
0100
0001
0000
0100
0000
1000
0000
0001
0010
1000
0000
0010
0000
,
0001
0000
0100
0010
1000
0000
0010
0000
0200
0000
0001
0000
0310
0000
0000
0000
;

//---------------dance-single - ----------------
#NOTES:
     dance-single:
     :
     Challenge:
     16:
     0.812,0.772,0.515,0.269,1.000:
0000
0000
0000
0000
,
0000
0000
0000
0000
,
0000
0000
0000
0000
,
0000
0000
0000
0000
,
0000
0000
0000
0000
,
0001
0000
2000
0000
0000
0000
3010
0000
2000
0000
0000
0000
3001
0000
0000
0000
1000
0000
0100
1000
0100
0000
1000
0000
0001
0000
0100
0000
0001
0000
0010
0000
,
0001
0000
0200
0000
0000
0000
0310
0000
0200
0000
0000
0000
0301
0000
0000
0000
1000
0000
0010
1000
0010
0000
1000
0000
0001
0000
0010
0000
0100
0000
1000
0000
,
0010
0000
0200
0000
0000
0000
0301
0000
2000
0000
0000
0000
3010
0000
1000
0000
0001
0000
0010
0001
0010
0000
0001
0000
0100
0000
0010
0000
1000
0000
0001
0000
,
1000
0200
0000
0310
0200
0000
1300
0000
1001
0000
0110
0000
1002
0000
0000
0000
,
1003
0000
0100
0000
0010
0000
0100
1000
0100
0000
1000
0000
0001
0000
0100
0000
0010
0000
0100
0000
0001
0000
0010
0001
0010
0000
0001
0000
1000
0000
0010
0000
,
0100
0000
0001
0000
1000
0000
0100
1000
0100
0000
1000
0000
0001
0000
0100
0000
0001
0000
0010
0000
0011
0000
0000
0000
1001
0000
0000
0000
0000
0000
0000
0000
,
1000
0000
0100
0010
0100
0000
1000
0000
0010
0000
0100
0000
0001
0000
0010
0000
0001
0000
1000
0001
1000
0000
0001
0000
0100
0000
0010
0000
1000
0000
0010
0000
,
0100
0000
0001
0010
0001
0000
1000
0000
0100
0000
0010
0000
0001
0000
1000
0000
0010
0000
1000
0000
1010
0000
0000
0000
1001
0000
0000
0000
1100
0000
0000
0000
,
0110
2100
0001
3010
0110
2100
0001
3000
,
1000
0001
0100
0001
1000
0100
0001
0100
1000
0000
1001
0000
0110
0000
0101
0000
,
0011
0102
1000
0013
0011
0102
1000
0003
,
1000
0010
0100
0001
1000
0010
0001
0010
1000
0000
1001
0000
0120
0000
0000
0000
,
1030
0000
0010
0000
0100
0000
0010
1000
0001
0000
0010
0000
0001
0000
1000
0000
0001
0000
0010
0000
0100
0000
0010
0001
1000
0000
0001
0000
0100
0000
0010
0000
,
1000
0000
0100
0010
0001
0000
0010
0000
0100
0000
1000
0100
0010
0000
0001
0000
0100
0000
0000
0000
0110
0000
0000
0000
0102
0000
0000
0000
0000
0000
0000
0000
,
0013
0000
0001
0000
0100
0000
0001
1000
0010
0000
1000
0000
0001
0000
0100
0000
0010
0000
1000
0000
0100
0000
1000
0001
0010
0000
0001
0000
0100
0000
0010
0000
,
1000
0000
0010
0100
0001
0000
1000
0000
0001
0000
0010
0100
1000
0000
0001
0000
1000
0000
0000
0000
1001
0000
0000
0000
0120
0000
0000
0000
0000
0000
0000
0000
,
1030
0000
0100
1000
0100
0000
1000
0001
1000
0000
0001
0100
0001
0000
1000
0000
0001
0000
0010
0001
0010
0000
0001
1000
0001
0000
0100
0001
0100
0000
0001
0000
,
1000
0000
0010
0100
0001
0000
0100
0010
1000
0000
0010
0100
0001
0000
1000
0000
0100
0000
0000
0000
1100
0000
0000
0000
0021
0000
0000
0000
0000
0000
0000
0000
,
0031
0000
0100
0001
0010
0000
0100
1000
0010
0000
0100
0001
0010
0000
0100
0000
1000
0000
0001
1000
0100
0000
1000
0001
0100
0000
0001
1000
0010
0000
1000
0000
,
0001
0000
1000
0100
0010
0000
0001
0100
0010
0000
1000
0010
0100
0000
0010
0000
1000
0000
0000
0000
1010
0000
0000
0000
0120
0000
0000
0000
0000
0000
0000
0000
,
1030
0100
0100
1000
0100
0001
0100
1000
0010
1000
0010
0100
0010
0001
0010
0100
,
0010
1000
1000
0010
0100
0001
1000
0100
0010
0000
0110
0000
2001
0000
0000
0000
,
3001
0010
0010
0001
0010
1000
0010
0001
0100
0001
0100
0010
0100
1000
0100
0010
,
0100
0001
0001
0100
0010
1000
0001
0010
0100
0000
0110
0000
1002
0000
0000
0000
,
0013
0001
0001
0100
0010
0100
0001
1000
0001
0010
0001
1000
0001
0100
0001
1000
,
0001
0010
0010
0100
1000
0010
0100
0001
1000
0000
1001
0000
0120
0000
0000
0000
,
0130
0001
0001
0100
0010
0100
0001
1000
0100
1000
0100
0010
0100
1000
0100
0001
,
0100
1000
1000
0010
0100
0001
0010
0100
1000
0000
0011
0000
1001
0000
0101
0000
,
1010
0000
0000
0000
0000
0000
0000
0000
0000
0000
0000
0000
0000
0000
0000
0000
0000
0000
0000
0000
0000
0000
0000
0000
0100
0000
0000
0000
0000
0000
0000
0000
0000
0000
0000
0000
1100
0000
0000
0000
0000
0000
0000
0000
0000
0000
0000
0000
0000
0000
0000
0000
0000
0000
0000
0000
0000
0000
0000
0000
0010
0000
0000
0000
0000
0000
0000
0000
0000
0000
0000
0000
0011
0000
0000
0000
0000
0000
0000
0000
0000
0000
0000
0000
0001
0000
0000
0000
0000
0000
0000
0000
0000
0000
0000
0000
1000
0000
0000
0000
0000
0000
0000
0000
0000
0000
0000
0000
0001
0000
0000
0000
0000
0000
0100
0000
0000
0000
0000
0000
0001
0000
0000
0000
0000
0000
0000
0000
0000
0000
0000
0000
1000
0000
0000
0000
0000
0000
0000
0000
0000
0000
0000
0000
0001
0000
0000
0000
0000
0000
0000
0000
0000
0000
0000
0000
0000
0000
0000
0000
0010
0000
0000
0000
0000
0000
0000
0000
0001
0000
0000
0000
0000
0000
0000
0000
0000
0000
0000
0000
0000
0000
0000
0000
0001
0000
0000
0000
0000
0000
0000
0000
,
0101
0000
0000
0000
0000
0000
0000
0000
0000
0000
0000
0000
0000
0000
0000
0000
0000
0000
0000
0000
0000
0000
0000
0000
1000
0000
0000
0000
0000
0000
0000
0000
0000
0000
0000
0000
1010
0000
0000
0000
0000
0000
0000
0000
0000
0000
0000
0000
0000
0000
0000
0000
0000
0000
0000
0000
0000
0000
0000
0000
0001
0000
0000
0000
0000
0000
0000
0000
0000
0000
0000
0000
0011
0000
0000
0000
0000
0000
0000
0000
0000
0000
0000
0000
0100
0000
0000
0000
0000
0000
0000
0000
0000
0000
0000
0000
1000
0000
0000
0000
0000
0000
0000
0000
0000
0000
0000
0000
0010
0000
0000
0000
0000
0000
0100
0000
0000
0000
0000
0000
0001
0000
0000
0000
0000
0000
0000
0000
0000
0000
0000
0000
0100
0000
0000
0000
0000
0000
0000
0000
0000
0000
0000
0000
0010
0000
0000
0000
0000
0000
0000
0000
0000
0000
0000
0000
0000
0000
0000
0000
1000
0000
0000
0000
0000
0000
0000
0000
0001
0000
0000
0000
0000
0000
0000
0000
0000
0000
0000
0000
0000
0000
0000
0000
1000
0000
0000
0000
0000
0000
0000
0000
,
1010
0000
0000
0000
0000
0000
0000
0000
0000
0000
0000
0000
0000
0000
0000
0000
0000
0000
0000
0000
0000
0000
0000
0000
1000
0000
0000
0000
0000
0000
0000
0000
0000
0000
0000
0000
1100
0000
0000
0000
0000
0000
0000
0000
0000
0000
0000
0000
0000
0000
0000
0000
0000
0000
0000
0000
0000
0000
0000
0000
0001
0000
0000
0000
0000
0000
0000
0000
0000
0000
0000
0000
0011
0000
0000
0000
0000
0000
0000
0000
0000
0000
0000
0000
0001
0000
0000
0000
0000
0000
0000
0000
0000
0000
0000
0000
0100
0000
0000
0000
0000
0000
0001
0000
0000
0000
0000
0000
0100
0000
0000
0000
0000
0000
0001
0000
0000
0000
0000
0000
1000
0000
0000
0000
0000
0000
0000
0000
0000
0000
0000
0000
0000
0000
0000
0000
0010
0000
0000
0000
0000
0000
0000
0000
0100
0000
0000
0000
0000
0000
0000
0000
0000
0000
0000
0000
0000
0000
0000
0000
0100
0000
0000
0000
0000
0000
0000
0000
0001
0000
0000
0000
0000
0000
0000
0000
0000
0000
0000
0000
0000
0000
0000
0000
1000
0000
0000
0000
0000
0000
0000
0000
,
1001
0000
0000
0000
1000
0000
1100
0000
0000
0000
0001
0000
0101
0000
0001
0000
1000
0100
1000
0100
0010
0100
0010
0100
2000
0000
0000
0000
3000
0000
0000
0000
,
0001
0000
0020
0000
0000
0000
0031
0000
2000
0000
0000
0000
3001
0000
0100
0000
0001
0000
0010
0001
1000
0000
0001
0000
0100
0000
0001
1000
0100
0000
1000
0000
,
0010
0000
0200
0000
0000
0000
0310
0000
2000
0000
0000
0000
3001
0000
0100
0000
0001
0000
1000
0100
0010
0000
0001
0000
1000
0000
0010
0100
0001
0000
1000
0000
,
0100
0000
0020
0000
0000
0000
0130
0000
2000
0000
0000
0000
3010
0000
0100
0000
0001
0000
1000
0001
0100
0000
0001
0000
1000
0000
0001
1000
0010
0000
1000
0000
,
0001
0201
0000
1300
1200
0000
0301
0000
1100
0000
0110
0000
0012
0000
0000
0000
,
1003
0010
0010
1000
0100
1000
0001
0100
0010
0100
0010
1000
0010
0100
0010
0001
,
0010
1000
1000
0100
0010
0100
1000
0001
0011
0000
1001
0000
0102
0000
0000
0000
,
0013
0100
0100
0010
0001
1000
0001
1000
0100
0001
0100
1000
0100
0010
0100
1000
,
0100
0010
0010
0001
0100
0001
1000
0010
1010
0000
1001
0000
1200
0000
0000
0000
,
1300
0100
0100
1000
0010
0100
0001
0010
0001
0100
1000
0100
0001
0100
1000
0100
,
0001
0010
0010
0001
0100
0010
1000
0001
1001
0000
0101
0000
2010
0000
0000
0000
,
3001
0010
0010
0001
0100
0001
1000
0100
1000
0010
0001
0010
1000
0010
0001
0010
,
1000
0100
0100
0010
0001
1000
0001
0100
1000
0000
0010
0000
0110
0000
0000
0000
;

//---------------dance-double - ----------------
#NOTES:
     dance-double:
     :
     Easy:
     4:
     0.162,0.192,0.032,0.103,0.000:
00000000
00000000
00000000
00000000
,
00000000
00000000
00000000
00000000
,
00000000
00000000
00000000
00000000
,
00000000
00000000
00000000
00000000
,
00000000
00000000
00000000
00000000
,
00001000
00000000
00001000
00000000
,
00010000
00000000
00010000
00000000
,
00000010
00000000
00000010
00000000
,
00000100
00000100
00000200
00000300
,
00000001
00001000
00000100
00000000
,
00001000
00010000
01000000
00000000
,
00100000
10000000
00010000
00000000
,
00100000
00001000
00010000
00000000
,
00000020
00001030
00000020
00001030
,
00000001
00000000
00000010
00000100
,
00020000
00030100
00020000
00030100
,
00010000
00000000
00001000
00010000
,
01000000
10000000
01000000
10000000
,
00000000
00100000
00100000
00100000
,
01000000
00001000
01000000
00001000
,
00000000
00000010
00000010
00000010
,
00000001
00000100
00000001
00000100
,
00000000
00001000
00001000
00001000
,
00010000
00100000
00010000
00100000
,
00000000
10000000
10000000
10000000
,
00100000
00000000
10000000
00000000
,
00010000
00000000
01000000
00000000
,
00001000
00000000
00010000
00000000
,
00000010
00000000
00000100
00000000
,
00000001
00000001
00000001
00000000
,
00000010
00000010
00000010
00000000
,
00001000
00001000
00001000
00000000
,
00100000
00100000
00100000
00000000
,
00011000
00000000
00000000
00000000
,
00011000
00000000
00000000
00000000
,
01010000
00000000
00000000
00000000
,
00010100
00000000
00000000
00000000
,
00001000
00001000
00002000
00003000
,
00000010
00000010
00000020
00000030
,
00000001
00000100
00002000
00003000
,
00010000
01000000
20000000
30000000
,
00100000
10000000
00100000
10000000
,
01000000
00010000
00200000
00300000
,
00010000
00001000
00010000
00001000
,
00010000
00000100
00000020
00000030
,
00000001
00000100
00000001
00000100
,
00001000
00000010
00000200
00000300
,
00010000
00001000
00010000
00001000
,
00200000
00000000
00310000
00000000
;

//---------------dance-double - ----------------
#NOTES:
     dance-double:
     :
     Medium:
     7:
     0.325,0.328,0.040,0.285,0.016:
00000000
00000000
00000000
00000000
,
00000000
00000000
00000000
00000000
,
00000000
00000000
00000000
00000000
,
00000000
00000000
00000000
00000000
,
00000000
00000000
00000000
00000000
,
00200000
00000000
01300000
00010000
01000000
00001000
00020000
00000000
,
00030020
00000000
00000130
00000001
00000100
00000010
00020000
00000000
,
00030200
00000000
00010300
00000100
00010000
00001000
00020000
00000000
,
00032000
00000000
00103000
00010000
01000000
00100000
10000000
00000000
,
00100000
10000000
00100000
00000000
01000000
00010000
01000000
00000000
,
00001000
00100000
00001000
00000000
00010000
00001000
00011000
00000000
,
00000010
00000100
00000010
00000000
00000100
00000001
00000100
00000000
,
00000001
00000010
00000001
00000000
00001000
00000100
00001100
00000100
,
00010000
00002000
00000000
01003000
00001000
00020000
00000000
00030000
,
00001000
00100000
00010000
00000000
01000000
00010000
00100000
00010000
,
01000000
00020000
00000000
01030000
00001000
00020000
00000000
00030000
,
00001000
00000100
00000001
00000000
00000100
00010000
00011000
00000000
,
00100000
00010000
00100000
00000000
01000000
10000000
01000000
00000000
,
00000000
10000000
00010000
00000000
01000000
00001000
00010000
00000000
,
00000010
00010000
00000010
00000000
00000100
00000010
00000100
00000000
,
00000010
00000000
00001000
00000000
00000001
00001000
00000100
00000000
,
00000010
00000001
00000010
00000000
00000100
00010000
00000100
00000000
,
00010000
00001000
00010000
00000000
00001000
01000000
00100000
00000000
,
01000000
00100000
01000000
00000000
00010000
10000000
01000000
00000000
,
00100000
00001000
00010000
00000000
00001000
00010000
00001000
00000000
,
00021000
00000000
00030010
00000000
00010000
00000010
00000100
00000000
,
00000020
00000000
00010030
00000000
00000010
00010000
00000100
00000000
,
00020000
00000000
00030100
00000000
00010000
00001000
00100000
00000000
,
00020000
00000000
01030000
00000000
00100000
10000000
00010000
00000000
,
20000000
00000000
31000000
00000000
00100000
00001000
00010000
00000000
,
00002000
00000000
00103000
00000000
00001000
00010000
00000010
00000000
,
00000200
00000000
00000310
00000000
00000100
00000001
00001000
00000000
,
00000020
00000000
00000130
00000000
00010000
00001000
00100000
00000000
,
00010000
00000000
00000000
00100000
00000000
00000000
02000000
00000000
00000000
00000000
00000000
00000000
13000000
00000000
00000000
00000000
,
10000000
00000000
00000000
00100000
00000000
00000000
02000000
00000000
00000000
00000000
00000000
00000000
03010000
00000000
00000000
00000000
,
00100000
00000000
00000000
00001000
00000000
00000000
00020000
00000000
00000000
00000000
00000000
00000000
00031000
00000000
00000000
00000000
,
00000010
00000000
00000000
00000001
00000000
00000000
00000200
00000000
00000000
00000000
00000000
00000000
00000310
00000000
00000000
00000000
,
00002000
00000000
00003010
00001000
00000100
00010000
00001000
00000000
,
00020000
00000000
00031000
01000000
00010000
00100000
00010000
00000000
,
20000000
00000000
31000000
00100000
00010000
01000000
00002000
00000000
,
00023000
00000000
00030010
00000100
00000001
00000010
00000110
00000000
,
00000020
00000000
00000031
00000100
00000010
00001000
00000100
00000000
,
00020000
00000000
00030100
00010000
00001000
01000000
00001000
00000000
,
02000000
00000000
03100000
10000000
00010000
00100000
00010000
00000000
,
20000000
00000000
31000000
00100000
00001000
00010000
00001000
00000000
,
00020000
00000000
00030010
00001000
00000001
00000100
00000010
00000000
,
00000200
00000000
00000301
00000010
00001000
00010000
00100000
00000000
,
20000000
00000000
31000000
00100000
00001000
00010000
00001000
00000000
,
00000020
00000000
00000130
00000001
00001000
00000100
00010000
00000000
;

//---------------dance-double - ----------------
#NOTES:
     dance-double:
     :
     Hard:
     11:
     0.476,0.482,0.340,0.269,0.214:
00000000
00000000
00000000
00000000
,
00000000
00000000
00000000
00000000
,
00000000
00000000
00000000
00000000
,
00000000
00000000
00000000
00000000
,
00000000
00000000
00000000
00000000
,
00020000
00000000
00000000
01030000
00010000
00000000
01000000
00000000
00010000
00000000
00100000
00000000
00002000
00000000
00000000
00000000
,
00023000
00000000
00000000
00030010
00001000
00000000
00000010
00000000
00000100
00000000
00000001
00000000
00002000
00000000
00000000
00000000
,
00003002
00000000
00000000
00000013
00000001
00000000
00000010
00000000
00000100
00000000
00010000
00000000
00002000
00000000
00000000
00000000
,
00023000
00000000
00000000
00031000
01000000
00000000
00100000
00000000
01000000
00000000
00010000
00000000
10010000
00000000
00000000
00000000
,
10000000
00000000
01000000
10000000
01000000
00000000
10000000
00000000
00010000
00000000
01000000
00010000
01000000
00000000
00010000
00000000
,
00100000
00000000
00001000
00010000
00001000
00000000
00010000
00000000
00000010
00000000
00000100
00000000
00000110
00000000
00000000
00000000
,
00000001
00000000
00000010
00000001
00000010
00000000
00000001
00000000
00001000
00000000
00000100
00010000
00000100
00000000
00010000
00000000
,
00001000
00000000
01000000
00010000
01000000
00000000
00010000
00000000
00100000
00000000
00010000
00000000
00110000
00000000
10000000
00000000
,
01000000
20000000
00100000
30010000
01000000
20000000
00100000
30000000
,
10000000
01000000
00100000
00000000
00001000
00010000
00011000
00010000
,
00000100
00002000
00000010
00003001
00000100
00002000
00000010
00003000
,
00000001
00000010
00000100
00000000
00000010
00000110
00001001
00000000
,
00000001
00000000
00000100
00000001
00000100
00000000
00000001
00000000
00001000
00000000
00000100
00010000
00000100
00000000
00010000
00000000
,
00000000
00001000
00000000
00001000
00100000
00000000
00010000
00000000
01000000
00000000
00100000
00000000
01100000
00000000
00000000
00000000
,
10000000
00000000
00100000
10000000
00100000
00000000
10000000
00000000
00010000
00000000
00100000
00010000
00100000
00000000
00001000
00000000
,
00010000
00000000
00000010
00000100
00000001
00000000
00000010
00000000
00000100
00000000
00010100
00000000
00011000
00000000
00000000
00000000
,
00101000
00000000
00001000
01000000
00100000
00000000
01000000
00000000
00001000
00000000
00100000
00001000
00010000
00000000
00001000
00000000
,
00010000
00000000
00000010
00000100
00000001
00000000
00000010
00000000
00000100
00000000
00010100
00000000
00011000
00000000
00000000
00000000
,
00010100
00000000
00001000
00010000
00001000
00000000
00100000
00000000
00001000
01000000
00001000
00010000
00001000
00000000
00100000
00000000
,
00010000
01000000
00100000
10000000
00010000
00000000
10000000
00000000
01000000
00000000
01100000
00000000
00101000
00000000
00000000
00000000
,
00012000
00000000
00000000
00013000
00001000
00000000
00010000
00000000
00000010
00000000
00000100
00000000
00000010
00000000
00010000
00000000
,
00000200
00000000
00000000
00010300
00000100
00000000
00010000
00000000
00001000
00000000
00010000
00000000
00011000
00000000
00000000
00000000
,
00201000
00000000
00000000
00301000
00100000
00000000
00001000
00000000
01000000
00000000
00100000
00000000
10000000
00000000
00010000
00000000
,
20000000
00000000
00000000
31000000
10000000
00000000
01000000
00000000
00100000
00000000
00010000
00000000
10010000
00000000
00000000
00000000
,
02001000
00000000
00000000
03001000
01000000
00000000
00001000
00000000
00100000
00000000
00001000
00000000
00010000
00000000
00001000
00000000
,
00020000
00000000
00000000
00030010
00000100
00000000
00000010
00000000
00001000
00000000
00000001
00000000
00001001
00000000
00000000
00000000
,
00000021
00000000
00000000
00000031
00000010
00000000
00000001
00000000
00000100
00000000
00001000
00000000
00010000
00000000
01000000
00000000
,
00200000
00000000
00000000
00310000
10000000
00000000
00100000
00000000
01000000
00000000
00001000
00000000
01001000
00000000
00000000
00000000
,
00101000
00000000
00000000
00011000
00000000
00000000
01001000
00000000
00001000
00010000
00001000
00010000
00001000
00000000
00010000
00000000
,
00010100
00000000
00000000
00010010
00000000
00000000
00000110
00000000
00000010
00000000
00000010
00001000
00000010
00000000
00001000
00000000
,
00001001
00000000
00000000
00001100
00000000
00000000
00010100
00000000
00000100
00010000
00000100
00010000
00000100
00000000
00010000
00000000
,
00011000
00000000
00000000
01001000
00000000
00000000
01100000
00000000
00100000
00000000
10000000
00000000
00010000
00000000
00000000
00000000
,
20000000
00000000
00000000
31000000
10000000
00000000
01000000
00000000
00100000
00000000
00010000
00000000
00200000
00000000
00000000
00000000
,
00302000
00000000
00000000
00013000
00001000
00000000
00010000
00000000
00000010
00000000
00000100
00000000
00000020
00000000
00000000
00000000
,
00000230
00000000
00000000
00000301
00000100
00000000
00000010
00000000
00010000
00000000
00001000
00000000
00020000
00000000
00000000
00000000
,
00032000
00000000
00000000
00103000
00001000
00000000
00100000
00000000
00001000
00000000
00010000
00000000
00011000
00000000
00000000
00000000
,
02001000
00000000
00000000
03001000
01000000
00000000
00100000
00000000
10000000
00000000
01000000
00000000
00010000
00000000
01000000
00000000
,
20000000
00000000
00000000
30100000
01000000
00000000
00001000
00000000
01000000
00000000
00001000
00000000
00011000
00000000
00000000
00000000
,
00020100
00000000
00000000
00030100
00010000
00000000
00000010
00000000
00000100
00000000
00000001
00000000
00000010
00000000
00000001
00000000
,
00002000
00000000
00000000
00003100
00001000
00000000
00000100
00000000
00010000
00000000
00001000
00000000
00011000
00000000
00000000
00000000
,
00201000
00000000
00000000
00301000
00100000
00000000
00001000
00000000
01000000
00000000
10000000
00000000
01000000
00000000
00010000
00000000
,
00002000
00000000
00000000
00003100
00000010
00000000
00000001
00000000
00000100
00000000
00001000
00000000
00000110
00000000
00000000
00000000
,
00020010
00000000
00000000
00030100
00001000
00000000
00000010
00000000
00001000
00000000
00000100
00000000
00000001
00000000
00000100
00000000
,
00002000
00000000
00000000
01003000
00000000
00000000
10000000
00000000
00100000
00000000
01000000
00000000
00001000
00000000
00000000
00000000
;

//---------------dance-double - ----------------
#NOTES:
     dance-double:
     :
     Challenge:
     16:
     0.755,0.733,0.657,0.111,0.986: // measure 1
00000000
00000000
00000000
00000000
,  // measure 2
00000000
00000000
00000000
00000000
,  // measure 3
00000000
00000000
00000000
00000000
,  // measure 4
00000000
00000000
00000000
00000000
,  // measure 5
00000000
00000000
00000000
00000000
,  // measure 6
00001000
00000000
00200000
00000000
00000000
00000000
00301000
00000000
01000000
00000000
00000000
00000000
00001000
00000000
01000000
00000000
00001000
00000000
00100000
00001000
00100000
00000000
00001000
00000000
00010000
00000000
00000010
00000000
00000100
00000000
00000010
00000000
,  // measure 7
00001000
00000000
00000200
00000000
00000000
00000000
00000310
00000000
00000100
00000000
00000000
00000000
00001000
00000000
00000100
00000000
00001000
00000000
00000010
00001000
00000010
00000000
00001000
00000000
00000001
00000000
00000010
00000000
00000100
00000000
00010000
00000000
,  // measure 8
00000100
00000000
00020000
00000000
00000000
00000000
00031000
00000000
00010000
00000000
00000000
00000000
00001000
00000000
01000000
00000000
00100000
00000000
10000000
00010000
10000000
00000000
00010000
00000000
01000000
00000000
00001000
00000000
00100000
00000000
00001000
00000000
,  // measure 9
00010000
00000100
00000000
00000100
00010000
00000000
00001000
00000000
00010010
00000000
00000110
00000000
00002002
00000000
00003003
00000000
,  // measure 10
00000001
00000000
00000010
00000100
00000010
00000000
00000001
00000000
00000100
00000000
00000010
00000000
00001000
00000000
00000100
00000000
00010000
00000000
00001000
00010000
00001000
00000000
01000000
00000000
00001000
00000000
00100000
00000000
00010000
00000000
01000000
00000000
,  // measure 11
00100000
00000000
10000000
01000000
10000000
00000000
00010000
00000000
01000000
00000000
00100000
00000000
01000000
00000000
00010000
00000000
00100000
00000000
00001000
00000000
00010000
00000000
00000000
00000000
00011000
00000000
00000000
00000000
00000000
00000000
00000000
00000000
,  // measure 12
00010000
00000000
00000100
00010000
00000100
00000000
00010000
00000000
00000010
00000000
00000100
00000000
00000001
00000000
00000010
00000000
00000001
00000000
00000100
00000001
00000100
00000000
00000001
00000000
00000010
00000000
00000100
00000000
00010000
00000000
00001000
00000000
,  // measure 13
00010000
00000000
00001000
01000000
00001000
00000000
01000000
00000000
00100000
00000000
10000000
00000000
00010000
00000000
10000000
00000000
01000000
00000000
00100000
00000000
00001000
00000000
00000000
00000000
00101000
00000000
00000000
00000000
00011000
00000000
00000000
00000000
,  // measure 14
00010100
00021000
00000010
00030100
00001000
00021000
00000010
00030000
,  // measure 15
00000001
00000000
00000100
00000010
00010000
00000010
00000100
00000000
00000110
00000000
00010010
00000000
00010100
00000000
00010000
00000000
,  // measure 16
00010100
00021000
00000010
00030100
00001000
00021000
00000010
00030000
,  // measure 17
00000100
00000000
00000010
00010000
00000100
00010000
00001000
00000000
00011000
00000000
00110000
00000000
01100000
00000000
00000000
00000000
,  // measure 18
10000000
00000000
00100000
10000000
00010000
00000000
01000000
00000000
00001000
00000000
00100000
00000000
00001000
00000000
00010000
00000000
00001000
00000000
00010000
00000100
00001000
00000000
00000010
00000000
00000100
00000000
00000001
00000000
00001000
00000000
00000001
00000000
,  // measure 19
00000010
00000000
00000100
00010000
00001000
00000000
00010000
00000000
00001000
00000000
01000000
00000000
00100000
00000000
10000000
00000000
00010000
00000000
00000000
00000000
10010000
00000000
00000000
00000000
01100000
00000000
00000000
00000000
00000000
00000000
00000000
00000000
,  // measure 20
10000000
00000000
00100000
01000000
00010000
00000000
01000000
00000000
00010000
00000000
00100000
00000000
00001000
00000000
00010000
00000000
00001000
00000000
00010000
00000010
00000100
00000000
00000010
00000000
00001000
00000000
00000001
00000000
00000010
00000000
00000100
00000000
,  // measure 21
00010000
00000000
00000100
00010000
00001000
00000000
00010000
00000000
00100000
00000000
10000000
00000000
00100000
00000000
01000000
00000000
00010000
00000000
00000000
00000000
01100000
00000000
00000000
00000000
10010000
00000000
00000000
00000000
00000000
00000000
00000000
00000000
,  // measure 22
10000000
00000000
01000000
10000000
00010000
00000000
01000000
00000000
00010000
00000000
00100000
00000000
00001000
00000000
00010000
00000000
00001000
00000000
00010000
00000100
00001000
00000000
00000010
00000000
00000100
00000000
00000001
00000000
00000010
00000000
00001000
00000000
,  // measure 23
00000010
00000000
00000001
00000100
00001000
00000000
00000100
00000000
00001000
00000000
00010000
00000000
00100000
00000000
10000000
00000000
01000000
00000000
00000000
00000000
01010000
00000000
00000000
00000000
01100000
00000000
00000000
00000000
00000000
00000000
00000000
00000000
,  // measure 24
10000000
00000000
00100000
10000000
00010000
00000000
01000000
00000000
00010000
00000000
00100000
00000000
00001000
00000000
00010000
00000000
00000010
00000000
00000100
00000001
00001000
00000000
00000001
00000000
00000010
00000000
00001000
00000000
00000010
00000000
00000100
00000000
,  // measure 25
00010000
00000000
00000100
00010000
00001000
00000000
00010000
00000000
01000000
00000000
10000000
00000000
01000000
00000000
00100000
00000000
00010000
00000000
00000000
00000000
11000000
00000000
00000000
00000000
01100000
00000000
00000000
00000000
00000000
00000000
00000000
00000000
,  // measure 26
10000000
00100000
00100000
10000000
01000000
00010000
01000000
00100000
00001000
00000000
00101000
00000000
00011000
00000000
00101000
00000000
,  // measure 27
00001000
01000000
01000000
00001000
00010000
00001000
01000000
00001000
00100000
00000000
00101000
00000000
00011000
00000000
00000000
00000000
,  // measure 28
00010000
00000010
00000010
00000100
00000001
00001000
00000100
00000001
00000100
00000000
00001100
00000000
00000110
00000000
00001100
00000000
,  // measure 29
00000100
00010000
00010000
00000100
00010000
00001000
00100000
00001000
01000000
00000000
01100000
00000000
10010000
00000000
00000000
00000000
,  // measure 30
10000000
00100000
00100000
01000000
00010000
00100000
00010000
01000000
00010000
00000000
10010000
00000000
01010000
00000000
01001000
00000000
,  // measure 31
00001000
00100000
00100000
00001000
01000000
00001000
00010000
00000010
00000110
00000000
00000101
00000000
00001001
00000000
00000000
00000000
,  // measure 32
00000001
00000010
00000010
00000100
00010000
00000100
00010000
00001000
00100000
00000000
00101000
00000000
00011000
00000000
01010000
00000000
,  // measure 33
00010000
01000000
01000000
00100000
01000000
00010000
10000000
01000000
00100000
00000000
01100000
00000000
10010000
00000000
00000000
00000000
,  // measure 34
11000000
00000000
00000000
00000000
00000000
00000000
00000000
00000000
00000000
00000000
00000000
00000000
00000000
00000000
00000000
00000000
00000000
00000000
00000000
00000000
00000000
00000000
00000000
00000000
10000000
00000000
00000000
00000000
00000000
00000000
00000000
00000000
00000000
00000000
00000000
00000000
10100000
00000000
00000000
00000000
00000000
00000000
00000000
00000000
00000000
00000000
00000000
00000000
00000000
00000000
00000000
00000000
00000000
00000000
00000000
00000000
00000000
00000000
00000000
00000000
00010000
00000000
00000000
00000000
00000000
00000000
00000000
00000000
00000000
00000000
00000000
00000000
00110000
00000000
00000000
00000000
00000000
00000000
00000000
00000000
00000000
00000000
00000000
00000000
00100000
00000000
00000000
00000000
00000000
00000000
00000000
00000000
00000000
00000000
00000000
00000000
00001000
00000000
00000000
00000000
00000000
00000000
00000000
00000000
00000000
00000000
00000000
00000000
00010000
00000000
00000000
00000000
00000000
00000000
00000100
00000000
00000000
00000000
00000000
00000000
00010000
00000000
00000000
00000000
00000000
00000000
00000000
00000000
00000000
00000000
00000000
00000000
00000010
00000000
00000000
00000000
00000000
00000000
00000000
00000000
00000000
00000000
00000000
00000000
00000100
00000000
00000000
00000000
00000000
00000000
00000000
00000000
00000000
00000000
00000000
00000000
00000000
00000000
00000000
00000000
00000100
00000000
00000000
00000000
00000000
00000000
00000000
00000000
00000001
00000000
00000000
00000000
00000000
00000000
00000000
00000000
00000000
00000000
00000000
00000000
00000000
00000000
00000000
00000000
00000001
00000000
00000000
00000000
00000000
00000000
00000000
00000000
,  // measure 35
00001001
00000000
00000100
00001100
00000000
00010000
00010100
00000100
00010000
00001000
00100000
00010000
10000000
00000000
00100000
01000000
,  // measure 36
01010000
00000000
00000000
00000000
00000000
00000000
00000000
00000000
00000000
00000000
00000000
00000000
00000000
00000000
00000000
00000000
00000000
00000000
00000000
00000000
00000000
00000000
00000000
00000000
10000000
00000000
00000000
00000000
00000000
00000000
00000000
00000000
00000000
00000000
00000000
00000000
10100000
00000000
00000000
00000000
00000000
00000000
00000000
00000000
00000000
00000000
00000000
00000000
00000000
00000000
00000000
00000000
00000000
00000000
00000000
00000000
00000000
00000000
00000000
00000000
00010000
00000000
00000000
00000000
00000000
00000000
00000000
00000000
00000000
00000000
00000000
00000000
00110000
00000000
00000000
00000000
00000000
00000000
00000000
00000000
00000000
00000000
00000000
00000000
00010000
00000000
00000000
00000000
00000000
00000000
00000000
00000000
00000000
00000000
00000000
00000000
00100000
00000000
00000000
00000000
00000000
00000000
00000000
00000000
00000000
00000000
00000000
00000000
00001000
00000000
00000000
00000000
00000000
00000000
00010000
00000000
00000000
00000000
00000000
00000000
00001000
00000000
00000000
00000000
00000000
00000000
00000000
00000000
00000000
00000000
00000000
00000000
00010000
00000000
00000000
00000000
00000000
00000000
00000000
00000000
00000000
00000000
00000000
00000000
00000010
00000000
00000000
00000000
00000000
00000000
00000000
00000000
00000000
00000000
00000000
00000000
00000000
00000000
00000000
00000000
00000010
00000000
00000000
00000000
00000000
00000000
00000000
00000000
00001000
00000000
00000000
00000000
00000000
00000000
00000000
00000000
00000000
00000000
00000000
00000000
00000000
00000000
00000000
00000000
00001000
00000000
00000000
00000000
00000000
00000000
00000000
00000000
,  // measure 37
00000001
00000000
00000010
00000100
00001000
00000000
00000100
00000000
00010000
00000000
00001000
01000000
00100000
00000000
01000000
00000000
00010000
10000000
00010000
10000000
00010000
01000000
00010000
01000000
00020000
00000000
00000000
00000000
00030000
00000000
00000000
00000000
,  // measure 38
10000000
00000000
02000000
00000000
00000000
00000000
03100000
00000000
01000000
00000000
00000000
00000000
10000000
00000000
00100000
00000000
01000000
00000000
00010000
01000000
00010000
00000000
00100000
00000000
00001000
00000000
00010000
00001000
00010000
00000000
00001000
00000000
,  // measure 39
00010000
00000000
00000020
00000000
00000000
00000000
00000130
00000000
00000010
00000000
00000000
00000000
00001000
00000000
00000100
00000000
00001000
00000000
00000001
00001000
00000001
00000000
00000100
00000000
00000001
00000000
00000010
00000001
00000010
00000000
00000001
00000000
,  // measure 40
00001000
00000000
00000200
00000000
00000000
00000000
00010300
00000000
00001000
00000000
00000000
00000000
00100000
00000000
00001000
00000000
01000000
00000000
00100000
01000000
00100000
00000000
10000000
00000000
00100000
00000000
01000000
00010000
01000000
00000000
00010000
00000000
,  // measure 41
10000000
02000000
00000000
03010000
01000000
00000000
10000000
00000000
10010000
00000000
01100000
00000000
01001000
00000000
00000000
00000000
,  // measure 42
10000000
00100000
00100000
10000000
01000000
00100000
01000000
10000000
10010000
00000000
01010000
00000000
00110000
00000000
00011000
00000000
,  // measure 43
00010000
00000100
00000100
00010000
00000010
00000100
00000001
00000010
00000110
00000000
00001001
00000000
00000110
00000000
00000000
00000000
,  // measure 44
00000001
00000010
00000010
00000100
00001000
00000001
00000100
00000010
00010010
00000000
00010100
00000000
00011000
00000000
01001000
00000000
,  // measure 45
01000000
00100000
00100000
01000000
00010000
10000000
01000000
00100000
01100000
00000000
10010000
00000000
01100000
00000000
00000000
00000000
,  // measure 46
10000000
00100000
00100000
10000000
01000000
00010000
01000000
10000000
00110000
00000000
10010000
00000000
01010000
00000000
10010000
00000000
,  // measure 47
00010000
01000000
01000000
00010000
00100000
00001000
00010000
00000100
00000010
00000000
00000110
00000000
00001001
00000000
00000000
00000000
,  // measure 48
00000001
00000100
00000100
00000001
00000100
00001000
00000100
00000001
00001010
00000000
00001100
00000000
00011000
00000000
01001000
00000000
,  // measure 49
00001000
01000000
01000000
00100000
10000000
01000000
00010000
00001000
00000100
00000000
00000001
00000000
00000010
00000000
00000000
00000000
;
