#TITLE:ヨシダさん;
#SUBTITLE:;
#ARTIST:AKIRA YAMAOKA;
#TITLETRANSLIT:YOSHIDA-SAN;
#SUBTITLETRANSLIT:;
#ARTISTTRANSLIT:;
#GENRE:;
#CREDIT:;
#MUSIC:YOSHIDA-SAN.ogg;
#BANNER:YOSHIDA-SAN.png;
#BACKGROUND:YOSHIDA-SAN-bg.png;
#CDTITLE:./CDTITLES/BEATMANIA IIDX.PNG;
#SAMPLESTART:100.800;
#SAMPLELENGTH:15.000;
#SELECTABLE:YES;
#OFFSET:0.000;
#BPMS:0.000=150.000;
#STOPS:;
#MENUCOLOR:;
#METERTYPE:DDR;
#LISTSORT:;
#BGCHANGES:0.000=YOSHIDA-SAN.avi=1.000=0=0=0=StretchNoLoop====,
99999.000=-nosongbg-=1.000=0=0=0=StretchNoLoop====
;
#FGCHANGES:;

//--------------- dance-single - t7r ----------------
#NOTES:
     dance-single:
     t7r:
     Beginner:
     3:
     0.171,0.211,0.015,0,0:
0000
0000
0000
0000
,
0000
0000
0000
0000
,
0000
0000
0000
0000
,
0000
0000
0000
0000
,
0000
0000
0000
0000
,
0000
0000
0000
0000
,
1000
0000
1000
0000
,
0001
0000
0001
0000
,
0100
0100
0100
0000
,
0000
0000
0000
0000
,
0000
0010
0000
0010
,
0000
1000
0000
1000
,
0000
0001
0000
0001
,
0001
0000
1000
0000
,
0001
0001
0001
0000
,
1000
1000
1000
0000
,
0010
0010
0010
0000
,
0100
0000
0100
0000
,
0010
0000
0010
0000
,
0010
0010
0000
0000
,
0100
0000
0100
0000
,
0100
0100
0000
0000
,
1001
0000
0001
0001
,
0001
0000
0001
0000
,
1000
0000
1000
1000
,
1000
0000
1000
0000
,
0010
0000
0010
0010
,
0010
0000
0010
0000
,
0100
0000
0100
0100
,
0100
0000
0100
0000
,
0000
0010
0010
0010
,
0000
1000
1000
1000
,
0000
0001
0001
0001
,
0000
0100
0100
0100
,
0000
0010
0010
0010
,
0000
1000
1000
1000
,
0000
0001
0000
0001
,
0001
0000
1000
0000
,
0001
0000
0001
0000
,
0001
0000
0000
0000
,
1000
0000
1000
0000
,
1000
0000
0000
0000
,
0010
0000
0010
0000
,
0010
0000
0000
0000
,
0100
0000
0100
0000
,
0100
0000
0000
0000
,
0010
0000
0010
0000
,
0010
0000
0000
0000
,
0100
0000
0100
0000
,
0100
0000
0000
0000
,
0001
0000
0001
0000
,
0001
0000
0000
0000
,
1000
0000
1000
0000
,
1000
0000
0000
0000
,
0000
0001
0001
0000
,
0001
0000
0000
0000
,
0000
1000
1000
0000
,
1000
0000
0000
0000
,
0000
0010
0010
0000
,
0010
0000
0000
0000
,
0000
0100
0100
0000
,
0100
0000
0000
0000
,
0000
0000
0000
0000
,
0010
0000
0010
0010
,
0010
0000
0010
0000
,
0100
0000
0100
0100
,
0100
0000
0100
0000
,
0001
0000
0001
0001
,
0001
0000
0001
0000
,
1000
0000
1000
1000
,
1000
0000
1000
0000
,
0000
0001
0001
0001
,
0000
1000
1000
1000
,
0000
0010
0010
0010
,
0000
0100
0100
0100
,
0000
0001
0001
0001
,
0000
1000
1000
1000
,
0000
0001
0000
0001
,
0001
0000
1000
0000
,
1001
0000
0000
0000
;

//--------------- dance-single - t7r ----------------
#NOTES:
     dance-single:
     t7r:
     Easy:
     6:
     0.312,0.339,0.069,0.244,0:
0000
0000
0000
0000
,
0000
0000
0000
0000
,
0000
0000
0000
0000
,
0000
0000
0000
0000
,
0000
0000
0000
0000
,
0000
0000
0000
0000
,
1000
1000
2000
3000
,
0001
0000
1000
0000
,
0001
0001
0002
0003
,
1000
0000
0001
0000
,
0000
1000
0100
1000
,
0000
0001
0100
0001
,
0000
1000
0020
0000
,
0000
0000
0000
0030
,
1000
0001
1000
0000
,
0001
1000
0001
0000
,
0100
0010
0100
0000
,
0010
0100
0100
0100
,
0001
0010
0100
1000
,
0001
0020
0000
0031
,
1000
0010
0100
0001
,
1000
0020
0000
1030
,
0001
1000
2002
3003
,
1000
0100
0010
0001
,
1000
0001
2002
3003
,
0001
0010
0100
1000
,
0010
0100
0220
0330
,
1000
0010
0100
0001
,
0100
0010
0220
0330
,
0001
0010
0100
1000
,
0000
0001
0001
0001
,
0000
1000
1000
1000
,
0000
0010
0010
0010
,
0000
0100
0100
0100
,
0001
1000
1000
1000
,
0000
0001
0001
0001
,
0000
0010
0010
0010
,
0100
0100
0100
0100
,
0010
0001
0010
0001
,
1000
0100
1000
0100
,
0010
0001
1000
0010
,
0100
0010
0220
0330
,
0001
0010
0001
0010
,
0100
1000
0100
1000
,
0001
1000
0001
1000
,
0010
0100
0220
0330
,
1000
1000
0001
0001
,
1000
0100
0020
0030
,
0001
0001
1000
1000
,
0001
0010
0200
0300
,
0010
0010
0100
0100
,
1000
0001
0020
0030
,
0100
0100
0010
0010
,
0001
1000
0200
0300
,
1000
0010
1000
0010
,
0100
0001
0100
0001
,
1000
0100
1000
0100
,
0010
0100
2000
3000
,
0001
0010
0001
0010
,
0100
1000
0100
1000
,
0001
0010
0100
0010
,
0001
0100
0010
0100
,
2002
0000
0000
3003
,
1000
1000
0002
0003
,
1000
0100
0010
0001
,
0001
0001
2000
3000
,
0001
0010
0100
1000
,
0010
0010
0200
0300
,
0010
1000
0001
0100
,
0100
0100
0020
0030
,
1000
0001
0010
0001
,
0000
1000
0100
0001
,
0000
0001
0100
1000
,
0000
1000
0010
0001
,
0000
0001
0010
1000
,
0001
0100
0001
0100
,
0001
0010
0001
0010
,
0100
0010
0100
0010
,
0001
1000
2002
3003
,
0220
0000
0000
0000
,
0000
0000
0000
0000
,
0330
0000
0000
0000
;

//--------------- dance-single - t7r ----------------
#NOTES:
     dance-single:
     t7r:
     Medium:
     8:
     0.402,0.431,0.145,0.236,0:
0000
0000
0000
0000
,
0000
0000
0000
0000
,
0000
0000
0000
0000
,
0000
0000
0000
0000
,
0000
0000
0000
0000
,
0000
0000
0000
0000
,
1000
1000
2000
3000
,
0001
0001
0100
0100
,
0001
0001
0002
0003
,
1000
1000
0100
0100
,
2000
3001
0002
1003
,
0020
0130
0200
0310
,
0100
0010
2002
0000
,
0000
0000
0000
3003
,
0001
0000
0010
0000
0001
1000
0001
0000
,
1000
0000
0010
0000
1000
0001
1000
0000
,
0010
0000
0100
0000
0001
1000
0001
0000
,
0100
0010
2002
3003
,
1000
0010
1000
0100
,
0010
0000
0200
0000
1300
0001
1000
0000
,
0001
0010
0100
0010
,
0001
0000
2000
0000
3001
1000
0100
0000
,
0010
0110
2002
3003
,
1000
0010
1000
0000
0001
0010
0001
0000
,
0100
0010
2002
3003
,
0001
0100
0001
0000
1000
0100
1000
0000
,
0010
0100
0220
0330
,
1000
0010
1000
0000
0001
0010
0001
0000
,
0100
0010
0220
0330
,
0001
1000
0001
0000
1000
0001
1000
0000
,
0000
0001
0100
0000
0100
0000
0100
0000
,
0000
0010
1000
0000
1000
0000
1000
0000
,
0000
0100
0010
0000
0010
0000
0010
0000
,
0000
0100
1000
0000
1000
0000
1000
0000
,
0000
0001
1000
0000
0001
0000
1000
0000
,
0000
0010
0100
0000
0010
0000
0100
0000
,
0000
0001
0100
0000
0001
0000
1000
0000
,
0100
0010
0220
0330
,
0001
0010
0001
1000
,
0001
0010
0001
0100
,
0010
1000
0100
0010
,
0100
1001
0010
0101
,
1000
0010
0100
0001
,
1000
0100
0010
0001
,
1000
0100
0001
0100
,
1000
0101
0001
1010
,
1001
0000
1001
0000
0001
0100
0001
0000
,
1000
0000
1000
0010
0100
0000
0100
0000
,
0001
0000
1001
0000
1000
0100
0010
0000
,
0100
0000
0010
0001
0100
0000
0001
0000
,
1000
0000
1001
0000
0001
1000
0001
0000
,
1000
0000
0010
0100
0001
0000
1000
0000
,
0001
0001
0001
0001
,
2000
0000
0000
3000
,
0001
0010
0001
0000
1000
0000
0100
0000
,
1000
0000
0010
0100
0001
0000
1000
0000
,
0001
0010
0001
0000
1000
0000
0100
0010
,
0000
0100
0000
1000
0001
0000
1001
0000
,
0010
0100
0001
0000
0100
0000
0010
0000
,
1000
0000
0100
0010
0001
0000
1000
0100
,
1000
0000
0001
0000
1000
0001
0010
0000
,
0001
0100
0010
0000
0100
0000
0001
0000
,
2002
0000
0000
3003
,
0010
0100
0002
1003
,
0001
0010
0100
0000
1000
0100
0010
0000
,
0001
1000
0020
0130
,
0010
1000
0100
0000
0010
0001
0100
0000
,
0001
1000
0020
1030
,
1000
0001
0010
0000
0001
1000
0010
0000
,
1000
0001
0200
0301
,
1000
0100
0010
0000
0001
0100
0010
0000
,
0000
0100
0010
0100
0010
0000
1000
0000
,
0000
0100
0010
0100
0010
0000
0001
0000
,
0000
0100
0010
0100
0010
0000
1000
0000
,
0000
0100
0010
0100
0010
0000
0001
1000
,
0001
0100
0001
0100
0001
0000
1000
0000
,
0000
0100
1000
0100
1000
0000
0001
0000
,
0000
1000
0010
0000
0100
0000
0001
0000
,
1000
0000
0100
0000
0010
0100
1000
0000
,
2002
0000
0000
0000
,
0000
0000
0000
0000
,
3003
0000
0000
0000
;

//--------------- dance-single - t7r ----------------
#NOTES:
     dance-single:
     t7r:
     Hard:
     10:
     0.523,0.493,0.313,0.137,0.057:
0000
0000
0000
0000
,
0000
0000
0000
0000
,
0000
0000
0000
0000
,
0000
0000
0000
0000
,
0000
0000
0000
0000
,
0000
0000
0000
0000
,
1000
1000
2000
3000
,
0001
0001
0100
0100
,
0001
0001
0002
0003
,
1000
1000
0100
0100
,
1000
0000
0000
2000
0000
0000
0000
0000
3001
0000
0000
0002
0000
0000
0000
0000
,
0103
0000
0000
0200
0000
0000
0000
0000
0310
0000
0000
0020
0000
0000
0000
0000
,
0130
0100
0200
0000
,
0010
0010
0010
0310
,
1000
0100
1000
0000
0001
0100
0001
0000
,
1000
0010
1000
0000
0001
0010
0001
0000
,
1000
0100
0010
0000
0001
0100
0010
0000
,
0100
1001
0010
1001
,
1010
1100
1010
1001
,
0101
1002
0000
1003
,
0011
0101
0011
1001
,
1100
2001
0000
3010
,
0010
0000
0000
0010
0100
0000
0000
0000
0001
0000
0010
0000
0100
0000
0000
0000
,
1000
0010
0100
0001
1000
0010
0100
0001
,
0100
0000
0000
0100
0010
0000
0000
0000
1000
0000
0010
0000
0100
0000
0000
0000
,
0001
0010
0100
1000
0001
0010
0001
1000
,
0010
0000
0000
0010
1000
0000
0000
0000
0001
0000
0100
0000
0010
0000
1000
0000
,
0001
0010
0001
1000
0001
0100
0010
1000
,
0100
0000
0000
0100
0010
0000
0000
0000
0001
0000
1000
0000
0010
0000
0100
0000
,
0010
1000
0100
0010
0100
1000
0001
0100
,
0000
0010
0010
0100
0010
0100
0001
0100
,
0000
0001
0001
0010
0001
1000
0001
0010
,
0000
0100
0100
1000
0100
1000
0010
1000
,
0000
0010
0010
0100
0001
1000
0001
0001
,
0001
1000
0100
0010
0100
1000
0001
0100
,
0000
0001
0100
0010
0100
0001
1000
0010
,
0000
1000
0100
0000
1100
0000
0101
0000
,
1010
0000
0011
0000
1001
0000
0110
0010
,
0100
0000
0100
0000
0010
1000
0001
0000
,
0100
0000
0100
0000
0001
1000
0010
0000
,
1000
0000
1000
0000
0001
0010
0100
0000
,
0210
0301
0120
1030
,
0100
0000
0100
0000
1000
0001
0010
0000
,
0100
0000
0100
0000
0010
0001
1000
0000
,
0001
0000
0001
0000
1000
0010
0100
0000
,
0120
1030
0210
0310
,
0101
0000
0101
0000
1000
0100
0010
0100
,
1000
0000
0000
1000
0000
0000
1000
0000
0100
0000
0010
0000
0001
0000
0000
0000
,
0101
0000
0101
0000
0001
0100
0010
0100
,
0001
0000
0000
0001
0000
0000
0001
0000
0100
0000
0010
0000
1000
0000
0000
0000
,
1100
0000
1100
0000
1000
0100
0010
0001
,
0100
0000
0000
0100
0000
0000
0100
0000
0010
0000
1000
0000
0001
0000
0000
0000
,
0010
0010
0010
0010
,
0220
0000
0000
0330
,
0010
0001
1000
0100
0010
0000
0100
1000
,
0000
0001
0100
0010
0100
0000
0010
0000
,
1000
0010
0100
0010
1000
0000
0001
1000
,
0001
1000
0000
1001
0010
0000
0110
0000
,
0010
1000
0001
0100
0010
0000
0100
0001
,
0000
1000
0100
0010
0100
1000
0001
0100
,
0001
0010
0100
0010
0001
0000
1000
0100
,
1000
0001
1000
0001
,
0120
0000
0000
1030
,
1010
0000
0000
0010
0100
0000
0000
0000
0010
0000
1000
0000
0100
0000
0010
0000
,
0100
1000
0100
0001
0100
1000
0100
0001
,
0100
0000
0000
0100
0010
0000
0000
0000
0001
0000
0100
0000
1000
0000
0100
0000
,
0001
0010
0100
1000
0010
0100
1000
0100
,
0010
0000
0000
0010
1000
0000
0000
0000
0010
0000
0001
0000
0010
0000
1000
0000
,
0010
0100
0010
0001
0010
1000
0010
0001
,
0100
0000
0000
0100
0010
0000
0000
0000
1000
0000
0010
0000
0001
0000
0010
0000
,
1000
0100
0010
0001
0100
0010
0001
0100
,
0010
1000
0001
0100
1000
0100
0001
0001
,
0000
1000
0100
0001
0100
1000
0001
0001
,
0000
1000
0010
0001
0010
1000
0100
0100
,
0000
0010
0100
1000
0100
0010
0001
0001
,
1000
0001
1000
0010
0001
0100
0001
0010
,
0000
1000
0100
0001
0010
0001
0100
0010
,
0000
0001
0100
0100
0000
1010
0000
0011
,
0000
1100
0101
0000
1001
1000
0001
0100
,
0220
0000
0000
0000
,
0000
0000
0000
0000
,
0330
0000
0000
0000
;

//--------------- dance-single - t7r ----------------
#NOTES:
     dance-single:
     t7r:
     Challenge:
     14:
     0,0,0,0,0:
0000
0000
0000
0000
,
0000
0000
0000
0000
,
0000
0000
0000
0000
,
0000
0000
0000
0000
,
0000
0000
0000
0000
,
0000
0000
0000
0000
,
0010
0000
0000
0100
0001
0000
0000
0000
1000
0000
0100
0000
0010
0000
0001
0000
,
1000
0100
0010
0001
1000
0100
0010
0001
,
0100
0000
0000
0001
0100
0000
0000
0000
0001
0000
0010
0000
0100
0000
1000
0000
,
0001
0010
0100
1000
0001
0010
0100
1000
,
0010
0000
0000
0100
0001
0000
0000
0000
0010
0000
0000
0100
1000
0000
0000
0000
,
0001
0000
0000
0100
0010
0000
0000
0000
1000
0000
0000
0100
0010
0000
0000
0000
,
0100
0000
0000
1000
0010
0000
0000
0000
1000
0000
0100
0000
0010
0000
0001
0000
,
1000
0010
0100
0001
1000
0010
0001
0010
,
1000
0000
0100
0000
1000
0001
0000
0000
0001
0000
0100
0000
0001
1000
0000
0000
,
1000
0000
0010
0000
1000
0001
0000
0000
0001
0000
0010
0000
0001
1000
0000
0000
,
1000
0000
0010
0000
0100
0001
0000
0000
0001
0000
0010
0000
0100
1000
0000
0000
,
0100
0110
1000
1001
,
0010
0000
0000
0010
1000
0000
0000
1000
0100
0000
0000
0100
0001
0000
0000
0001
,
0100
0000
0010
0000
0001
0000
0010
0000
1000
0000
0010
0000
0100
1000
0000
0000
,
0100
0000
0000
0100
1000
0000
0000
1000
0010
0000
0000
0010
0001
0000
0000
0001
,
0010
0100
0010
1000
0001
0100
1010
0000
,
1000
0000
0100
0001
0000
0100
1000
0000
0001
0000
0100
0000
0010
0000
0001
0000
,
1000
0100
0010
1000
0001
0100
0010
0001
,
1000
0000
0001
0010
0000
1000
0010
0000
0001
0000
0010
0000
0100
0000
0001
0000
,
1000
0010
0100
1000
0001
0010
0100
0001
,
1000
0000
0010
0001
0000
0010
0100
0000
0010
0000
1000
0000
0100
0000
0001
0000
,
1000
0100
0001
0010
0100
0001
0010
1000
,
0001
0000
0010
1000
0000
0010
0100
0000
0010
0000
0001
0000
0100
0000
1000
0000
,
0001
0100
1000
0100
0010
0001
1000
0001
,
1001
0000
1000
0100
1000
0000
0001
0010
0001
0000
1000
0100
1000
0000
0001
0000
,
0000
0000
1000
0010
1000
0000
0001
0010
0001
0000
1000
0010
1000
0000
0001
0000
,
0000
0000
1000
0001
0100
0000
0001
1000
0100
0000
1000
0001
0100
0000
0001
0000
,
0000
0000
1000
0001
0010
0000
0001
1000
0010
0000
1000
0001
0010
0000
0001
1000
,
0001
0000
1000
0100
0001
0000
0100
1000
0010
0000
1000
0100
0001
0000
0100
0000
,
0000
0000
0001
0100
1000
0000
0100
1000
0001
0000
1000
0100
0001
0000
0100
0000
,
0000
0010
0011
0000
0001
0100
1010
0000
,
1000
0100
0010
0001
1000
0001
1001
0000
,
0100
0000
1000
0000
0100
0001
0000
0100
1000
0000
0100
0000
0020
0000
0000
0000
,
0031
0000
0100
0000
0001
0010
0000
1000
0010
0000
0001
0000
0200
0000
0000
0000
,
0310
0000
1000
0000
0010
0001
0000
0010
0100
0000
0001
0000
2000
0000
0000
0000
,
3010
0110
0001
1001
,
1000
0000
0001
0100
0000
0100
1000
0000
0100
0000
0000
0000
0110
0000
0000
0000
,
0001
0000
1000
0100
0000
0100
0001
0000
0100
0000
0000
0000
0110
0000
0000
0000
,
1000
0000
0001
0010
0000
0010
1000
0000
0010
0000
0000
0000
0110
0000
0000
0000
,
0001
1001
0100
0110
,
0011
0000
0011
0000
1000
0100
0010
1000
,
0010
0000
0001
0100
0000
1000
0100
0000
0001
0000
0010
0000
0100
0000
1000
0000
,
1010
0000
1010
0000
0001
0100
0010
0001
,
0010
0000
1000
0100
0000
0001
0100
0000
1000
0000
0010
0000
0100
0000
0001
0000
,
0101
0000
0101
0000
1000
0010
0100
1000
,
0100
0000
0001
0010
0000
1000
0010
0000
0001
0000
0100
0000
0010
0000
1000
0000
,
0001
0001
0010
0010
,
1000
0000
0000
0100
0000
0000
0001
0000
1000
0000
0000
0000
1001
0000
0000
0000
,
1000
0010
0100
1000
0100
0001
1000
0100
,
0001
1000
0100
0010
1000
0100
0001
0100
,
0001
0010
0100
0001
0100
1000
0001
0100
,
0010
0001
1000
0001
1001
0000
0110
0000
,
0001
0010
0100
0001
0100
1000
0001
0100
,
1000
0001
0100
0010
0001
0100
1000
0100
,
1000
0010
0100
1000
0100
0001
1000
0100
,
0010
1000
0001
1000
0001
0100
1000
0100
,
0020
0000
0000
0130
,
1010
0000
0010
1000
0000
0010
0001
0000
0010
0000
1000
0000
0100
0000
0010
0000
,
1000
0010
0001
0100
0001
0010
1000
0100
,
0010
0000
0100
0001
0000
0100
1000
0000
0100
0000
0001
0000
0010
0000
0100
0000
,
0001
0100
1000
0010
1000
0100
1000
1000
,
1001
0000
1000
0100
0000
0001
0100
0000
1000
0000
0010
0000
0100
0000
1000
0000
,
0001
0010
0100
0001
1000
0010
0100
1000
,
0100
0000
0001
0010
0000
1000
0010
0000
0001
0000
0010
0000
1000
0000
0100
0000
,
0010
1000
0100
0001
1000
0100
0001
1000
,
1001
0000
0001
0010
0001
0000
1000
0010
1000
0000
0001
0010
0001
0000
1000
0000
,
0001
0000
1000
0100
1000
0000
0001
0100
0001
0000
1000
0100
1000
0000
0001
0000
,
1000
0000
0001
1000
0100
0000
1000
0001
0100
0000
0001
1000
0100
0000
1000
0000
,
0001
0000
0010
0001
1000
0000
0010
1000
0001
0000
1000
0100
0010
0001
1000
0001
,
1000
0000
0001
0100
1000
0000
0001
0010
1000
0000
0001
0100
1000
0000
0100
0000
,
0010
0000
1000
0100
0001
0000
1000
0010
0001
0000
1000
0100
0001
0000
0100
0000
,
0010
0000
0001
0100
0010
0000
0001
1000
0100
0000
0010
1000
0001
0000
0100
0010
,
0001
0000
0010
1000
0100
0000
0010
0001
0100
0010
0100
0010
1000
0000
0001
0000
,
2002
0000
0000
0000
,
0000
0000
0000
0000
,
3003
0000
0000
0000
;

//--------------- dance-double - t7r ----------------
#NOTES:
     dance-double:
     t7r:
     Easy:
     6:
     0.306,0.369,0.145,0.244,0:
00000000
00000000
00000000
00000000
,
00000000
00000000
00000000
00000000
,
00000000
00000000
00000000
00000000
,
00000000
00000000
00000000
00000000
,
00000000
00000000
00000000
00000000
,
00000000
00000000
00000000
00000000
,
00010000
00000000
00001000
00000000
,
00010000
00000000
00001000
00000000
,
00010000
00001000
00010000
00000000
,
00001000
00000000
00010000
00000000
,
00001000
00000000
00010000
00000000
,
00001000
00000000
00010000
00000000
,
00001000
00010000
00022000
00000000
,
00000000
00000000
00000000
00033000
,
01000000
00010000
00000000
10000000
,
00010000
00100000
00000000
00001000
,
00100000
00010000
00000000
00000100
,
00000110
00000000
00001001
00000000
,
00000001
00000010
00000100
00010000
,
00001000
00200000
00000000
00300000
,
10000000
00100000
01000000
00001000
,
00010000
00000200
00000000
00000310
,
00000001
00000001
00002000
00003000
,
00000001
00000010
00000100
00010000
,
00001000
00100000
00020000
00030000
,
00100000
00010000
01000000
00100000
,
10000000
00100000
02000000
03000000
,
00001000
00010000
00000100
00001000
,
00000100
00000010
00000002
00000003
,
00000100
00000010
00010000
00001000
,
00000000
00010000
00010000
00001000
,
00000000
00001000
00001000
00010000
,
00000000
00000100
00000100
00010000
,
00000000
00001000
00001000
00100000
,
00000000
00010000
01000000
00100000
,
00000000
01000000
00001000
00010000
,
00000000
00000100
00000100
00000010
,
00000010
00000001
00000002
00000003
,
00000100
00000010
00000100
00000010
,
00010000
00001000
00010000
00001000
,
01000000
00100000
01000000
00100000
,
10000000
00010000
20020000
30030000
,
10000000
01000000
00100000
00001000
,
00010000
00000100
00000010
00000100
,
00001000
00000010
00000100
00000001
,
00000010
00000100
00022000
00033000
,
00001000
00001000
00100000
00100000
,
00010000
01000000
00200000
00300000
,
10000000
10000000
00100000
00100000
,
01000000
00001000
00020000
00030000
,
00001000
00001000
01000000
00100000
,
01000000
00001000
00022000
00033000
,
00000100
00000100
00000010
00000010
,
00000001
00001000
00002002
00003003
,
00010100
00000000
00001000
00000000
,
00100000
00001000
01000000
00000000
,
10100000
00000000
10010000
00000000
,
01000000
00001000
00020000
00030000
,
00000100
00000000
00010100
00000000
,
00001000
00000010
00000100
00000001
,
00001000
00000000
00010100
00000000
,
00100000
00010000
01000000
00100000
,
02200000
00000000
00000000
03300000
,
10000000
00010000
20020000
30030000
,
01000000
00100000
00001000
00010000
,
00000100
00000010
00000220
00000330
,
00000001
00000010
00000100
00010000
,
00001000
00100000
00202000
00303000
,
00010000
00100000
01000000
10000000
,
00010000
01000000
02200000
03300000
,
01000000
00001000
00010000
00001000
,
00011000
00000100
00000100
00000010
,
00000000
00000001
00000001
00001000
,
00000000
00000100
00000100
00010000
,
00000000
00001000
00001000
00100000
,
00001000
00010000
00001000
00010000
,
00000100
00001000
00000100
00001000
,
00000100
00000010
00000100
00010000
,
00001000
00100000
01000000
00000000
,
20020000
00000000
00000000
00000000
,
00000000
00000000
00000000
00000000
,
30030000
00000000
00000000
00000000
;

//--------------- dance-double - t7r ----------------
#NOTES:
     dance-double:
     t7r:
     Medium:
     9:
     0.417,0.462,0.32,0.183,0.011:
00000000
00000000
00000000
00000000
,
00000000
00000000
00000000
00000000
,
00000000
00000000
00000000
00000000
,
00000000
00000000
00000000
00000000
,
00000000
00000000
00000000
00000000
,
00000000
00000000
00000000
00000000
,
00010000
00000000
00001000
00000000
,
00010000
00001000
00010000
00001000
,
00010000
00000000
00001000
00000000
,
00010000
00001000
00010000
00001000
,
01000000
00000000
00100000
00000000
,
01000000
00000000
00001000
00000000
,
00010000
00000000
00001000
00010000
,
00000100
00001000
00000001
00001000
,
00000001
00000010
00000000
00000100
00001000
00000000
00000100
00000000
,
00001000
01000000
00000000
00100000
01000000
00000000
00010000
00000000
,
10000000
01000000
00000000
00100000
00001000
00000000
00010000
00000000
,
00001000
00010100
00000010
00001001
,
00000001
00000010
00000100
00010000
,
00001000
00022000
00000000
00033000
,
00100000
01000000
10000000
00010000
,
01000000
00202000
00000000
00303000
,
00010000
00000000
00000100
00000000
00010000
00001000
00010000
00000000
,
00000100
00000000
00000010
00000000
00000001
00001000
00000001
00000000
,
00000010
00000000
00000100
00000000
00010000
00001000
00010000
00000000
,
00001000
00000000
01000000
00000000
00100000
01000000
00010000
00000000
,
10000000
00000000
01000000
00000000
00100000
00001000
00010000
00000000
,
00000100
00000000
00000010
00000000
00000001
00001000
00000100
00000000
,
00000010
00000000
00000100
00000000
00010000
00001000
00100000
00000000
,
00010000
00000000
01000000
00000000
00100000
01000000
00001000
00000000
,
00010000
00001000
00100000
00101000
,
01000000
00100000
00001000
00011000
,
00000100
00000010
00000001
00001001
,
00000001
00000010
00000100
00010010
,
00000100
00010000
00001000
00011000
,
00100000
00010000
01000000
01100000
,
10000000
00100000
01000000
00001000
,
00010000
00000100
00020200
00030300
,
00010000
00001000
00010000
00000000
00000100
00000000
00000010
00000000
,
00000001
00000100
00000001
00000000
00000100
00000000
00000010
00000000
,
00010000
00000100
00010000
00000000
00001000
00000000
00100000
00000000
,
01000000
00100000
20020000
30030000
,
10000000
00100000
10000000
00000000
00010000
00000000
01000000
00000000
,
00001000
00010000
00001000
00000000
00100000
00000000
00001000
00000000
,
00010000
00000100
00001000
00000000
00000100
00000000
00000010
00000000
,
00000001
00001000
00002002
00003003
,
00000100
00000000
00000110
00000000
00000001
00001000
00000100
00000000
,
00010000
00000000
00000000
00001000
00000000
00000000
00001000
00000000
00100000
00000000
00000000
00000000
00101000
00000000
00000000
00000000
,
00010000
00000000
01000000
00000000
00100000
10000000
01000000
00000000
,
00100000
00000000
00000000
00001000
00000000
00000000
00010000
00000000
00001000
00000000
00000000
00000000
00011000
00000000
00000000
00000000
,
00000100
00000000
00000110
00000000
00000001
00001000
00000100
00000000
,
00000010
00000000
00000000
00000100
00000000
00000000
00010000
00000000
00001000
00000000
00000000
00000000
00011000
00000000
00000000
00000000
,
00100000
00100000
01000000
01000000
,
02200000
00000000
00000000
03300000
,
10000000
01000000
10000000
00000000
01000000
00000000
00100000
00000000
,
00001000
00010000
00000100
00000010
,
00000001
00000100
00000001
00000000
00000100
00000000
00000010
00000000
,
00010000
00001000
00022000
00033000
,
00100000
00010000
01000000
00000000
00100000
00000000
01000000
00000000
,
00010000
10000000
01000000
00100000
,
00001000
00010000
00000100
00000000
00000010
00000000
00000001
00000000
,
00000100
00000010
00010000
00001000
,
00022000
00000000
00000000
00033000
,
00101000
00110000
02000000
03100000
,
00001000
00010000
00001000
00000000
00010000
00000100
00001000
00000000
,
00000110
00000110
00000002
00001003
,
00000001
00000010
00000001
00000000
00001000
00000100
00010000
00000000
,
00101000
00110000
02200000
03300000
,
10000000
00010000
01000000
00000000
00010000
00100000
00001000
00000000
,
00001100
00010100
00020020
00030030
,
00000100
00000010
00010000
00000000
00000100
00001000
00000010
00000000
,
00000100
00000010
00001000
00000100
00001000
00000000
00001100
00000000
,
00000100
00010000
00001000
00100000
00010000
00000000
00110000
00000000
,
01000000
00100000
10000000
00010000
01000000
00000000
01010000
00000000
,
00001000
00100000
00001000
00010000
00001000
00000000
00000100
00000100
,
00000010
00000001
00000010
00000100
00000010
00000000
00000011
00000000
,
00000001
00000100
00000010
00010000
00001000
00000000
00011000
00000000
,
00001000
01000000
00000000
01100000
00000000
10010000
00000000
01001000
,
00000000
00100000
00001000
00000000
00011000
00000000
00010100
00000000
,
00020020
00000000
00000000
00000000
,
00000000
00000000
00000000
00000000
,
00030030
00000000
00000000
00000000
;

//--------------- dance-double - t7r ----------------
#NOTES:
     dance-double:
     t7r:
     Hard:
     11:
     0.498,0.493,0.275,0.076,0.153:
00000000
00000000
00000000
00000000
,
00000000
00000000
00000000
00000000
,
00000000
00000000
00000000
00000000
,
00000000
00000000
00000000
00000000
,
00000000
00000000
00000000
00000000
,
00000000
00000000
00000000
00000000
,
00000100
00000100
00020000
00000000
,
00001000
00000000
00031000
00000000
,
01000000
01000000
00002000
00000000
,
00010000
00000000
00013000
00012000
,
00003010
00000010
00000001
00000001
,
00000100
00000100
00001000
00001000
,
00100000
00100000
00020000
00000000
,
01000000
00000000
10030000
00000000
,
00010000
00000000
00100000
00000000
00000000
00010000
00000000
00000000
00000000
00000000
10000000
00000000
00000000
01000000
00000000
00000000
,
00000000
00000000
00010000
00000000
00000000
00001000
00000000
00000000
00000000
00000000
00000100
00000000
00000000
00001000
00000000
00000000
,
00000000
00000000
00000010
00000000
00000000
00000001
00000000
00000000
00000000
00000000
00000010
00000000
00000000
00001000
00000000
00000000
,
00100000
01100000
10000000
10010000
,
10000000
00000000
00000000
10000000
01000000
00000000
00000000
00000000
00010000
00000000
00000000
00010000
00000010
00000000
00000000
00000000
,
00000100
00000000
00000000
00000100
00000002
00000000
00000000
00000000
00000103
00000000
00001000
00000000
00010000
01000000
00000000
00000000
,
00100000
00000000
00000000
00100000
00010000
00000000
00000000
00000000
00001000
00000000
00000000
00001000
00000010
00000000
00000000
00000000
,
00000100
00000000
00000000
00000100
00002000
00000000
00000000
00000000
00103000
00000000
00010000
00000000
10000000
00000000
00000000
00000000
,
01000000
00000000
00000000
00010000
01000000
00000000
00000000
00000000
00100000
00000000
00010000
00000000
00001000
00000000
00000000
00000000
,
00000010
00001000
00010000
00000000
00100000
00010000
00001000
00000000
,
00000010
00000000
00000000
00001000
00000010
00000000
00000000
00000000
00000100
00000000
00001000
00000000
00010000
00000000
00000000
00000000
,
01000000
00010000
00001000
00000000
00000100
00001000
00010000
00000000
,
01000000
00000000
00000000
00100000
00010000
00000000
00000000
00000000
00001000
00000000
00000010
00000000
00000001
00000000
00000000
00000000
,
00000010
00001000
00010000
00000000
00100000
00010000
10000000
00000000
,
01000000
00000000
00000000
00100000
10000000
00000000
00000000
00000000
00100000
00000000
00010000
00000000
00001000
00000000
00000000
00000000
,
00000001
00000100
00001000
00000000
00010000
00100000
10000000
00000000
,
00000000
01000000
00010000
01000000
00010000
00001000
01000000
00010000
,
00000000
00100000
00010000
00100000
00010000
00001000
00100000
00001000
,
00000000
00000010
00001000
00000010
00001000
00010000
00000010
00001000
,
00000000
00000100
00001000
00000100
00001000
00010000
01000000
00100000
,
00010000
01000000
00010000
00000000
10000000
01000000
00010000
00001000
,
00000000
00000001
00000100
00000000
00001000
00010000
00100000
10000000
,
00000000
00100000
01000000
00000000
01100000
00000000
01001000
00000000
,
00011000
00000000
00010010
00000000
00000010
00000100
00000001
00000000
,
00001000
00000100
00000001
00000000
00000100
00001000
00020000
00000000
,
01030000
00000000
00100000
00000000
10000000
01000000
00010000
00000000
,
01000000
00000000
10000000
00000000
00100000
00010000
00002000
00000000
,
00003010
00000100
00000110
00001001
,
00000001
00000010
00001000
00000000
00010000
01000000
10000000
00000000
,
01000000
00000000
00010000
00000000
00000000
00001000
00000000
00000000
00000100
00000000
00001000
00000000
00000000
00010000
00000000
00000000
,
10000000
00100000
00010000
00000000
00001000
00000100
00000001
00000000
,
00000100
00011000
00100000
01100000
,
10010000
00000000
10010000
00000000
00010000
00001000
00000010
00000000
,
00000100
00000000
00000001
00000100
00000000
00000001
00000100
00000000
00001000
00000000
00010000
00000000
00100000
00000000
00000000
00000000
,
10010000
00000000
10010000
00000000
10000000
01000000
00100000
00000000
,
00001000
00000000
00010000
00001000
00000000
00010000
00001000
00000000
00010000
00000000
00000010
00000000
00000100
00000000
00000000
00000000
,
00001010
00000000
00001010
00000000
00001000
00010000
01000000
00000000
,
00100000
00000000
10000000
00010000
00000000
10000000
00010000
00000000
01000000
00000000
00010000
00000000
00001000
00000000
00000000
00000000
,
00000110
00000110
00000001
00000100
,
00001000
00100000
00020000
01030000
,
00000000
00100000
10000000
01000000
00010000
00000000
00000010
00000100
,
00000000
00000001
00000000
00000100
00001000
00000000
00010000
00000000
,
00000000
00100000
10000000
01000000
00010000
00000000
00001000
00000100
,
00000010
00001000
00000000
00000001
00000010
00000000
00001001
00000000
,
00000000
00000010
00000001
00000100
00001000
00000000
00100000
01000000
,
00000000
10000000
00000000
01000000
00010000
00000000
00001000
00000000
,
00000000
00000010
00000001
00000100
00001000
00000000
00010000
01000000
,
00100000
00010000
00000000
10000000
00100000
00000000
01000000
00000000
,
02100000
00000000
00000000
03010000
,
01000000
00000000
00000000
00010000
01000000
00000000
00000000
00000000
00100000
00000000
00010000
00000000
00001000
00000000
00000010
00000000
,
00001000
00010000
00100000
10000000
00100000
00010000
00001000
00000010
,
00000100
00000000
00000000
00001000
00000100
00000000
00000000
00000000
00000010
00000000
00001000
00000000
00010000
00000000
00100000
00000000
,
10000000
01000000
00100000
00010000
00001000
00000001
00001000
00000001
,
00000100
00000000
00000000
00000001
00000100
00000000
00000000
00000000
00000010
00000000
00001000
00000000
00010000
00000000
00100000
00000000
,
00010000
00001000
00000010
00000001
00000010
00001000
00010000
00100000
,
01000000
00000000
00000000
10000000
01000000
00000000
00000000
00000000
00100000
00000000
00010000
00000000
00001000
00000000
00000010
00000000
,
00001000
00000100
00000010
00000001
00000100
00001000
00010000
00100000
,
00000000
10000000
01000000
00100000
10000000
00100000
00010000
00001000
,
00000000
00000001
00000100
00000010
00000001
00000010
00001000
00010000
,
00000000
10000000
00100000
01000000
10000000
01000000
00010000
00001000
,
00000000
00000001
00000010
00000100
00000001
00000100
00001000
00010000
,
00000000
01000000
00100000
10000000
00100000
00010000
00001000
00000010
,
00000000
00000100
00000010
00000001
00000010
00001000
00010000
01000000
,
00000000
00100000
00010000
00000000
01100000
00010000
00001000
00000000
,
00000010
00001000
00010000
00100000
00002000
00000000
00013000
00001000
,
00022000
00000000
00000000
00000000
,
00000000
00000000
00000000
00000000
,
00033000
00000000
00000000
00000000
;

//--------------- dance-double - t7r ----------------
#NOTES:
     dance-double:
     t7r:
     Challenge:
     14:
     0,0,0,0,0:
00000000
00000000
00000000
00000000
,
00000000
00000000
00000000
00000000
,
00000000
00000000
00000000
00000000
,
00000000
00000000
00000000
00000000
,
00000000
00000000
00000000
00000000
,
00000000
00000000
00000000
00000000
,
00100000
00000000
00000000
01000000
00010000
00000000
00000000
00000000
10000000
00000000
01000000
00000000
00010000
00000000
00001000
00000000
,
00000100
00000001
00000100
00001000
00000100
00000010
00000100
00000001
,
00000010
00000000
00000000
00000001
00001000
00000000
00000000
00000000
00000001
00000000
00000010
00000000
00001000
00000000
00010000
00000000
,
00100000
10000000
00100000
01000000
00100000
10000000
10010000
00000000
,
01000000
00000000
00000000
00010000
00100000
00000000
10000000
00000000
00100000
00000000
00000000
00010000
00001000
00000000
00000010
00000000
,
00000100
00000000
00000000
00000001
00000100
00000000
00001000
00000000
00010000
00000000
00000000
01000000
00010000
00000000
01000000
00000000
,
00100000
00000000
00000000
00010000
00001000
00000000
00000010
00000000
00000100
00000000
00000001
00000000
00000100
00000000
00001000
00000000
,
00010000
00100000
10000000
00100000
01000000
00010000
10000000
00010000
,
10000000
00000000
01000000
00000000
00100000
00001000
00000000
00010000
00001000
00000000
00010000
00000000
00000010
00001000
00000000
00000001
,
00001000
00000000
00000001
00000000
00000010
00000100
00000000
00000010
00000001
00000000
00000100
00000000
00001000
00010000
00000000
00001000
,
00100000
00000000
00010000
00000000
01000000
10000000
00000000
01000000
00100000
00000000
10000000
00000000
01000000
00010000
00000000
00001000
,
00010000
00000110
00001000
01100000
,
10010000
00000000
00000000
10000000
01000000
00000000
00000000
01000000
00010000
00000000
00000000
00010000
00001000
00000000
00000000
00001000
,
00000010
00000000
00000001
00000000
00000100
00000000
00001000
00000000
00010000
00000000
00100000
00000000
10000000
00010000
00000000
00000000
,
10000000
00000000
00000000
10000000
00100000
00000000
00000000
00100000
00010000
00000000
00000000
00010000
00001000
00000000
00000000
00001000
,
00000100
00000001
00000010
00001000
00010000
00000000
01100000
00000000
,
10000000
00000000
01000000
00010000
00000000
01000000
10000000
00000000
01000000
00000000
00010000
00000000
00001000
00000000
00000100
00000000
,
00000001
00000100
00001000
00010000
01000000
00010000
00001000
00000100
,
00000001
00000000
00000100
00001000
00000000
00000100
00000001
00000000
00000100
00000000
00001000
00000000
00010000
00000000
01000000
00000000
,
10000000
01000000
00010000
00001000
00000100
00000001
00000100
00000100
,
00000110
00000000
00000010
00001000
00000000
00000010
00000001
00000000
00000010
00000000
00001000
00000000
00010000
00000000
00100000
00000000
,
00010000
00001000
00000010
00000001
00000010
00001000
00010000
00100000
,
10000000
00000000
00100000
00010000
00000000
00100000
10000000
00000000
00100000
00000000
00010000
00000000
00001000
00000000
00000010
00000000
,
00000001
00000010
00001000
00010000
10000000
01000000
00010000
00010000
,
00011000
00000000
00001000
01000000
00001000
00000000
00010000
00000100
00010000
00000000
00001000
01000000
00001000
00000000
00010000
00000000
,
00000000
00000000
00001000
00100000
00001000
00000000
00010000
00000010
00010000
00000000
00001000
00100000
00001000
00000000
00010000
00000000
,
00000000
00000000
00001000
00010000
00000010
00000000
00010000
00001000
00100000
00000000
00001000
00010000
00000010
00000000
00010000
00000000
,
00000000
00000000
00001000
00010000
00000100
00000000
00010000
00001000
01000000
00000000
00001000
00010000
00000100
00000000
00010000
00001000
,
00010000
00000000
00001000
00010000
01000000
00000000
00010000
00001000
00000100
00000000
00001000
00010000
01000000
00000000
00010000
00000000
,
00000000
00000000
00001000
00010000
00100000
00000000
00010000
00001000
00000010
00000000
00001000
00010000
00100000
00000000
00010000
00000000
,
00001000
01000000
00010000
00000000
01100000
00000000
10010000
00000000
,
10000000
01000000
00010000
00001000
00000010
00000010
00000100
00000000
,
00001000
00000000
00000010
00000000
00000001
00000010
00000000
00001000
00010000
00000000
00000000
00000000
00200000
00000000
00000000
00000000
,
00310000
00100000
01000000
00000000
00100000
00010000
10000000
00010000
,
10000000
00000000
01000000
00000000
00010000
00001000
00000000
00000100
00000010
00000000
00000000
00000000
00001002
00000000
00000000
00000000
,
00000013
00000001
00000100
00011000
,
00010000
00000000
01000000
00000000
10000000
01000000
00000000
00010000
00001000
00000000
00000000
00000000
00000120
00000000
00000000
00000000
,
00001030
00000001
00000100
00000000
00000001
00000010
00000100
00001000
,
00010000
00000000
00100000
00000000
00010000
01000000
00000000
10000000
01000000
00000000
00000000
00000000
02100000
00000000
00000000
00000000
,
03001000
01100000
00010000
00000110
,
00001001
00000000
00001001
00000000
00000001
00000010
00000100
00001000
,
00010000
00000000
00100000
10000000
00000000
10000000
00100000
00000000
00010000
00000000
01000000
00000000
10000000
00000000
01000000
00000000
,
01100000
00000000
01100000
00000000
10000000
00100000
01000000
00010000
,
00001000
00000000
00000010
00000001
00000000
00000001
00000010
00000000
00001000
00000000
00000100
00000000
00000001
00000000
00000100
00000000
,
00001100
00000000
00001100
00000000
00000001
00000100
00000010
00001000
,
00010000
00000000
01000000
10000000
00000000
10000000
01000000
00000000
00100000
00000000
10000000
00000000
01000000
00000000
00010000
00000000
,
00011000
00000000
00011000
00000000
00001000
00010000
01000000
00000000
,
00010000
00000000
00001000
00010000
00000000
00010000
00001000
00000000
00000100
00000000
00000001
00000000
00001000
00000000
00000000
00000000
,
00000001
00001000
00000001
00000100
00000010
00000001
00000010
00001000
,
00010000
01000000
00100000
00010000
00100000
10000000
01000000
00010000
,
01000000
00100000
10000000
00100000
01000000
10000000
01000000
00010000
,
00001000
00011000
00000000
00010100
00011000
00000000
01010000
00000000
,
10000000
00010000
10000000
01000000
00100000
10000000
00100000
00010000
,
00001000
00000100
00000010
00001000
00000010
00000001
00000100
00001000
,
00000100
00000010
00000001
00000010
00000100
00000001
00000100
00001000
,
00010000
00011000
00001000
01000000
01010000
00010000
00100000
00001000
,
00021000
00001000
00031000
00011000
,
00010000
00000000
01000000
10000000
00000000
01000000
00010000
00000000
01000000
00000000
00010000
00000000
00001000
00000000
00000010
00000000
,
00000001
00000100
00001000
00010000
01000000
00010000
00001000
00000100
,
00000001
00000000
00000010
00001000
00000000
00000010
00000001
00000000
00000010
00000000
00001000
00000000
00010000
00000000
01000000
00000000
,
00100000
00010000
00100000
10000000
01000000
00010000
01000000
01000000
,
00100000
00000000
10000000
00100000
00000000
00010000
00100000
00000000
01000000
00000000
00010000
00000000
00001000
00000000
00000100
00000000
,
00000001
00000100
00001000
00010000
01000000
10000000
01000000
00010000
,
00001000
00000000
00000010
00000001
00000000
00000010
00001000
00000000
00000001
00000000
00000010
00000000
00000100
00000000
00001000
00000000
,
00010000
00100000
10000000
00100000
00001000
00001000
00010000
00010000
,
00011000
00000000
00001000
01000000
00001000
00000000
00010000
00000100
00010000
00000000
00001000
01000000
00001000
00000000
00010000
00000000
,
00000000
00000000
00001000
00100000
00001000
00000000
00010000
00000010
00010000
00000000
00001000
00100000
00001000
00000000
00010000
00000000
,
00000000
00000000
00001000
00010000
00000010
00000000
00010000
00001000
00100000
00000000
00001000
00010000
00000010
00000000
00010000
00000000
,
00000000
00000000
00001000
00010000
00000100
00000000
00010000
00001000
01000000
00000000
00001000
00010000
00000100
00000000
00010000
00001000
,
00010000
00000000
00001000
00010000
01000000
00000000
00010000
00001000
00000100
00000000
00001000
00010000
01000000
00000000
00010000
00000000
,
00000000
00000000
00001000
00010000
00100000
00000000
00010000
00001000
00000010
00000000
00001000
00010000
00100000
00000000
00010000
00000000
,
00001000
01000000
00010000
00000000
01100000
00000000
10010000
00000000
,
10000000
00000000
01000000
00010000
00001000
00000000
00000100
00000000
00000001
00000000
00001000
00000001
00001000
00000000
00000001
00000000
,
00002002
00000000
00000000
00000000
,
00000000
00000000
00000000
00000000
,
00003003
00000000
00000000
00000000
;
