#TITLE:ミストレス・アンに花束を;
#SUBTITLE:;
#ARTIST:soejima takuma feat. BEMANI Sound Team "猫叉Master";
#TITLETRANSLIT:MISTRESS ANN NI HANATABA WO;
#SUBTITLETRANSLIT:;
#ARTISTTRANSLIT:soejima takuma feat. Nekomata Master;
#GENRE:;
#CREDIT:;
#MUSIC:MISTRESS ANN NI HANATABA WO.ogg;
#BANNER:MISTRESS ANN NI HANATABA WO.png;
#BACKGROUND:MISTRESS ANN NI HANATABA WO-bg.png;
#CDTITLE:./CDTITLES/BEATMANIA IIDX.PNG;
#SAMPLESTART:75.555;
#SAMPLELENGTH:15.000;
#SELECTABLE:YES;
#OFFSET:0.000;
#BPMS:0.000=135.000;
#STOPS:;
#MENUCOLOR:;
#METERTYPE:DDR;
#LISTSORT:;
#BGCHANGES:0.000=MISTRESS ANN NI HANATABA WO.avi=1.000=0=0=0=StretchNoLoop====,
99999.000=-nosongbg-=1.000=0=0=0=StretchNoLoop====
;
#FGCHANGES:;

//--------------- dance-single - t7r ----------------
#NOTES:
     dance-single:
     t7r:
     Beginner:
     1:
     0.107,0.128,0,0,0:
0000
0000
0000
0000
,
0000
0000
0000
0000
,
0000
0000
0000
0000
,
0010
0000
0010
0000
,
0010
0000
0000
0000
,
0100
0000
0100
0000
,
0100
0000
0000
0000
,
0001
0000
0001
0000
,
0001
0000
0000
0000
,
1000
0000
1000
0000
,
1000
0000
0000
0000
,
0001
0001
0000
0000
,
0001
0000
0000
0000
,
1000
1000
0000
0000
,
1000
0000
0000
0000
,
0010
0010
0000
0000
,
0010
0000
0000
0000
,
0100
0100
0000
0000
,
0100
0000
0000
0000
,
0001
0000
0001
0000
,
1000
0000
0000
0000
,
1000
0000
1000
0000
,
0001
0000
0000
0000
,
0100
0000
0100
0000
,
0010
0000
0000
0000
,
0010
0000
0010
0000
,
0100
0000
0100
0000
,
0001
0000
0000
0000
,
1000
0000
0000
0000
,
0010
0000
0000
0000
,
1000
0000
0100
0000
,
0010
0000
0000
0000
,
0001
0000
0000
0000
,
1000
0000
0000
0000
,
0010
0000
0100
0000
,
0001
0000
0001
0000
,
1000
0000
1000
0000
,
0001
0000
0000
0000
,
1000
0000
0000
0000
,
0100
0000
0100
0000
,
0010
0000
0010
0000
,
0100
0000
0000
0000
,
1000
0000
0001
0000
,
1000
0000
1000
0000
,
1000
0000
0000
0000
,
0001
0000
0001
0000
,
0001
0000
0000
0000
,
0100
0000
0100
0000
,
0100
0000
0000
0000
,
0010
0000
0010
0000
,
0010
0000
0010
0000
,
0010
0000
0000
0000
,
1000
0000
1000
0000
,
1000
0000
0000
0000
,
0001
0000
0001
0000
,
0001
0000
0000
0000
,
0100
0000
0100
0000
,
0010
0000
0000
0000
;

//--------------- dance-single - t7r ----------------
#NOTES:
     dance-single:
     t7r:
     Easy:
     5:
     0.263,0.239,0.081,0.324,0:
0000
0000
0000
0000
,
0000
0000
0000
0000
,
0000
0000
0000
0000
,
0001
0001
0200
0300
,
0010
0010
2000
3000
,
0100
0100
0020
0030
,
0002
0003
2000
3000
,
0010
0100
0020
0030
,
1000
0001
2000
3000
,
0001
0010
0100
0010
,
0001
0100
0020
0030
,
1000
1000
0001
0001
,
2000
0000
3020
0000
,
1030
1000
0001
0001
,
0020
0000
0032
0000
,
0103
0100
0010
0010
,
0200
0000
0302
0000
,
1003
1000
0100
0010
,
0100
1000
0001
0000
,
1000
0000
1001
0000
,
0010
0100
0001
0001
,
0010
0000
0110
0000
,
0100
1000
0001
0001
,
1000
0000
1010
0000
,
0001
0100
0001
0001
,
0010
0000
0011
0000
,
0100
0000
1100
0000
,
2000
0000
3001
0000
,
0002
0000
1003
0000
,
0020
0000
0130
0000
,
0200
0000
0310
0000
,
2000
0000
0100
3100
,
0020
0000
0001
0031
,
0002
0000
0100
0103
,
0200
0000
0010
0310
,
2000
0000
0001
3010
,
0002
0000
1000
0013
,
2000
0000
0001
3100
,
0020
0000
0100
0031
,
0200
0000
0010
1300
,
0002
0000
0010
1003
,
2000
0000
0100
3001
,
0100
0000
0010
0000
,
1000
0001
1000
0001
,
0200
0300
0020
0030
,
1000
0010
1000
0010
,
0200
0300
0020
0030
,
2000
3000
0001
0010
,
0100
0010
0001
1000
,
0100
0100
1000
1000
,
0001
0001
1000
1000
,
0001
0000
1001
0000
,
1000
1000
0010
0010
,
0100
0000
0110
0000
,
0100
0100
0001
0001
,
0010
0000
0110
0000
,
0010
0010
0001
0001
,
2002
0000
0000
0000
,
0000
0000
0000
0000
,
3003
0000
0000
0000
;

//--------------- dance-single - t7r ----------------
#NOTES:
     dance-single:
     t7r:
     Medium:
     8:
     0.408,0.398,0.108,0.459,0.396:
0000
0000
0000
0000
,
0000
0000
0000
0000
,
0000
0000
0000
0000
,
0001
0100
0001
0000
0200
0000
0300
0000
,
0010
1000
0010
0000
2000
0000
3000
0000
,
0001
0010
0022
0033
,
2000
0000
0002
3003
,
1000
0100
1000
0000
0200
0000
0300
0000
,
0010
0001
0010
0000
0002
0000
0003
0000
,
0100
0010
0100
0000
0020
0000
0030
0000
,
1000
0001
0100
0001
2000
0000
3001
0000
,
1000
0100
1000
0000
0200
0000
0300
0000
,
0010
0001
0010
0000
0002
0000
0003
0000
,
0100
0001
0100
0000
0020
0000
0030
0000
,
2000
0000
0002
3003
,
0100
0010
0100
0000
0020
0000
0030
0000
,
1000
0001
0100
0000
0002
0000
0003
0000
,
1000
0001
0010
0000
0002
0000
0003
0000
,
1000
0100
0010
0100
2000
0000
3010
0000
,
0100
0000
0000
0100
0000
0000
0000
0000
0010
0000
0000
0000
0110
0000
0000
0000
,
0001
0000
0000
0001
0000
0000
0000
0000
1000
0000
0000
0000
1001
0000
0000
0000
,
1000
0000
0000
1000
0000
0000
0000
0000
0100
0000
0000
0000
1100
0000
0000
0000
,
0010
0000
0000
0010
0000
0000
0000
0000
0001
0000
0000
0000
0011
0000
0000
0000
,
0001
0000
0000
0100
0000
0000
0000
0000
0001
0000
0000
0000
1001
0000
0000
0000
,
1000
0000
0000
0100
0000
0000
0000
0000
1000
0000
0000
0000
1001
0000
0000
0000
,
0010
0000
0010
0000
0010
0000
0100
0000
0100
0000
0100
0000
,
0001
0000
0010
0000
0100
0000
2000
0000
0000
3001
0000
0000
,
1000
0000
0010
0000
1000
0000
0002
0000
0000
1003
0000
0000
,
0001
0000
0010
0000
0001
0000
2000
0000
0000
3001
0000
0000
,
0100
0000
0010
0000
1000
0000
0020
0000
0000
0130
0000
0000
,
0001
0000
0010
0000
0010
0000
0100
0000
1000
0000
1000
0000
,
0010
0000
0100
0000
0001
0000
2000
0000
0000
3010
0000
0000
,
0100
0000
0010
0000
1000
0000
0002
0000
0000
0013
0000
0000
,
0100
0000
0010
0000
0001
0000
2000
0000
0000
3100
0000
0000
,
1000
0000
0001
0000
0001
0000
0100
0000
0010
0000
0010
0000
,
1000
0000
0010
0000
0100
0000
0002
0000
1000
0000
1003
0000
,
0001
0000
0010
0000
0100
0000
2000
0000
0001
0000
3001
0000
,
0100
0000
0010
0000
1000
0000
0020
0000
0100
0000
0130
0000
,
0001
0000
0010
0000
0010
0000
0001
0000
1000
0000
1000
0000
,
0010
0000
0100
0000
0001
0000
2000
0000
0100
0000
3001
0000
,
0100
0000
0010
0000
1000
0000
0002
0000
0010
0000
1003
0000
,
0100
0000
0001
0000
0010
0000
0100
0000
1000
0000
0010
0000
,
0200
0310
2000
3001
,
0010
0000
0010
0000
0001
0000
1000
0000
1000
0000
0010
0000
,
2000
3100
0020
0031
,
0001
0000
0100
0000
0100
0000
0020
0000
0000
1030
0000
0000
,
1000
0000
0100
0000
0100
0000
0020
0000
0000
0031
0000
0000
,
2000
0000
0000
3001
0000
0000
0100
0000
0010
0000
1000
0000
,
0010
0000
0200
0000
0000
0000
0302
0000
0000
0103
0000
0000
,
0001
0000
0010
0000
0010
0000
0001
0000
1000
0000
1000
0000
,
0100
0000
0010
0000
1001
0000
0010
0000
0100
0000
1001
0000
,
0002
1003
0020
0130
,
1000
0000
0200
0000
0000
0000
0320
0000
0000
0031
0000
0000
,
0001
0000
0200
0000
0000
0000
0320
0000
0000
1030
0000
0000
,
0020
0000
0000
0130
0000
0000
0001
0000
1000
0000
0001
0000
,
1000
0000
0020
0000
0000
0000
2030
0000
0000
3001
0000
0000
,
1000
0000
0100
0000
1100
0000
0001
0000
0100
0000
0101
0000
,
0220
0000
0000
0000
,
0000
0000
0000
0000
,
0330
0000
0000
0000
;

//--------------- dance-single - t7r ----------------
#NOTES:
     dance-single:
     t7r:
     Hard:
     12:
     0.588,0.557,0.324,0.531,0.674:
0000
0000
0000
0000
,
0000
0000
0000
0000
,
0000
0000
0000
0000
,
0010
0000
1000
0000
0010
0000
1000
0000
0002
0000
0000
0000
0013
0000
0000
0001
,
0010
0001
0010
0001
2000
0000
3100
0000
,
1000
0000
0000
0010
0000
0000
0200
0000
0000
0000
0000
0000
0320
0000
0000
0000
,
2030
0000
3001
0100
0020
0000
1030
0100
,
0010
0000
0000
0100
0000
0000
0010
0000
0000
0100
0000
0000
2000
0000
0000
0000
3020
0000
0000
0000
0230
0000
0000
0000
,
0301
0010
0001
0010
0100
1000
0010
0100
,
0001
0000
0000
0010
0100
0000
1000
0000
0002
0000
0000
0000
1003
0000
0000
0000
,
0010
1000
0001
0100
0020
1000
1030
0000
,
1001
0000
0100
0000
0001
0000
0010
0000
0002
0000
0000
0000
1003
0000
0000
0100
,
1000
0000
0100
0000
1000
0000
0010
0000
2000
0000
0000
0000
3010
0000
0000
0010
,
0100
0000
0000
0010
0000
0000
2000
0000
0000
0000
0000
0000
3002
0000
0000
0000
,
0023
0000
0031
0100
0020
0000
1030
0001
,
0100
0000
0000
0001
0000
0000
0100
0000
0000
0001
0000
0000
2000
0000
0000
0000
3200
0000
0000
0000
0320
0000
0000
0000
,
0031
1000
0001
1000
0010
0100
0001
0100
,
0010
0000
0000
1000
0001
0000
0010
0000
0200
0000
0000
0000
1300
0000
0000
0000
,
0010
1000
0100
1000
0020
0100
0130
0000
,
0110
0000
0000
0101
0000
0000
1000
0000
0010
0000
0100
0000
0010
1000
0000
0000
,
0100
0000
0000
1100
0000
0000
0010
0000
0001
0000
0100
0000
0100
0000
0000
0000
,
0110
0000
0000
1001
0000
0000
0001
0000
0010
0000
0100
0000
0010
0001
0000
0000
,
1000
0000
0000
1010
0000
0000
0010
0000
0100
0000
0010
0000
1000
0000
0000
0000
,
1100
0000
0000
0011
0000
0000
1000
0000
0100
0000
1000
0000
0001
0010
0000
0000
,
0101
0000
0000
1010
0000
0000
0010
0000
0100
0000
0001
0000
0001
0000
0000
0000
,
1000
0000
0100
0000
1000
0001
1000
0000
0001
0000
0100
0010
,
0100
0000
0100
0000
0001
0010
0100
0000
0000
0110
0000
0000
,
0001
0000
0010
0000
0100
0000
0110
0000
0001
0000
1000
0000
,
0010
0000
0100
0000
0001
0000
0011
0000
0001
0000
0100
0000
,
0010
0000
1000
0000
0001
0000
1001
0000
0010
0000
0001
0000
,
0100
0000
0010
0000
1000
0000
0001
0000
1001
0000
1100
0000
,
0002
0000
0010
0000
1000
0000
0203
0000
0010
0000
1000
0000
,
0320
0000
0100
0000
0001
0000
2030
0000
0100
0000
0010
0000
,
3002
0000
0010
0000
0100
0000
2003
0000
0100
0000
0001
0000
,
3100
0000
0100
1000
0100
0000
0010
0000
0010
0001
0010
0000
,
0001
0000
0100
0001
0100
0000
2010
0000
0001
0000
0010
0000
,
3001
0000
1000
0100
1000
0000
0012
0000
1000
0000
0100
0000
,
1003
0000
0010
0100
0001
0000
2010
0000
0100
0000
3001
0000
,
0100
0000
0010
0100
0010
0000
1000
0000
0001
1000
0001
0000
,
1001
0000
0010
0100
1000
0000
2100
0000
0010
0000
3001
0000
,
1010
0000
0010
0100
0001
0000
0102
0000
0010
0000
1003
0000
,
0110
0000
0010
0100
0001
0000
0110
0000
0010
1000
0001
0000
,
1000
0000
0100
0010
0001
0000
0100
0000
0010
1000
0001
0000
,
2001
0000
0010
0000
3001
0000
1002
0000
0010
0000
1003
0000
,
0210
0000
0000
0000
0000
0000
0000
0000
0000
0000
0000
0000
0301
0000
0000
0000
0000
0000
0100
0000
0000
0010
0000
0000
0200
0000
0000
0000
0000
0000
0000
0000
0000
0000
0000
0000
0301
0000
0000
0000
1000
0000
0000
0000
0000
0000
0000
0000
,
0002
0000
0010
0000
0000
1003
0020
0000
0000
0130
0001
0100
,
0020
0000
1000
0000
0130
0001
0100
0000
0020
0000
0000
1030
,
0002
0000
0000
1003
0000
0001
0010
0001
0020
0000
0031
0000
,
1000
0001
2000
0000
3010
0100
0002
0000
0000
0013
0000
0001
,
1000
0000
0001
0000
1000
0010
0100
0000
0010
0100
0010
0100
,
0001
0000
0010
0000
0110
0000
0001
0000
1000
0000
1001
0000
,
2010
0000
0000
0000
0000
0000
3001
0000
0000
0100
0000
0000
0002
0000
0000
0000
0000
0000
0000
0000
1003
0000
0000
0000
,
0010
0000
2000
0000
0000
3001
2000
0000
0000
3001
0010
0100
,
0020
0000
0032
0000
0000
1003
0020
0000
2030
0000
0000
3001
,
0200
0000
0000
0000
0000
0301
0100
1000
0100
0001
0010
0100
,
1000
0001
0020
0000
0031
1000
0200
0000
0000
2300
0000
0000
,
3001
0000
1001
0000
1000
0001
0010
0000
0110
0000
0011
0000
,
2002
0000
0000
0000
,
0000
0000
0000
0000
,
3003
0000
0000
0000
;

//--------------- dance-single - t7r ----------------
#NOTES:
     dance-single:
     t7r:
     Challenge:
     15:
     0.695,0.743,0.306,0.36,0.926:
0000
0000
0000
0000
,
0000
0000
0000
0000
,
0000
0000
0000
0000
,
0000
0000
0000
0000
,
0000
0000
0000
0000
,
0000
0000
0000
0000
,
0000
0000
0000
0000
,
0001
0000
0000
0100
0000
0000
1000
0000
0000
0100
0000
0000
0010
0000
0000
0000
0101
0000
0000
0000
1100
0000
0000
0000
,
0011
0001
0010
1000
0010
0100
1000
0100
,
0001
0000
1000
0100
0010
0000
1000
0000
0200
0000
0000
0000
0310
0000
0000
0000
,
1001
0101
1001
0110
,
0010
0000
0000
0000
0000
0000
1000
0000
0000
0000
0000
0000
0100
0000
0000
0000
0000
0000
0001
0000
0000
0100
0000
0000
0010
0000
0000
0000
0000
0000
0001
0000
0000
0000
0000
0000
1000
0000
0000
0000
0000
0000
0001
0000
0010
0000
0001
0000
,
1000
0000
0010
0000
0001
0000
1000
0100
0010
0000
1000
0000
0001
0000
0100
0001
,
0010
0000
0001
0100
0000
1000
0100
0000
0010
0000
1000
0000
0001
0000
0010
0000
,
0001
0000
0100
0000
1000
0000
0001
0100
0010
0000
0001
0000
1000
0000
0010
0000
,
0100
0000
0000
0000
0000
0000
0010
0000
0000
0000
0000
0000
1000
0000
0000
0000
0000
0000
0001
0000
0000
0010
0000
0000
1000
0000
0000
0000
0000
0000
0000
0000
1010
0000
0000
0000
0000
0000
0000
0000
0011
0000
0000
0000
0000
0000
0000
0000
,
1100
1000
0100
0001
0100
0010
0001
0010
,
1000
0000
0001
0010
0100
0000
0001
0000
0020
0000
0000
0000
0130
0000
0000
0000
,
1000
0000
0000
0001
0100
0000
0000
1000
0100
0000
0010
0000
1001
0000
0000
0000
,
1100
0000
0001
0100
0000
0100
1000
0000
0110
0000
0001
1000
0010
1000
0000
1000
,
0001
0000
1000
0100
0000
0100
0001
0000
0100
0000
0010
0000
0110
0000
0001
1000
,
0001
0000
1000
0100
0000
0100
0001
0100
0010
0000
0001
0100
1000
0100
0000
0100
,
0010
0000
0001
0000
0100
0000
1000
0000
0010
0000
0100
0000
1001
0000
0100
0010
,
1010
0000
0001
0010
0000
0010
1000
0010
0001
0000
1000
0010
0001
0010
0000
0010
,
0100
0000
0000
0001
0000
0000
0010
0000
0000
1000
0000
0000
0100
0000
0000
0001
0010
0100
1000
0000
0000
0001
0000
0000
,
1000
0100
1000
0100
0010
1000
0001
0100
0001
0100
0010
0001
,
1000
0000
0010
0000
0001
0000
1000
0000
0100
0000
0010
0000
1000
0000
0000
0000
0000
0000
0001
0010
0100
1000
0100
0010
,
0001
0000
0100
1000
0100
0000
1010
0000
0101
0000
1100
0000
,
1000
0000
0100
0001
0100
0000
0011
0000
1100
0000
0101
0000
,
0001
0000
0010
1000
0010
0000
1100
0000
0011
0000
1001
0000
,
0101
0000
0000
0000
1000
0000
0100
0000
0001
0000
0000
0000
0110
0000
0000
0000
0001
0000
0100
0000
1000
0000
0100
0010
,
0100
0000
0010
1000
0001
0000
0011
0000
1100
0000
0101
0000
,
0100
0000
0010
1000
0001
0000
1010
0000
0101
0000
1100
0000
,
0010
0000
0001
1000
0010
0000
0101
0000
1010
0000
1001
0000
,
0100
0000
0001
0100
0010
0000
0110
0000
0001
0100
0001
1000
,
0010
0000
1000
0100
0010
0001
0100
0000
0101
0000
1001
0000
,
0010
0000
0001
0100
0010
1000
0100
0000
1100
0000
1001
0000
,
0100
0000
0001
0010
0100
1000
0010
0000
1010
0000
1001
0000
,
0110
0000
0000
0000
1000
0000
0010
0000
0001
0000
0010
0000
0100
0000
0010
0000
1000
0000
0100
0010
0001
0000
0100
0010
,
0100
0000
0010
1000
0100
0001
0100
0000
0110
0000
0011
0000
,
1001
0000
0010
0001
0100
1000
0100
0000
0110
0000
1010
0000
,
1001
0000
0100
1000
0010
0001
0010
0000
0110
0000
0101
0000
,
1000
0000
0100
0001
0100
0000
1000
0000
0010
0000
0100
0000
,
0002
0000
0203
0000
2300
0000
3002
0000
0023
0000
0230
0000
,
0302
0000
0000
0000
0000
0000
0013
0000
0000
0001
1000
0100
2000
0000
0000
0000
0000
0000
3010
0000
2000
0000
0000
0000
,
3002
0000
0000
0000
0023
0000
0000
0000
0000
0000
1030
0000
0200
0000
0000
0000
0000
0000
0310
1000
0001
0100
0001
0000
,
0020
0000
0000
0000
0032
0000
0000
0000
1003
0100
0010
0001
2000
0000
0000
0000
3020
0000
0000
0000
0130
0001
1000
0100
,
2000
0000
0000
0000
0000
3001
0100
0010
0001
1000
0100
0010
,
1000
0100
0002
0000
0103
0010
0002
0000
0000
0203
0000
0000
,
0310
0000
1010
0000
1001
0100
0010
0000
0110
0001
1000
0001
,
1001
0001
0100
0010
1010
0000
1001
1000
0100
0010
0011
0000
,
1001
0000
0001
0100
1000
0000
0110
0000
0001
0000
1000
0000
,
1100
0000
0000
0000
0011
0000
0000
0000
1000
0000
0100
0000
0001
0000
0000
0000
0100
0010
0001
1000
0001
0000
0100
0000
,
0010
0000
0101
0000
1100
0010
1001
0010
1100
0010
1001
0001
,
1000
0100
0010
1000
0001
0100
0010
0001
1000
0010
0100
1000
,
0001
0010
0100
0000
0110
0001
1000
0000
0110
1000
0001
1000
,
1100
0000
0011
0000
1001
0010
0110
0000
0101
0000
1100
0000
,
0022
0000
0000
0000
,
0000
0000
0000
0000
,
0033
0000
0000
0000
;
