#TITLE:INFERNO;
#SUBTITLE:;
#ARTIST:Caldeira feat.星野奏子;
#TITLETRANSLIT:;
#SUBTITLETRANSLIT:;
#ARTISTTRANSLIT:Caldeira feat.Kanako Hoshino;
#GENRE:;
#CREDIT:;
#MENUCOLOR:;
#METERTYPE:DDR;
#BANNER:INFERNO.png;
#BACKGROUND:INFERNO-bg.png;
#LYRICSPATH:;
#CDTITLE:./CDTITLES/BEATMANIA IIDX.PNG;
#MUSIC:INFERNO.ogg;
#OFFSET:0.000;
#SAMPLESTART:66.667;
#SAMPLELENGTH:15.000;
#SELECTABLE:YES;
#LISTSORT:;
#BPMS:0.000=135.000;
#STOPS:;
#BGCHANGES:0.000=INFERNO.avi=1.000=0=0=0,
99999=-nosongbg-=1.000=0=0=0 // don't automatically add -songbackground-
;
#ATTACKS:;

//---------------dance-single - ----------------
#NOTES:
     dance-single:
     :
     Beginner:
     2:
     0.115,0.164,0.008,0.000,0.000:
0000
0000
0000
0000
,
0000
0000
0000
0000
,
0000
0000
0000
0000
,
0000
0000
0000
0000
,
0000
0000
0000
0000
,
0100
0000
0000
0000
,
1000
0000
0000
0000
,
0001
0000
0000
0000
,
0100
0000
0000
0000
,
0001
0000
0000
0000
,
1000
0000
0000
0000
,
0001
0000
1000
0000
,
0001
0000
0000
0000
,
1000
0000
0000
0000
,
0100
0000
0000
0000
,
0010
0000
0000
0000
,
0001
0000
0000
0000
,
0100
0000
0000
0000
,
0010
0000
0000
0000
,
1000
0000
0000
0000
,
0001
0001
0001
0000
,
0000
0100
0000
0010
,
0000
1000
0000
0001
,
0000
1000
0000
0100
,
0000
0010
0000
0010
,
0000
0001
0000
0010
,
0000
0100
0000
1000
,
0000
0100
0000
0010
,
0010
0000
0001
0000
,
1000
0000
0000
0000
,
0010
0000
0100
0100
,
0100
0000
0000
0000
,
0010
0000
1000
1000
,
1000
0000
0000
0000
,
0001
0000
0000
0000
,
0100
0000
0001
0000
,
1000
0000
0010
0000
,
0000
0000
0000
0000
,
0000
0100
0000
0010
,
0000
1000
0000
0001
,
0000
1000
0000
0100
,
0000
0010
0000
0001
,
0000
0010
0000
0001
,
0000
0100
0000
0010
,
0010
0000
1000
0000
,
0010
0010
0010
0000
,
0100
0000
0000
0000
,
0010
0000
0000
0000
,
1000
0000
0000
0000
,
0001
0000
0000
0000
,
1000
0000
0100
0000
,
1000
0000
0010
0000
,
0100
0000
0001
0000
,
0010
0000
0001
0000
,
1000
0000
0000
0000
,
0010
0000
0000
0000
,
0000
0000
0000
0100
,
0100
0000
0000
0000
,
0000
0000
0000
0010
,
0010
0000
0000
0000
,
1000
0000
0001
0000
,
0100
0000
0000
0000
,
0100
0000
0010
0000
,
1001
0000
0000
0000
,
1000
0000
0001
0000
,
0100
0000
0000
0000
,
0001
0000
1000
0000
,
0100
0000
0000
0000
,
1000
0000
0010
0000
,
0100
0000
0010
0000
,
1000
0000
0001
0001
;

//---------------dance-single - ----------------
#NOTES:
     dance-single:
     :
     Easy:
     5:
     0.213,0.273,0.039,0.154,0.000:
0000
0000
0000
0000
,
0000
0000
0000
0000
,
0000
0000
0000
0000
,
0000
0000
0000
0000
,
0000
0000
0000
0000
,
0010
0000
0000
0000
,
0100
0000
0000
0000
,
0001
0000
0000
0000
,
1000
0000
0100
0000
,
1000
1000
1000
0000
,
0001
0001
0001
0000
,
0100
0100
0010
0010
,
0100
0010
2002
3003
,
0000
1000
0000
1000
,
0000
0001
0000
0001
,
0100
0000
0100
0000
,
0010
0000
0010
1000
,
0010
0000
0100
0000
,
0001
0000
1000
0000
,
0100
0100
0010
0010
,
0001
0001
1000
1001
,
0010
0000
0000
0000
,
0100
0000
0000
0000
,
0010
0000
0000
0000
,
1000
0000
0001
0000
,
0100
0000
0001
0000
,
1000
0000
0100
0000
,
0010
0000
0001
0000
,
0020
0030
0100
0010
,
0001
0001
0100
0010
,
1000
0000
1000
0010
,
0100
0100
0010
1000
,
0001
0000
0001
1000
,
0001
0001
0100
0100
,
0001
0001
1000
1000
,
0010
0000
0100
0000
,
0010
0100
0010
2002
,
0000
0000
0000
3003
,
0001
0001
1000
1000
,
0001
0100
0001
1000
,
1000
1000
0001
0001
,
1000
0100
1000
0001
,
0010
0010
0100
0100
,
0010
0001
0100
0010
,
1000
1000
0001
0001
,
1000
0001
1000
1001
,
0020
0000
0000
0030
,
0200
0000
0000
0300
,
0020
0000
0000
0030
,
2000
0000
0000
3000
,
0002
0003
2000
3000
,
0002
0003
0200
0300
,
0020
0030
2000
3000
,
0002
0003
2000
3000
,
0000
0000
0000
0000
,
0100
0000
0000
0000
,
0100
0100
0200
0300
,
0010
0000
0000
0000
,
0010
0010
0020
0030
,
0000
1000
0000
1000
,
0000
0001
0000
0001
,
0100
0000
0100
0000
,
0010
0010
2000
3000
,
0010
0000
0100
0001
,
1000
0000
1000
0100
,
0010
0000
0010
0001
,
0100
0000
0010
0100
,
0001
0000
1000
0001
,
0100
0000
0001
0010
,
0100
0100
0010
0010
,
0001
1000
0001
1001
;

//---------------dance-single - ----------------
#NOTES:
     dance-single:
     :
     Medium:
     7:
     0.347,0.355,0.131,0.108,0.000:
0000
0000
0000
0000
,
0000
0000
0000
0000
,
0000
0000
0000
0000
,
0000
0000
0000
0000
,
0000
0000
0000
0000
,
1000
0010
0100
0001
,
1000
0010
1000
0001
,
0100
0001
1000
0001
,
0010
0100
0010
1000
,
0011
0001
0100
0010
,
1000
0010
0100
0001
,
1000
0001
1000
0100
,
1000
0001
1000
0001
2000
0000
3000
0000
,
0001
0010
0100
0100
,
0010
0001
1000
1000
,
0010
0100
0010
0010
,
1000
0010
0100
0001
,
1001
0001
0010
0100
,
1000
0100
0010
0001
,
1000
0001
1000
0000
0001
1000
0001
0000
,
0010
0100
0010
0100
0010
0001
2000
0000
,
3010
0100
0010
1000
,
0001
0000
0100
0000
0001
0000
1000
0001
,
0100
0001
1000
0001
,
0020
1000
0100
1030
,
1001
0001
1000
0010
,
0100
0001
0100
0000
0010
1000
0010
0000
,
1000
0100
1000
0010
,
0200
0000
0010
0310
,
1001
1000
0100
0010
,
0001
0000
0010
0000
0100
0100
0010
0010
,
0001
0010
0100
1000
,
0010
0000
0100
0000
0001
0001
1000
1000
,
0001
1000
0001
0100
,
0001
1000
0001
0010
,
1001
0010
1001
0100
,
0110
0110
1001
0220
,
0000
0000
0330
0010
,
1000
0000
1000
0000
0001
0100
0001
0000
,
1000
0000
1000
0000
0100
0010
0100
0000
,
0010
0000
0010
0000
0001
1000
0001
0000
,
1000
0000
1000
0000
0010
0100
0001
0000
,
1001
0000
0001
0000
0100
0001
1000
0000
,
0001
0000
1000
0000
0001
0010
0100
0000
,
1000
0100
0010
0001
,
1000
1000
0001
0001
1000
0001
2000
0000
,
3010
0010
0100
0001
,
1000
1000
0010
0100
,
0001
0001
0010
0100
,
1000
1000
0100
0010
,
1001
0010
0100
0010
,
1000
0100
0001
0100
,
1000
0010
0001
0010
,
2000
0000
0000
0000
0000
0000
0000
0002
,
0000
0000
3003
0100
,
1001
0010
0100
0100
,
0010
1000
0002
0003
,
1000
1000
0100
0010
,
0001
0010
0200
0300
,
0010
0010
0001
1000
,
0010
0100
0020
0030
,
1000
0001
1000
0001
,
1001
1001
2002
3003
,
0010
0100
0001
1000
,
0100
0010
0001
0000
0010
0100
1000
0100
,
0010
0001
0100
0010
,
1000
0010
1000
0000
0001
0100
0001
1000
,
0001
1000
0100
0010
,
0001
0000
0100
0000
0010
1000
0010
0100
,
0001
0100
0010
1000
,
0001
0001
1000
1000
0001
1000
1001
0000
;

//---------------dance-single - ----------------
#NOTES:
     dance-single:
     :
     Hard:
     11:
     0.499,0.491,0.177,0.247,0.189:
0000
0000
0000
0000
,
0000
0000
0000
0000
,
0000
0000
0000
0000
,
0000
0000
0000
0000
,
0000
0000
0000
0000
,
0001
0000
0000
0000
1001
0000
0000
0010
0000
0000
0010
0000
0000
0100
0000
0000
,
1001
0000
0000
0000
1100
0000
0000
0001
0000
0000
0001
0000
0000
0010
0000
0000
,
0110
0000
0000
0000
0101
0000
0000
1000
0000
0000
1000
0000
0000
0100
0000
0000
,
1100
0000
0000
0000
1010
0000
0000
0010
0000
0000
0100
0000
0000
0001
0000
0000
,
1000
0000
0001
0000
0100
0000
0000
0001
0000
0000
1000
0000
0000
0001
0000
0000
,
1000
0000
0100
0000
0010
0000
0000
0100
0000
0000
1000
0000
0000
0010
0000
0000
,
0100
0001
1000
0001
0100
0001
1000
0001
,
0010
0100
1000
0100
0220
0000
0330
0000
,
0011
0000
0000
0000
0101
0000
0000
0001
0000
1000
0000
0000
0001
0000
0000
1000
,
0000
0100
0000
0000
0010
0000
0000
0100
0000
1000
0000
0000
0010
0000
0100
0000
,
0001
0000
0000
0000
1001
0000
0000
1000
0000
0010
0000
0000
0100
0000
0000
0001
,
0000
0100
0000
0000
0001
0000
0000
0010
0000
0100
0000
0000
0010
0000
0100
0000
,
1001
0000
0000
0000
1100
0000
0000
1000
0000
0001
0000
0000
0100
0000
0000
0001
,
0000
0010
0000
0000
0100
0000
0000
0010
0000
0001
0000
0000
0100
0000
0010
0000
,
1000
0010
0100
0001
1000
0010
0100
0001
,
1000
1000
0001
0001
1000
0001
2001
0000
,
3001
0010
0200
0000
1000
0000
0301
0000
,
1000
0010
0100
0000
0001
0100
0010
0000
,
1000
0001
0200
0000
0001
0000
1300
0000
,
0001
0010
0100
0000
1000
0100
0010
0000
,
1001
0010
0200
0000
0010
0000
1300
0000
,
0001
1000
0100
0000
1000
0001
0010
0000
,
0001
0010
0002
0000
0100
0000
0013
0000
,
1000
0010
0000
0100
0000
0000
0000
0010
0000
1000
0000
0001
1000
0000
0001
0000
,
1000
0100
0020
0000
0001
0000
0130
0000
,
0010
1000
0002
0000
1000
1000
1003
1000
,
0010
0100
0002
0000
0100
0000
0013
0000
,
1000
0010
0200
0000
0010
0010
0310
0010
,
1000
0000
0001
0000
1000
0000
0000
0001
0000
0100
0000
0001
1000
0000
0000
0000
,
0001
0000
1000
0000
0001
0000
0000
1000
0000
0100
0000
1000
0010
0000
0100
0000
,
0010
1000
0100
0000
0010
0001
0100
0000
,
1000
0001
1000
0001
0100
0001
1000
0000
0000
2020
0000
0000
,
0000
0000
3030
0100
,
0010
1000
0001
0000
0100
0001
0010
0000
,
0001
0010
0100
0000
1000
0100
0010
0000
,
0001
0100
0010
0000
1000
0010
0100
0000
,
0010
1000
0001
0000
1000
0001
0100
0000
,
1001
0001
0100
0000
0010
1000
0100
0000
,
0010
0001
0100
0000
0010
1000
0001
0100
,
0010
0010
1000
1000
0001
0001
0100
0100
,
0001
0001
1000
1000
0001
1000
1002
0000
,
0013
0100
2000
0000
3100
0010
0001
0000
,
0100
0010
0200
0000
0310
1000
0001
0000
,
1000
0100
0020
0000
0031
0010
0100
0000
,
1000
0100
0002
0000
0103
0001
1000
0000
,
0020
0130
0020
1030
,
0002
1003
2000
3100
,
0020
0031
0002
0103
,
0020
0000
1030
0000
0001
1000
0001
2000
,
0000
0000
0000
3010
,
0100
0000
0110
0000
0010
1000
0001
1000
,
0001
0000
0000
0001
0000
0000
0100
0000
0020
0000
0000
0000
0130
0000
0000
0000
,
0010
1000
0100
0000
0010
0001
0100
0001
,
1000
0000
0000
0001
0000
0000
1000
0000
0200
0000
0000
0000
1300
0000
0000
0000
,
0010
0100
0001
0000
1000
0001
0010
0001
,
0100
0000
0000
0010
0000
0000
0100
0000
0002
0000
0000
0000
0103
0000
0000
0000
,
0010
0010
1000
1000
0001
0001
0100
0100
,
0001
1000
0001
1000
0001
0001
2001
0000
,
3010
0100
0001
0000
1000
0100
0010
0100
,
1000
0000
0001
0200
0000
0000
0000
0000
0310
0000
1000
0000
0001
0000
1000
0000
,
1002
0000
0013
0100
1000
0100
0010
0000
,
0001
0100
0001
1000
0010
0100
0001
0001
,
1001
0001
0010
0000
0100
0010
0001
0000
,
0100
0010
1000
0010
0100
0100
0001
0001
,
1000
1000
0100
0100
0010
0010
0001
0001
,
1000
1000
0001
0001
1000
0001
1001
0000
;

//---------------dance-single - ----------------
#NOTES:
     dance-single:
     :
     Challenge:
     15:
     0.740,0.709,0.339,0.147,0.818: // measure 1
0000
0000
0000
0000
,  // measure 2
0000
0000
0000
0000
,  // measure 3
0000
0000
0000
0000
,  // measure 4
0000
0000
0000
0000
,  // measure 5
0000
0000
0000
0000
,  // measure 6
0001
0000
0000
0000
0011
0000
0000
0001
0010
0000
0001
0000
1000
0001
0000
0000
,  // measure 7
1010
0000
0000
0000
1001
0000
0000
1000
0010
0000
1000
0000
0001
1000
0000
0000
,  // measure 8
1100
0000
0000
0000
1010
0000
0000
0010
0100
0000
0001
0000
0010
0001
0000
0000
,  // measure 9
0011
0000
0000
0000
0110
0000
0000
0100
1000
0000
0100
0000
0010
0100
0000
0000
,  // measure 10
1100
0000
0010
0000
0001
0000
0100
0010
1000
0000
0010
0000
0100
0001
0000
0000
,  // measure 11
0101
0000
0010
0000
1000
0000
0100
0010
0001
0000
1000
0000
0010
1000
0000
0000
,  // measure 12
0001
0100
0001
0100
0001
1000
0001
0000
1000
0100
1000
0100
1000
0001
1000
0000
,  // measure 13
0010
0100
0010
0100
0001
0010
0100
1000
0002
0000
0000
0000
0003
0000
0000
0000
,  // measure 14
1100
0000
0000
0000
1010
0000
0010
1000
0000
0010
0000
0010
1000
0000
0001
1000
,  // measure 15
0000
0001
0000
0001
0010
0000
0001
0100
0000
0001
0000
0001
0100
0000
0010
0100
,  // measure 16
0001
0000
0000
0000
1100
0000
0010
0100
0000
0010
0000
0100
1000
0000
0010
0100
,  // measure 17
0000
0010
0000
0100
0001
0000
0100
0010
0000
0100
0000
0001
1000
0000
0001
0000
,  // measure 18
0010
0000
0000
0000
0011
0000
0001
1000
0000
0010
0000
1000
0100
0000
1000
0010
,  // measure 19
0000
0100
0000
0010
1000
0000
0001
0010
0000
0100
0000
0010
0001
0000
1000
0000
,  // measure 20
0001
0010
0001
0010
0001
1000
0001
0000
1000
0010
1000
0010
1000
0001
1000
0000
,  // measure 21
0010
0110
0100
0110
1001
0110
2001
0000
,  // measure 22
3010
0000
1000
0000
0100
0010
0000
0100
0000
0100
1000
0000
0010
0000
0100
0000
,  // measure 23
0001
0000
0010
0000
0100
0010
0000
0001
0000
0001
0010
0000
0001
0000
1000
0000
,  // measure 24
0010
0000
0100
0000
0001
0010
0000
0001
0000
0001
1000
0000
0010
0000
1000
0000
,  // measure 25
0100
0000
0010
0000
0200
0000
0000
0000
1300
0001
0000
0001
0100
0000
0010
0000
,  // measure 26
1000
0000
0100
0000
0010
0100
0000
0100
1000
0100
0000
0100
0010
0000
0001
0000
,  // measure 27
0100
0000
0001
0000
0010
0001
0000
0001
1000
0001
0000
0001
0010
0000
0001
0000
,  // measure 28
1000
0000
0100
0000
1000
0010
0000
0010
0100
0001
0000
0001
1000
0000
0010
0000
,  // measure 29
1000
0000
0001
0000
1000
0001
0000
0001
1000
0001
0000
0001
0100
0010
0000
0010
,  // measure 30
0100
0000
0001
0000
0011
0000
0000
0100
1000
0100
0000
0100
0010
0000
0100
0000
,  // measure 31
1000
0000
0010
0000
0100
0001
0000
0001
1000
0000
0001
0000
1001
0000
0010
0000
,  // measure 32
1001
0000
0100
0000
1000
0010
0000
0010
0100
0001
0000
0001
0010
0000
0100
0000
,  // measure 33
1000
0000
0100
0000
0010
0100
0000
0100
1000
0000
0010
0000
0101
0000
0010
0000
,  // measure 34
1001
0000
0100
0000
0010
0001
0000
0001
0010
0001
0000
0001
1000
0000
0010
0000
,  // measure 35
1000
0000
0100
0000
1000
0010
0000
0010
1000
0001
0000
0001
1000
0000
0100
0000
,  // measure 36
0010
0001
0010
0001
0010
0001
1000
0000
0010
1000
0010
1000
0010
1000
0001
0000
,  // measure 37
0100
0010
0100
0001
0010
0100
1001
0000
0000
2010
0000
0000
,  // measure 38
0000
0000
3001
0000
,  // measure 39
0101
0000
0001
0100
0001
0000
0100
0001
0000
0001
1000
0000
0001
0000
1000
0100
,  // measure 40
0000
0100
0010
0000
0100
0000
1000
0010
0000
0010
0100
0000
0010
0000
1000
0001
,  // measure 41
0100
0000
0010
1000
0100
0000
0010
0100
0000
0100
1000
0000
0100
0000
0010
0001
,  // measure 42
0000
0001
0100
0000
0010
0000
0100
0001
0000
0001
1000
0000
0010
0000
0100
0010
,  // measure 43
1000
0000
0010
1000
0100
0000
0010
0001
0000
0010
0001
0000
0100
0000
0010
1000
,  // measure 44
0000
0010
1000
0000
0001
0000
1000
0001
0000
0100
0010
0000
1000
0000
0001
0100
,  // measure 45
0001
0010
0001
0010
0001
0100
0010
0000
1000
0010
1000
0010
1000
0100
0010
0000
,  // measure 46
0001
1001
1000
1001
0010
0110
1001
0000
,  // measure 47
0010
1000
0100
0001
0100
1000
0010
0001
,  // measure 48
0100
0010
1000
0100
0010
1000
0100
0010
,  // measure 49
0001
0100
1000
0100
0001
0010
1000
0001
,  // measure 50
0100
0010
0001
0010
0100
1000
0001
0100
,  // measure 51
0001
0000
0010
0100
1000
0100
1000
0000
0001
0000
0010
0100
0010
0001
1000
0000
,  // measure 52
0010
0000
0100
0001
1000
0010
1000
0000
0010
0000
0100
0001
1000
0100
0010
0000
,  // measure 53
0100
0000
1000
0100
0010
0001
1000
0000
0100
0000
1000
0010
0100
0001
1000
0000
,  // measure 54
0001
0010
0001
0010
0100
1000
0001
0000
1000
0010
1000
0010
0100
0001
2000
0000
,  // measure 55
0000
0000
3010
0000
,  // measure 56
0120
0000
0000
0000
0100
0000
0000
0001
0000
1000
0000
0001
0000
0000
1030
0100
,  // measure 57
2000
0000
0000
3002
0000
0000
0103
0000
0020
0000
0000
0000
0230
0000
0000
0000
,  // measure 58
0302
0000
0000
0000
0010
0000
0000
0100
0000
1000
0000
0100
0000
0000
1003
0000
,  // measure 59
0010
0000
0000
0000
0100
0000
0000
0000
0001
0000
0000
0000
0010
0000
0000
0000
0100
0000
0000
0000
1000
0000
0000
0000
0100
0000
0000
0000
0000
0000
0010
0000
0000
0001
0000
0000
1000
0000
0000
0000
0000
0000
0001
0000
0000
0000
0000
0000
,  // measure 60
2002
0000
0000
0000
3003
0000
0010
1000
0010
0000
0100
0000
0100
0000
0001
0000
,  // measure 61
0010
0000
0100
1000
0010
1000
0001
1000
0020
0000
0000
0000
0230
0000
0000
0000
,  // measure 62
0301
0010
0001
0010
0001
1000
0100
0000
1000
0010
1000
0010
1000
0001
0100
0000
,  // measure 63
0010
0110
0100
0110
1001
0110
2001
3001
,  // measure 64
0012
0000
0000
0000
0100
0000
0000
0000
1003
0000
1000
0100
0010
0000
0100
0000
,  // measure 65
1100
0000
1000
0010
0000
0010
0100
0000
0001
0000
0010
0000
0001
0100
0010
0100
,  // measure 66
0000
0100
0000
0001
1000
0001
0000
0001
1000
0000
0100
0000
0010
0000
0001
0100
,  // measure 67
0000
0010
0000
0010
1000
0100
0000
0000
1000
0000
0100
0000
1100
0000
0000
0000
,  // measure 68
1000
0000
0010
0000
1000
0001
0000
0001
0010
0000
0010
0002
0000
0000
0000
0000
,  // measure 69
0000
0000
1003
0000
0010
0000
0010
0000
0200
0000
0000
0301
1000
0001
0000
0001
,  // measure 70
0100
0001
0100
0001
1000
0100
0010
0001
1000
0010
1000
0010
1000
0100
0001
0100
,  // measure 71
1000
0011
0001
1100
0001
1001
0110
0000
;
