#TITLE:焔極OVERKILL†;
#SUBTITLE:;
#ARTIST:RoughSketch Vs. L.E.D.-G;
#TITLETRANSLIT:ENGOKU OVERKILL (SPECIAL);
#SUBTITLETRANSLIT:;
#ARTISTTRANSLIT:;
#GENRE:;
#CREDIT:;
#BANNER:ENGOKU OVERKILL (SPECIAL).png;
#BACKGROUND:ENGOKU OVERKILL (SPECIAL)-bg.png;
#LYRICSPATH:;
#CDTITLE:;
#MUSIC:ENGOKU OVERKILL (SPECIAL).ogg;
#OFFSET:0.000000;
#SAMPLESTART:101.250000;
#SAMPLELENGTH:15.000000;
#SELECTABLE:YES;
#BPMS:0.000000=192.000000
,84.000000=384.000000
,92.000000=192.000000
,285.000000=384.000000
,293.000000=192.000000
;
#STOPS:92.000000=0.938000,
293.000000=0.938000
;
#BGCHANGES:;
#KEYSOUNDS:;
#ATTACKS:;

//---------------dance-single - Pandemonium X VS t7r----------------
#NOTES:
     dance-single:
     Pandemonium X VS t7r:
     Challenge:
     18:
     1.083173,1.346218,0.607524,0.228808,1.037524,961.000000,884.000000,77.000000,29.000000,0.000000,0.000000,1.083173,1.346218,0.607524,0.228808,1.037524,961.000000,884.000000,77.000000,29.000000,0.000000,0.000000:
// measure 0
0000
0000
0000
0000
,  // measure 1
0000
0000
0000
0000
,  // measure 2
0000
0000
0000
0000
,  // measure 3
0000
0000
0000
0000
,  // measure 4
0000
0000
0000
0000
,  // measure 5
1000
0000
0000
0000
0001
0000
0000
0000
1000
0000
0100
1000
0100
0000
1000
0000
,  // measure 6
0010
0200
0000
0000
0001
0000
0310
0000
,  // measure 7
0001
0000
0000
0000
1000
0000
0000
0000
0001
0000
0010
0001
0010
0000
0001
0000
,  // measure 8
0100
0000
0010
0000
0000
0000
1000
0000
0001
1000
0001
0000
1000
0000
0000
0000
,  // measure 9
1001
0000
0000
0000
0010
0000
0000
0000
1000
0000
0100
0010
0100
0000
1000
0000
,  // measure 10
0010
0200
0000
0000
1000
0000
0310
0000
,  // measure 11
0001
0000
0000
0000
0010
0000
0000
0000
0001
0000
0100
0010
0100
0000
0001
0000
,  // measure 12
0100
0000
0010
0000
0000
0000
1000
0000
0001
0100
0001
0100
0010
1000
0010
1000
,  // measure 13
0100
0000
0000
0000
0110
0000
0000
0000
0010
0000
0001
0010
0100
0000
0010
0000
,  // measure 14
0001
0000
0100
0000
1000
0000
0100
0000
0001
0000
1000
0010
0100
0000
0010
1000
,  // measure 15
0001
0000
0000
0000
0011
0000
0000
0000
1000
0000
0100
0010
0001
0000
1000
0000
,  // measure 16
0001
0000
0010
0000
1000
0000
0010
0000
0001
0000
0100
0010
1000
0000
0001
0000
,  // measure 17
1000
0000
0100
1000
0010
0000
1000
0000
0001
0000
0100
0001
0010
0000
0001
0000
,  // measure 18
1000
0000
0010
1000
0100
0000
1000
0000
0001
0000
0010
0001
0100
0000
0001
0000
,  // measure 19
1000
0100
1000
0100
0010
0000
0001
0100
0010
0000
1000
0100
0010
0000
0001
0100
,  // measure 20
0001
0010
1000
0010
0001
0100
1000
0100
0001
0010
1000
0010
0001
0100
1000
0100
,  // measure 21
0002
0000
0000
0000
,  // measure 22
0000
0000
0000
0000
,  // measure 23
1000
0003
0000
0000
0000
0000
0000
0000
0000
0000
0000
0000
0000
0000
0000
0000
0110
0000
0000
0000
0000
0000
0000
0000
0010
0000
0000
0000
1000
0000
0000
0000
0100
0000
0000
0000
0000
0000
0000
0000
0010
0000
0000
0000
0001
0000
0000
0000
0100
0000
0000
0000
0000
0000
0000
0000
0010
0000
0000
0000
1000
0000
0000
0000
,  // measure 24
0001
0000
1000
0100
0010
0000
0100
1000
0010
0000
0100
0001
0010
0000
0001
0010
,  // measure 25
0000
0001
1000
0001
0100
0000
0010
1000
0001
0000
0010
0001
1000
0000
0010
1000
,  // measure 26
0100
0000
0010
0001
0100
0000
0010
0100
0001
0000
0010
0100
1000
0000
0010
1000
,  // measure 27
0000
0001
1000
0001
0010
0000
0001
0100
0010
0000
1000
0100
0010
0000
0001
0100
,  // measure 28
0010
0000
0100
0001
1000
0000
0100
0000
1100
0000
1000
0010
0100
0000
0010
1000
,  // measure 29
0000
0001
1000
0001
0010
0001
0010
0000
0011
0000
0000
0000
0101
0000
0001
0000
,  // measure 30
1001
0000
1000
0000
1100
0000
1100
0000
0110
0000
0120
0000
0000
0000
0031
0100
,  // measure 31
0010
0000
1000
0100
0010
0000
0001
0100
1000
0000
0100
0001
1000
0000
0001
0010
,  // measure 32
1000
0000
0010
0001
1000
0000
0001
0100
0010
0000
1000
0100
0010
0000
0110
0000
,  // measure 33
0001
0000
1001
0000
0010
0000
0100
0001
0010
0000
1000
0010
0001
0000
0010
0001
,  // measure 34
0100
0000
0001
0100
0001
0000
0011
0000
1000
0000
1100
0000
0001
0000
0101
0000
,  // measure 35
1100
0000
0101
0000
0001
1000
0001
1000
0100
0000
1000
0010
0100
0000
0001
0010
,  // measure 36
0100
0000
0010
0001
1000
0000
0010
0000
1010
0000
0010
0100
0001
0000
1000
0100
,  // measure 37
0000
0001
0100
1000
0001
0000
0101
0000
1000
0000
1100
0000
0001
0010
1000
0010
,  // measure 38
0001
0100
1000
0100
0002
0000
0000
0000
0000
0000
0000
0000
1003
0100
0010
0001
,  // measure 39
1000
0000
0000
0000
0101
0000
0001
1000
0100
0000
1100
0000
1000
0001
0010
0000
,  // measure 40
0011
0000
0001
1000
0010
0000
1010
0000
1000
0000
0001
0010
0100
0000
1000
0100
,  // measure 41
0010
0000
0001
1000
0010
0000
0100
0001
1000
0000
1100
0000
1000
0001
0010
0000
,  // measure 42
0011
0000
0001
1000
0100
0000
1100
0000
1000
0010
0100
0000
0010
1000
0010
1000
,  // measure 43
0001
0100
0001
0100
0001
0000
0010
0001
0100
0000
0101
0000
0010
1000
0100
0000
,  // measure 44
1100
0000
0010
0001
1000
0000
1001
0000
0001
0000
1000
0010
0100
0000
0001
0100
,  // measure 45
0010
0000
1000
0000
0100
0000
0001
0000
0100
1000
0001
0000
0100
0000
0110
0000
,  // measure 46
0001
1000
0001
1000
0010
0000
1000
0000
0100
0000
0001
0000
0100
0000
1000
0000
,  // measure 47
0001
0100
0110
0110
0110
0110
0101
0101
,  // measure 48
0101
0101
0011
0110
1100
0110
0012
0000
,  // measure 49
1003
0000
0001
0000
1000
0000
0100
1000
0010
0000
1010
0000
0100
0001
0010
0000
,  // measure 50
0001
1000
0001
1000
0001
0000
0100
1000
0000
0100
0001
0000
1000
0100
0010
0001
,  // measure 51
1000
0000
0001
0000
1000
0100
0001
0100
1000
0000
0100
0000
0110
0000
0010
0000
,  // measure 52
0011
0000
0001
0100
0001
0010
1000
0010
0001
0000
0010
0000
0110
0000
0100
0000
,  // measure 53
1100
0000
1000
0000
0101
0000
0101
0000
1100
0000
1100
0000
0001
0010
1000
0010
,  // measure 54
0001
0100
1000
0100
0001
0010
0001
0010
0100
1000
0100
1000
0001
0010
1000
0010
,  // measure 55
0001
0100
1000
0100
0001
0000
1000
0100
1000
0000
0010
0000
0100
0001
0100
0000
,  // measure 56
0001
0010
0001
0010
0001
0000
0010
0001
0010
0000
0100
0000
1000
0010
1000
0000
,  // measure 57
0010
0000
0100
0001
1000
0000
1000
0100
1000
0000
0100
0000
1000
0010
1000
0000
,  // measure 58
0010
0000
0100
0001
0010
0000
0100
0010
0001
0000
1000
0000
0001
0100
0010
0000
,  // measure 59
1000
0000
0001
0100
0020
0000
0000
0000
1000
0000
0000
0000
0100
0000
0000
0000
,  // measure 60
0001
0100
1000
0100
,  // measure 61
0001
0100
1000
0001
,  // measure 62
0100
0000
1030
0000
0001
0100
1000
0000
,  // measure 63
0001
0000
0000
0000
0001
0000
1000
0001
0010
0000
0100
0010
0001
0010
0001
0010
,  // measure 64
0001
0000
1000
0100
0010
0000
0010
0100
1000
0010
0100
0001
1000
0001
1000
0001
,  // measure 65
1000
0000
0000
0000
1001
0000
2000
0000
0000
0000
3100
0000
1000
0010
0100
0000
,  // measure 66
0001
0010
0100
0010
0001
1000
0001
0100
0001
0000
1000
0001
0010
0100
0010
0001
,  // measure 67
1000
0000
0000
0000
0001
0000
0000
0001
0100
0000
0000
0001
0100
0010
0100
0010
,  // measure 68
1000
0000
0100
0000
0010
0100
1000
0001
1000
0000
0000
0000
0001
0100
0001
1000
,  // measure 69
0100
0000
0000
0000
0010
0000
0100
0000
1001
0000
0000
1000
0010
0000
1000
0000
,  // measure 70
0000
0100
0010
0000
0100
1000
0000
0100
0010
0000
0100
1000
0000
0100
0010
0000
,  // measure 71
0001
2002
0000
0000
,  // measure 72
0000
0000
0000
0000
,  // measure 73
0000
0000
0000
0000
3003
0000
0000
0000
1001
0000
0001
0000
0010
0100
1000
0000
,  // measure 74
0000
0000
1100
0000
0100
1000
0010
0000
0110
0000
0001
0000
0001
0010
0100
0000
,  // measure 75
0000
0000
0010
0001
1000
0000
0001
0000
0101
0000
0000
0000
0100
0010
1000
0000
,  // measure 76
0000
0000
0001
0010
0100
0010
0001
1000
0001
0000
0000
0000
1000
0000
0100
0000
,  // measure 77
0001
0100
0010
0000
2002
0000
3003
0000
1001
0000
1000
0000
0001
0010
0100
0000
,  // measure 78
0010
0000
0001
1000
0000
0001
0020
0030
0100
0000
0010
0000
0001
0000
1000
0000
,  // measure 79
0010
0000
1000
0000
0100
0010
0001
0000
1000
0100
1000
0000
0001
0100
0001
0000
,  // measure 80
1000
0010
1000
0000
0001
0010
0001
0000
0100
0000
0010
1000
0000
0010
0001
0000
,  // measure 81
0010
1000
0000
0010
0001
0000
0010
0000
2002
0000
0000
0000
0000
0000
3003
0000
,  // measure 82
0100
0010
0110
0000
1001
0000
0200
0300
1001
0000
1001
0000
1001
0000
1000
0001
,  // measure 83
0010
0000
0010
0001
2000
3000
0100
0000
1000
0010
0100
0000
0010
0000
1000
0001
,  // measure 84
0010
0000
0200
0300
0010
0000
0002
0003
1000
0000
0001
1000
0001
0000
0001
1000
,  // measure 85
0100
0000
0020
0000
0000
0000
0030
0000
0110
0000
0000
0000
1000
0001
1001
0000
,  // measure 86
0000
0000
0010
0000
1001
0000
0000
0000
0110
0000
0000
0000
0001
1000
1001
0000
,  // measure 87
0000
0000
0001
1000
0001
0000
1000
0000
0110
0000
0100
0000
0010
0000
1000
0000
,  // measure 88
0001
1000
0001
1000
0001
1000
0001
1000
0002
0000
0000
0000
0000
0000
0000
0000
,  // measure 89
2003
0000
0000
0000
0000
0000
0000
0000
3001
0010
0100
0000
0100
1000
0010
0000
,  // measure 90
0100
0001
1000
0000
1000
0001
0010
0100
0010
0001
0100
0000
0110
0000
0100
0001
,  // measure 91
1000
0000
0000
0001
0000
0000
1000
0000
0100
0000
1000
0000
0100
0000
0000
0000
0000
0000
1000
0000
0000
0000
0000
0000
0010
0000
0000
0100
0000
0000
0010
0000
0000
0000
0000
0000
0100
0000
0000
0001
0000
0000
0100
0000
0000
0000
0000
0000
,  // measure 92
0001
0000
0000
0010
0000
0000
0001
0000
0000
0000
0000
0000
0010
0000
0100
0000
0010
0000
0100
0000
0000
1000
0000
0000
0001
0000
0000
0000
0000
0000
0200
0000
0000
0300
0000
0000
2000
0000
0000
3000
0000
0000
0200
0000
0000
0320
0000
0000
,  // measure 93
2030
3000
0002
0003
0020
0030
0100
0000
1000
0100
0010
0001
1000
0100
0010
0001
,  // measure 94
1000
0100
0010
0001
1000
0100
0010
0001
1000
0100
0010
0001
1000
0100
0010
0001
,  // measure 95
1000
0001
0100
0010
1000
0001
1000
0100
0010
0001
1000
0100
0010
0001
1000
0100
,  // measure 96
0010
0001
0010
0100
1000
0100
0010
0100
1000
0001
1000
0001
1000
0001
1000
0001
,  // measure 97
1000
0000
0000
0001
0000
0000
1000
0000
0000
0001
0000
0000
1000
0000
0001
0000
1000
0000
0001
0000
1000
0000
0001
0000
1000
0000
0000
0000
0000
0000
0000
0000
0000
0000
0000
0000
0000
0000
0000
0000
0000
0000
0000
0000
0000
0000
0000
0000
;
