#TITLE:Canzone di oggi;
#SUBTITLE:;
#ARTIST:Marlene Kuntz;
#TITLETRANSLIT:;
#SUBTITLETRANSLIT:;
#ARTISTTRANSLIT:;
#GENRE:;
#CREDIT:;
#MENUCOLOR:;
#METERTYPE:DDR;
#BANNER:Canzone di oggi.png;
#BACKGROUND:Canzone di oggi-bg.png;
#LYRICSPATH:;
#CDTITLE:./CDTITLES/.PNG;
#MUSIC:Canzone di oggi.ogg;
#OFFSET:0.000;
#SAMPLESTART:39.701;
#SAMPLELENGTH:15.000;
#SELECTABLE:YES;
#LISTSORT:;
#DISPLAYBPM:198.000;
#BPMS:0.000=198.000;
#STOPS:;
#BGCHANGES:0.000=Canzone di oggi.avi=1.000=0=0=0,
99999=-nosongbg-=1.000=0=0=0 // don't automatically add -songbackground-
;
#ATTACKS:;

//---------------dance-single - ----------------
#NOTES:
     dance-single:
     :
     Beginner:
     3:
     0.126,0.187,0.042,0.000,0.000:
0000
0000
0000
0000
,
0000
0000
0000
0000
,
0000
0000
0000
0000
,
0000
0000
0000
0000
,
0000
0000
0000
0000
,
0001
0000
0000
0000
,
0001
0000
0000
0000
,
1000
0000
0000
0000
,
1000
0000
0000
0000
,
0010
0000
0010
0000
,
0010
0000
0000
0000
,
0100
0000
0100
0000
,
0100
0000
0000
0000
,
0001
0000
0000
0000
,
1000
0000
0000
0000
,
0001
0000
0000
0000
,
0010
0000
0000
0000
,
0100
0000
0100
0000
,
0100
0000
0000
0000
,
0010
0000
0010
0000
,
0010
0000
0000
0000
,
0001
0000
0000
0000
,
1000
0000
0000
0000
,
0010
0000
0000
0000
,
0100
0000
0000
0000
,
0010
0000
0000
0000
,
1000
0000
0000
0000
,
0100
0000
0100
0000
,
0100
0000
0000
0000
,
0010
0000
0010
0000
,
0010
0000
0000
0000
,
0001
0000
0001
0000
,
0001
0000
0000
0000
,
1000
0000
0000
0000
,
0000
0000
0000
0000
,
0010
0000
0000
0000
,
0000
0000
0000
0000
,
0100
0000
0000
0000
,
0100
0000
0000
0000
,
0010
0000
0000
0000
,
0010
0000
0010
0000
,
0010
0000
0000
0000
,
0100
0000
0100
0000
,
0100
0000
0000
0000
,
0001
0000
0000
0000
,
1000
0000
0000
0000
,
0001
0000
0001
0000
,
0001
0000
0000
0000
,
0010
0000
0000
0000
,
1001
0000
0000
0000
,
1000
0000
0000
0000
,
0001
0000
0000
0000
,
1000
0000
0000
0000
,
0001
0000
0000
0000
,
0100
0000
0000
0000
,
0010
0000
0000
0000
,
1000
0000
0000
0000
,
0001
0000
0000
0000
,
0010
0000
0000
0000
,
0010
0000
0000
0000
,
0100
0000
0000
0000
,
0100
0000
0000
0000
,
1000
0000
0000
0000
,
1000
0000
0000
0000
,
0010
0000
0000
0000
,
0100
0000
0100
0000
,
0100
0000
0000
0000
,
0010
0000
0010
0000
,
0010
0000
0000
0000
,
1000
0000
1000
0000
,
1000
0000
0000
0000
,
0001
0000
0001
0000
,
0001
0000
0000
0000
,
1000
0000
0000
0000
,
0001
0000
0000
0000
,
1000
0000
1000
0000
,
1000
0000
0000
0000
,
0001
0000
0000
0000
,
1000
0000
0000
0000
,
0001
0000
0001
0000
,
0001
0000
0000
0000
,
0010
0000
0000
0000
,
0110
0000
0000
0000
,
0100
0000
0000
0000
,
0110
0000
0000
0000
,
1000
0000
0000
0000
,
1001
0000
0000
0000
,
0001
0000
1000
0000
,
0001
0000
0000
0000
,
1001
0000
0000
0000
;

//---------------dance-single - ----------------
#NOTES:
     dance-single:
     :
     Easy:
     6:
     0.301,0.356,0.042,0.126,0.000:
0000
0000
0000
0000
,
0000
0000
0000
0000
,
0000
0000
0000
0000
,
0000
0000
0000
0000
,
0000
0000
0000
0000
,
0010
0000
0000
0000
,
0100
0000
0000
0000
,
0001
0000
0000
0000
,
1000
0000
0000
0000
,
0001
0000
0010
0000
,
0001
1000
0001
0000
,
1000
0000
0010
0000
,
1000
0001
1000
0000
,
0001
0000
0100
0000
,
0001
1000
0100
0000
,
0010
0000
0100
0000
,
1000
0100
0010
0000
,
0002
0000
0100
0000
,
0100
0000
0000
0003
,
2000
0000
0100
0000
,
0100
0000
0000
3000
,
0010
0000
1000
0000
,
0001
0010
0001
0000
,
0010
0000
0001
0000
,
1000
0010
1000
0000
,
0001
0000
0100
0000
,
0010
1000
0100
0000
,
1000
0000
0100
0000
,
0010
0001
0100
0000
,
0020
0000
0100
0000
,
0001
0000
0000
0030
,
2000
0000
0100
0000
,
0010
0000
0000
3000
,
0001
1000
0001
0000
,
0100
0100
0100
0000
,
0010
1000
0001
0000
,
1000
1000
1000
0000
,
0001
0010
0001
0000
,
1000
0100
1000
0000
,
0001
0001
0001
0000
,
1000
1000
1000
0010
,
0100
0100
0100
0000
,
0010
0010
0010
1000
,
0001
0010
0001
0000
,
1000
0100
1000
0000
,
0001
1000
0100
0000
,
1000
0001
0010
0000
,
0001
0100
1000
0010
,
0002
0000
0000
0003
,
2000
0100
0000
0100
,
0000
0010
0000
3010
,
0002
0100
0000
0100
,
0000
0010
0000
0013
,
2000
0100
0000
0001
,
0000
0010
0000
3001
,
0200
0010
0000
1000
,
0000
0001
0000
0310
,
0010
0100
0000
0010
,
1000
0010
0000
0100
,
0001
0100
0000
0010
,
1000
0001
0000
0010
,
0001
1000
0000
0001
,
0010
0100
0000
1000
,
0010
0100
0000
0010
,
1000
0100
0010
0001
,
1000
1000
0100
0100
,
0010
0000
0001
0000
,
0001
0001
0100
0100
,
0010
0000
1000
0000
,
0010
0010
1000
1000
,
0001
0000
0100
0000
,
0001
0001
0010
0010
,
0100
0000
1000
0000
,
0001
0100
0001
0010
,
0001
0100
0001
0010
,
0001
0010
0100
1000
,
0001
0010
0100
1000
,
0010
1000
0001
0100
,
0010
1000
0001
0100
,
0010
0010
1000
1000
,
0001
0001
0100
0100
,
0010
0000
0000
0100
0000
0000
0210
0000
,
0000
0001
0001
0301
,
0010
0000
0000
0100
0000
0000
2100
0000
,
0000
0001
0001
3001
,
0100
0000
0000
0010
0000
0000
0012
0000
,
0000
1000
1000
1003
,
0100
0000
0000
0010
0000
0000
2010
0000
,
0000
0001
0001
3001
,
2002
0000
0000
0000
,
0000
0000
0000
0000
,
0000
0000
0000
0000
,
0000
0000
0000
0000
,
0000
0000
0000
0000
,
3003
0000
0000
0000
;

//---------------dance-single - ----------------
#NOTES:
     dance-single:
     :
     Medium:
     8:
     0.443,0.514,0.109,0.320,0.000: // measure 1
0000
0000
0000
0000
,  // measure 2
0000
0000
0000
0000
,  // measure 3
0000
0000
0000
0000
,  // measure 4
0000
0000
0000
0000
,  // measure 5
0000
0000
0000
0000
,  // measure 6
0010
0000
0100
0010
0000
0010
0000
0000
,  // measure 7
1000
0000
0001
1000
0000
1000
0000
0000
,  // measure 8
0100
0000
0010
0100
0000
0100
0000
0000
,  // measure 9
0010
0000
0001
0010
0000
0001
0000
0000
,  // measure 10
1000
0100
1000
0100
,  // measure 11
0010
0001
0010
0001
,  // measure 12
1000
0010
1000
0010
,  // measure 13
0100
0001
1000
0001
,  // measure 14
0100
0010
0100
0010
,  // measure 15
1000
0100
0010
0001
,  // measure 16
2000
0000
0000
3020
0000
0000
0230
0000
,  // measure 17
0302
0000
0000
0023
0000
0000
0230
0000
,  // measure 18
1300
0000
1000
0100
0000
0100
2000
0000
,  // measure 19
0001
0010
0100
3001
,  // measure 20
0020
0001
1000
0031
,  // measure 21
0200
0010
1000
0301
,  // measure 22
1000
0000
0001
0100
0000
0001
1000
0000
,  // measure 23
0001
0000
0010
0001
0000
1000
0001
0000
,  // measure 24
1000
0000
0100
0010
0000
0100
1000
0000
,  // measure 25
0001
0000
0100
0010
0000
0100
0001
0000
,  // measure 26
1000
0000
0010
1000
0000
0001
1000
0000
,  // measure 27
0001
0000
0010
0001
0000
1000
0001
0000
,  // measure 28
1000
0000
0100
2000
0000
0000
3010
0000
,  // measure 29
0100
0000
0001
0020
0000
0000
0031
0000
,  // measure 30
2000
0001
0010
3100
,  // measure 31
0220
0000
0000
0330
,  // measure 32
2000
0010
0100
3001
,  // measure 33
0200
0000
0000
0300
,  // measure 34
0002
0010
0100
1003
,  // measure 35
0100
0000
1000
0100
0000
0000
1000
0000
,  // measure 36
0020
0100
0001
1030
,  // measure 37
0010
0000
0100
0001
0000
0000
1000
0000
,  // measure 38
0001
0000
0010
0000
0100
0000
0000
1000
,  // measure 39
0001
0000
1000
0000
0010
0000
0000
1000
,  // measure 40
0001
0000
0100
0001
0000
0000
1000
0000
,  // measure 41
0001
0000
0010
0001
0000
0000
1000
0000
,  // measure 42
0010
0000
0000
0100
0000
0010
1000
0000
,  // measure 43
0001
0000
0010
0001
0000
0000
1000
0000
,  // measure 44
0200
1000
0010
1300
,  // measure 45
0002
0010
1000
0103
,  // measure 46
2000
0100
0001
3010
,  // measure 47
0002
0010
1000
0103
,  // measure 48
1001
0000
0010
0100
0000
0100
0010
0000
,  // measure 49
0220
0000
0000
0330
,  // measure 50
2000
0100
0000
0010
,  // measure 51
0000
0001
0000
3100
,  // measure 52
0002
0100
0000
0010
,  // measure 53
0000
1000
0000
0103
,  // measure 54
0020
0100
0000
0001
,  // measure 55
0000
1000
0000
0031
,  // measure 56
0200
0010
0000
1000
,  // measure 57
0000
0001
0000
1300
,  // measure 58
0001
0010
0100
1000
,  // measure 59
0001
0010
0100
1000
,  // measure 60
0001
0010
0100
0010
,  // measure 61
0001
0000
0100
0001
0100
0000
0001
0000
,  // measure 62
1000
0010
0100
0001
,  // measure 63
1000
0010
0100
0001
,  // measure 64
1000
0100
0010
0001
,  // measure 65
1000
0000
0100
1000
0100
0000
1000
0000
,  // measure 66
0001
0000
1000
0001
0000
0001
2000
0000
,  // measure 67
0000
0000
3001
0000
0100
0001
0100
0000
,  // measure 68
0010
0000
0010
0200
0000
0000
0000
0000
,  // measure 69
0001
0000
0000
1000
0000
0000
0301
0000
,  // measure 70
0001
0000
0001
0010
0000
0010
0002
0000
,  // measure 71
0000
0000
1003
0000
0100
1000
0100
0000
,  // measure 72
1000
0000
0010
2000
0000
0000
0000
0000
,  // measure 73
0001
0000
0000
0010
0000
0000
3001
0000
,  // measure 74
1001
0010
0001
0010
,  // measure 75
1000
0010
1000
0010
,  // measure 76
0001
0100
0001
0100
,  // measure 77
1000
0100
1000
0100
,  // measure 78
0001
0010
0100
1000
,  // measure 79
0001
0010
0100
1000
,  // measure 80
0001
0010
1000
0100
,  // measure 81
0001
0010
1000
0100
,  // measure 82
1001
0000
0100
0010
0000
0000
2001
0000
,  // measure 83
0000
0010
0100
3001
,  // measure 84
1001
0000
0100
0010
0000
0000
0120
0000
,  // measure 85
0000
1000
0001
1030
,  // measure 86
0101
0000
0010
1000
0000
0000
2100
0000
,  // measure 87
0000
0010
0001
3010
,  // measure 88
1100
0000
0010
0001
0000
0000
0102
0000
,  // measure 89
0000
0010
1000
0103
,  // measure 90
2002
0000
0000
0000
,  // measure 91
0000
0000
0000
0000
,  // measure 92
0000
0000
0000
0000
,  // measure 93
0000
0000
0000
0000
,  // measure 94
0000
0000
0000
0000
,  // measure 95
3003
0000
0000
0000
;

//---------------dance-single - ----------------
#NOTES:
     dance-single:
     :
     Hard:
     12:
     0.601,0.593,0.168,0.404,0.000: // measure 1
0000
0000
0000
0000
,  // measure 2
0000
0000
0000
0000
,  // measure 3
0000
0000
0000
0000
,  // measure 4
0000
0000
0000
0000
,  // measure 5
0000
0000
0000
0000
,  // measure 6
0110
0000
0001
0010
0000
0100
1000
0001
,  // measure 7
0100
0000
0010
1000
0000
0100
0010
0001
,  // measure 8
1000
0000
0001
0010
0000
0100
1000
0001
,  // measure 9
0100
0000
0010
2000
0000
3001
0010
0100
,  // measure 10
0010
0000
0001
0010
0000
0010
0001
0000
,  // measure 11
1000
0000
0010
1000
0000
1000
0010
0100
,  // measure 12
0001
0000
0010
0100
0000
0100
0010
0000
,  // measure 13
0001
0000
1000
0100
0000
0100
1000
0001
,  // measure 14
0100
0000
0010
0100
0000
0100
0001
0000
,  // measure 15
0010
0000
0001
0010
0000
0010
0001
1000
,  // measure 16
0020
0000
0130
0002
0000
1003
0100
0000
,  // measure 17
0020
0000
0130
2000
0000
3001
0100
0000
,  // measure 18
0010
0000
0010
2000
0000
3010
0200
0000
,  // measure 19
0001
0010
1000
0310
,  // measure 20
0002
0000
0010
0000
1000
0000
0103
1000
,  // measure 21
0020
0100
0001
1030
,  // measure 22
1100
0000
0100
1000
0000
0010
0010
0010
,  // measure 23
1000
0000
0001
0100
0000
0001
0010
0000
,  // measure 24
0100
0000
0010
0001
0000
1000
1000
1000
,  // measure 25
0001
0000
0010
0100
0000
0010
0001
0000
,  // measure 26
1000
0000
0010
0100
0000
0001
0001
0001
,  // measure 27
0100
0000
0010
1000
0000
1000
0001
0000
,  // measure 28
2000
0000
3100
2000
0000
3100
0010
0000
,  // measure 29
0002
0000
0103
0002
0000
0103
0010
0000
,  // measure 30
0020
0000
1030
0020
0000
1030
0200
0000
,  // measure 31
0001
0010
1000
0301
,  // measure 32
2000
0000
0010
0000
0001
0000
3100
0001
,  // measure 33
0020
0100
1000
0031
,  // measure 34
2100
0000
3001
0100
0000
0100
0001
0000
,  // measure 35
0010
0000
0001
1000
0000
0001
0100
0000
,  // measure 36
0021
0000
0031
0010
0000
0001
1000
0000
,  // measure 37
1020
0000
1030
0020
0000
1030
0100
0000
,  // measure 38
1001
0000
1000
0001
0100
0000
0001
0000
,  // measure 39
1000
0000
0001
1000
0010
1000
0001
1000
,  // measure 40
1001
0000
0010
0100
0000
0100
0001
0001
,  // measure 41
1000
0000
0001
0010
0000
0100
1000
0000
,  // measure 42
1001
0000
0010
0100
0000
0010
1000
1000
,  // measure 43
0001
0000
0010
0001
0000
1000
0100
0010
,  // measure 44
0200
0000
1300
0000
0010
1000
0100
0000
,  // measure 45
2000
0000
3010
0100
0000
0001
0100
0000
,  // measure 46
0002
0000
0013
0001
0100
0000
0001
0000
,  // measure 47
0020
0000
0130
0020
0000
0031
1000
0000
,  // measure 48
1001
0000
0010
0100
0001
0000
1000
0000
,  // measure 49
2001
0000
0000
0000
0000
3001
1000
0001
,  // measure 50
1000
0100
0010
0001
,  // measure 51
1000
0100
0010
0001
,  // measure 52
1000
0010
0001
0100
,  // measure 53
1000
0010
0001
0100
,  // measure 54
1000
0010
0100
0001
,  // measure 55
1000
0010
0100
0001
,  // measure 56
1000
0100
0001
0010
,  // measure 57
1000
0100
0001
0010
,  // measure 58
1001
0010
0100
0000
0020
0000
0031
0000
,  // measure 59
1000
0010
0100
0000
0020
0000
1030
0000
,  // measure 60
0001
1000
0100
0000
2000
0000
3001
0000
,  // measure 61
1000
0000
0001
1000
0000
0001
0100
0000
,  // measure 62
0010
1000
0100
0000
0020
0000
0031
0000
,  // measure 63
0010
0001
0100
0000
0020
0000
1030
0000
,  // measure 64
0100
1000
0001
0000
2000
0000
3001
0000
,  // measure 65
0100
0000
0010
0100
0000
0100
0001
1000
,  // measure 66
0010
0000
1000
0200
0000
0310
0200
0000
,  // measure 67
0000
1300
0010
0000
0100
0001
1000
0000
,  // measure 68
0001
0010
0100
2000
0000
3010
0100
0000
,  // measure 69
0001
0000
0010
0001
0100
0000
0001
0000
,  // measure 70
1001
0000
0010
0002
0000
0103
0002
0000
,  // measure 71
0000
1003
0010
0000
0100
0001
1000
0000
,  // measure 72
0010
0100
1000
0100
0000
0100
0020
0000
,  // measure 73
0001
0100
1000
0130
,  // measure 74
1001
0010
0100
0000
1000
0010
0100
0000
,  // measure 75
0001
0010
0100
0000
1000
0010
0100
0000
,  // measure 76
0010
1000
0100
0000
0010
0001
0100
0000
,  // measure 77
0010
1000
0001
0000
0010
0001
1000
0001
,  // measure 78
0010
0000
0001
0100
0000
0010
2000
0000
,  // measure 79
0100
0000
0010
0000
3001
1000
0100
1000
,  // measure 80
0010
0000
0100
0001
0000
1000
0200
0000
,  // measure 81
0001
0000
0010
0000
1300
0001
0100
0001
,  // measure 82
1001
0000
0010
0100
0000
0100
0020
0000
,  // measure 83
1000
0000
0100
0000
1030
0001
1000
0000
,  // measure 84
1001
0000
0010
0100
0000
0100
0020
0000
,  // measure 85
0001
0000
0100
0000
0031
1000
0001
0000
,  // measure 86
1100
0000
0010
0001
0000
0001
2010
0000
,  // measure 87
0100
0000
0010
0000
3001
1000
0010
0000
,  // measure 88
0101
0000
0010
0001
0000
0001
0120
0000
,  // measure 89
1000
0000
0001
0000
1030
0100
0010
0000
,  // measure 90
0220
0000
0000
0000
,  // measure 91
0000
0000
0000
0000
,  // measure 92
0000
0000
0000
0000
,  // measure 93
0000
0000
0000
0000
,  // measure 94
0000
0000
0000
0000
,  // measure 95
0330
0000
0000
0000
;

//---------------dance-single - ----------------
#NOTES:
     dance-single:
     :
     Challenge:
     14:
     0.679,0.672,0.193,0.345,0.063: // measure 1
0000
0000
0000
0000
,  // measure 2
0000
0000
0000
0000
,  // measure 3
0000
0000
0000
0000
,  // measure 4
0000
0000
0000
0000
,  // measure 5
0000
0000
0000
0000
,  // measure 6
1010
0000
0000
0000
0001
0000
0100
0000
0000
0000
0001
0000
0010
0000
0100
0010
,  // measure 7
0001
0000
0000
0000
1000
0000
0100
0000
0000
0000
0100
0000
1000
0000
0001
1000
,  // measure 8
0001
0000
0000
0000
1000
0000
0010
0000
0000
0000
0100
0000
0001
0000
0010
0100
,  // measure 9
1000
0000
0010
0100
0000
0001
2000
0000
,  // measure 10
3010
0000
1000
0010
0001
0010
1000
0100
,  // measure 11
0001
0000
0100
1000
0000
1000
0001
0000
,  // measure 12
0100
0000
0001
0010
1000
0010
0001
0100
,  // measure 13
1000
0000
0100
0010
0000
0010
1000
0000
,  // measure 14
1001
0000
0010
0001
0100
0001
0010
1000
,  // measure 15
0010
0000
0100
1000
0000
0001
0010
0000
,  // measure 16
1000
0000
0010
0002
0000
1003
0001
0000
,  // measure 17
0100
0000
0001
0200
0000
1300
0001
0000
,  // measure 18
0110
0000
1000
0010
0000
0010
2000
0000
,  // measure 19
0100
0001
0010
3001
,  // measure 20
0020
0000
0001
0000
1000
0000
0031
0100
,  // measure 21
0001
0010
0100
1000
0001
0010
0100
1000
,  // measure 22
1001
0000
0010
0100
0000
1000
0010
0001
,  // measure 23
0010
0000
1000
0100
0000
0010
0100
1000
,  // measure 24
0001
0000
0010
0001
0000
1000
0100
0001
,  // measure 25
0100
0000
1000
0010
0000
0100
0001
1000
,  // measure 26
0001
0000
0010
0001
0000
0100
0001
0010
,  // measure 27
0001
0000
0100
1000
0000
0100
0010
0000
,  // measure 28
1000
0100
0010
0200
0000
1300
0001
0000
,  // measure 29
0001
0100
0010
0200
0000
0301
1000
0000
,  // measure 30
0011
0000
0001
0100
0000
0010
2000
0000
,  // measure 31
0100
0010
0001
3010
,  // measure 32
0001
0000
1001
0000
1001
0000
0001
0010
,  // measure 33
0001
0100
1000
0100
0001
0010
1000
0010
,  // measure 34
0002
0100
0010
1000
,  // measure 35
0103
0000
0010
0100
0000
0100
0001
0000
,  // measure 36
2000
0100
0010
0001
,  // measure 37
3100
0000
0010
0100
0000
0100
1000
0000
,  // measure 38
0001
0000
0000
0000
1000
0000
0001
0000
0000
0000
0100
0000
0001
0000
1000
0001
,  // measure 39
0010
0000
0000
0000
0001
0000
1000
0000
0000
0000
0100
0000
1000
0000
0010
0100
,  // measure 40
0001
0000
0100
0010
0000
0010
1000
1000
,  // measure 41
0001
0000
1000
0200
0000
0310
0100
0000
,  // measure 42
1000
0000
0010
0100
0000
0001
0010
0010
,  // measure 43
0001
0000
0100
0002
0000
1003
0001
0000
,  // measure 44
2000
0100
0010
0001
,  // measure 45
0100
0000
3010
0100
0000
0100
1000
0000
,  // measure 46
0002
0100
0010
1000
,  // measure 47
0010
0000
1003
0001
0000
0001
0010
0000
,  // measure 48
1001
0000
0000
0000
0010
0000
1000
0000
0000
0000
0001
0000
0100
0000
0001
1000
,  // measure 49
0002
0000
0000
0000
,  // measure 50
1003
0100
0010
0200
0000
1300
0001
0000
,  // measure 51
1000
0100
0010
0200
0000
1300
0001
0000
,  // measure 52
1000
0010
0001
0020
0000
1030
0001
0000
,  // measure 53
1000
0010
0001
0020
0000
1030
0001
0000
,  // measure 54
0001
0100
1000
0200
0000
0301
1000
0000
,  // measure 55
0001
0100
1000
0200
0000
0301
1000
0000
,  // measure 56
0001
0010
1000
0020
0000
0130
1000
0000
,  // measure 57
0001
0010
1000
0020
0000
0130
1000
0000
,  // measure 58
1001
0000
0100
0000
0010
0000
0000
0000
1000
0000
0100
0000
0010
0000
0100
1000
,  // measure 59
0001
0000
0100
0000
0010
0000
0000
0000
0100
0000
0001
0000
0010
0000
0001
1000
,  // measure 60
0100
0000
1000
0000
0001
0000
0000
0000
1000
0000
0010
0000
0100
0000
0010
1000
,  // measure 61
0100
0000
0001
0100
0010
0100
0001
0000
,  // measure 62
1001
0000
0010
0000
0100
0000
0000
0000
0010
0000
0001
0000
1000
0000
0100
1000
,  // measure 63
0001
0000
1000
0000
0010
0000
0000
0000
0100
0000
0001
0000
1000
0000
0010
1000
,  // measure 64
0001
0000
0010
0000
0001
0000
0000
0000
1000
0000
0100
0000
0010
0000
0001
0010
,  // measure 65
0100
1000
0001
0000
0100
0010
0100
0010
,  // measure 66
1000
0100
0010
0002
0000
1003
0020
0000
,  // measure 67
0000
0031
0020
0000
1030
0100
0001
0000
,  // measure 68
1100
0100
0010
0200
0000
0000
1300
0000
,  // measure 69
0001
0100
0001
0000
1000
0010
1000
0000
,  // measure 70
0101
0100
0010
0200
0000
0301
0020
0000
,  // measure 71
0000
0031
0020
0000
0031
0010
0100
0000
,  // measure 72
1000
0010
0100
0002
0000
1003
0200
0000
,  // measure 73
1000
0001
0010
0301
,  // measure 74
1001
0010
0100
1000
0100
0010
1001
0000
,  // measure 75
1000
0010
0001
0000
1000
0100
0001
0000
,  // measure 76
1001
0100
0010
0001
0010
0100
2000
0000
,  // measure 77
0100
0000
0100
0000
3010
0000
0001
0100
,  // measure 78
1010
0100
0001
0100
1000
0100
0010
0002
,  // measure 79
0010
0000
1000
0000
0100
0000
1003
0010
,  // measure 80
0101
0010
1000
0100
0010
0100
2000
0000
,  // measure 81
0100
0000
0010
0000
3001
1000
0001
0100
,  // measure 82
0001
1000
0010
1100
0000
0010
1002
0000
,  // measure 83
0010
0000
0000
0000
0010
0000
0000
0000
1003
0000
0001
0000
0100
0000
0001
1000
,  // measure 84
0010
0100
0001
0100
0010
1000
0012
0000
,  // measure 85
1000
0000
0000
0000
0100
0000
0000
0000
0013
0000
0100
0000
1000
0000
0100
1000
,  // measure 86
0010
1000
0100
0001
0010
0001
0120
0000
,  // measure 87
1000
0000
0000
0000
0001
0000
0000
0000
0130
0000
0001
0000
0100
0000
0010
1000
,  // measure 88
0001
0010
0001
0010
1000
0100
2010
0000
,  // measure 89
0001
0000
0100
0000
3001
1000
0100
1000
,  // measure 90
2002
0000
0000
0000
,  // measure 91
0000
0000
0000
0000
,  // measure 92
0000
0000
0000
0000
,  // measure 93
0000
0000
0000
0000
,  // measure 94
0000
0000
0000
0000
,  // measure 95
3003
0000
0000
0000
;
