#TITLE:Cansei de S NIK;
#SUBTITLE:;
#ARTIST:PRASTIK DANCEFLOOR;
#TITLETRANSLIT:;
#SUBTITLETRANSLIT:;
#ARTISTTRANSLIT:;
#GENRE:;
#CREDIT:;
#MENUCOLOR:;
#METERTYPE:DDR;
#BANNER:Cansei de S NIK.png;
#BACKGROUND:Cansei de S NIK-bg.png;
#LYRICSPATH:;
#CDTITLE:./CDTITLES/BEATMANIA IIDX.PNG;
#MUSIC:Cansei de S NIK.ogg;
#OFFSET:0.000;
#SAMPLESTART:59.562;
#SAMPLELENGTH:15.000;
#SELECTABLE:YES;
#LISTSORT:;
#BPMS:0.000=137.000;
#STOPS:;
#BGCHANGES:;
#ATTACKS:;

//---------------dance-single - t7r----------------
#NOTES:
     dance-single:
     t7r:
     Beginner:
     2:
     0.144,0.167,0.009,0.045,0.000:
0000
0000
0000
0000
,
0000
0000
0000
0000
,
0000
0000
0000
0000
,
0000
0000
0000
0000
,
0000
0000
0000
0000
,
0000
0000
0000
0000
,
0001
0000
0001
0000
,
1000
0000
1000
0000
,
0010
0000
0000
0000
,
0200
0000
0300
0000
,
0000
0010
0010
0000
,
0010
0000
0010
0000
,
0000
1000
1000
0000
,
1000
0000
1000
0000
,
0000
0001
0001
0000
,
0001
0000
0001
0000
,
0000
0100
0100
0000
,
0100
0000
0100
0000
,
0010
0000
0010
0000
,
1000
0000
1000
0000
,
0001
0000
0001
0000
,
0100
0000
0100
0000
,
0001
0000
0001
0000
,
0010
0000
0010
0000
,
0100
0000
0100
0000
,
1000
0000
1000
0000
,
1001
0000
0000
0000
,
0010
0010
0010
0000
,
1000
0000
0000
0000
,
0001
0001
0001
0000
,
0100
0000
0000
0000
,
0010
0010
0010
0000
,
1000
0000
0100
0000
,
0010
0000
0000
0000
,
0100
0000
0100
0000
,
0100
0100
0100
0000
,
0010
0000
0010
0000
,
0010
0010
0010
0000
,
0001
0000
0001
0000
,
0001
0001
0001
0000
,
1000
0000
1000
0000
,
1000
1000
1000
0000
,
0000
0010
0000
0010
,
0000
0010
0010
0000
,
0000
0100
0000
0100
,
0000
0100
0100
0000
,
0000
0001
0000
0001
,
0000
0001
0001
0000
,
0000
1000
0000
1000
,
1000
0000
1000
0000
,
0001
0000
0001
0000
,
1000
0000
1000
0000
,
0010
0000
0010
0000
,
0100
0000
0100
0000
,
0001
0000
0000
0000
,
1000
0000
0000
0000
,
0100
0000
0000
0000
,
0010
0000
0000
0000
,
0200
0000
0300
0000
,
0020
0000
0030
0000
,
0002
0000
0003
0000
,
2000
0000
3001
0000
;

//---------------dance-single - t7r----------------
#NOTES:
     dance-single:
     t7r:
     Easy:
     5:
     0.262,0.279,0.045,0.235,0.000:
0000
0000
0000
0000
,
0000
0000
0000
0000
,
0000
0000
0000
0000
,
0000
0000
0000
0000
,
0000
0000
0000
0000
,
0000
0000
0000
0000
,
0001
0001
0001
0001
,
1000
1000
1000
1000
,
0100
0010
0100
1000
,
0020
0000
0000
0030
,
0000
0100
0100
0100
,
0200
0000
0301
0000
,
0000
0001
0001
0001
,
0002
0000
1003
0000
,
0000
1000
1000
1000
,
2000
0000
3100
0000
,
0000
0100
0100
0100
,
0020
0000
0031
1000
,
0001
0100
0001
0001
,
1000
1000
0001
0000
,
1000
0100
1000
1000
,
0001
1000
0001
0000
,
0010
0100
0010
0010
,
0001
0100
0010
0000
,
1000
0010
0100
0100
,
0010
1000
0100
0000
,
0210
0000
0301
0000
,
0200
0000
0310
0000
,
2000
0000
3010
0000
,
2000
0000
3100
0000
,
0120
0000
0031
0000
,
0020
0000
0130
0000
,
0002
0000
0103
0000
,
0002
0000
2000
3003
,
0001
0001
0100
0100
,
0010
0010
2000
3000
,
1000
1000
0100
0100
,
0010
0010
0002
0003
,
1000
1000
0010
0010
,
0100
0100
0002
0003
,
0001
0001
0010
0010
,
0100
0100
2000
3000
,
0001
1000
0001
1000
,
0010
0100
0020
0030
,
1000
0001
1000
0001
,
0100
0010
0200
0300
,
0001
0010
0001
0010
,
0100
1000
0200
0300
,
1000
0010
1000
0010
,
0100
0001
1000
1001
,
0001
0001
0010
0010
,
0001
0000
0001
0000
1000
1000
1000
0000
,
1000
1000
0010
0010
,
0100
0000
0100
0000
0001
0001
0001
0000
,
0010
0010
0000
0010
,
0000
0100
0000
0100
,
0000
1000
0000
1000
,
0001
0000
2002
3003
,
0010
0000
0200
0000
,
0301
0000
0020
0000
,
0130
0000
2000
0000
,
3001
1000
0001
0110
;

//---------------dance-single - t7r----------------
#NOTES:
     dance-single:
     t7r:
     Medium:
     8:
     0.406,0.447,0.235,0.126,0.158:
0000
0000
0000
0000
,
0000
0000
0000
0000
,
0000
0000
0000
0000
,
0000
0000
0000
0000
,
0000
0000
0000
0000
,
0000
0000
0000
0000
,
0010
0010
0010
0000
1000
1000
1000
0000
,
0001
0001
0001
0000
0100
0100
0100
0000
,
0001
1000
0001
0110
,
0020
0000
0000
0030
,
0000
0100
0100
0000
0100
0000
0100
0000
,
0020
0000
0030
0000
1000
1000
1000
0000
,
0000
0001
0001
0000
0001
0000
0010
0000
,
0020
0000
0030
0000
0100
0100
0100
0000
,
0000
1000
0001
0000
1000
0000
0001
0000
,
0200
0000
0300
0000
0010
0010
0010
0000
,
0000
0100
0001
0000
1000
0000
0100
0000
,
0020
0030
0100
1100
,
0010
0000
0000
0000
0001
0000
0000
0000
0010
0000
0000
0001
0000
0000
1000
0000
,
0001
0000
0100
0000
0010
0010
0010
0000
,
1000
0000
0000
0000
0010
0000
0000
0000
1000
0000
0000
0001
0000
0000
1000
0000
,
0100
0000
0010
0000
0100
1000
0002
0000
,
1003
0000
0000
0000
0010
0000
0000
0000
0100
0000
0000
0001
0000
0000
1000
0000
,
0001
0000
0010
0000
0100
0100
0100
0000
,
0010
0000
0000
0000
0001
0000
0000
0000
1000
0000
0000
0001
0000
0000
0100
0000
,
0010
0000
1000
0000
0010
0100
0002
0000
,
0013
0000
0100
1000
0000
0000
1001
0000
,
0010
0000
0100
0001
0000
0000
0110
0000
,
0010
0000
0100
0010
0000
0000
0011
0000
,
1000
0000
0100
1000
0100
0100
0100
0000
,
0010
0000
0100
1000
0000
0000
1010
0000
,
0100
0000
0001
0010
0000
0000
0110
0000
,
0010
0000
0001
1000
0000
0000
0110
0000
,
0010
0010
0100
0001
0001
1000
0002
0000
,
1003
0000
0000
0010
0000
0000
0010
0000
1000
0000
0000
0100
0000
0000
0100
0000
,
1000
0000
0000
0010
0000
0000
0010
0000
0100
0000
0001
0000
1001
0000
0000
0000
,
0001
0000
0000
0010
0000
0000
0010
0000
0001
0000
0000
0100
0000
0000
0100
0000
,
0001
0000
0000
0010
0000
0000
0010
0000
0001
0000
1000
0000
1001
0000
0000
0000
,
0100
0000
0000
0010
0000
0000
0100
0000
1000
0000
0000
0100
0000
0000
0001
0000
,
0100
0000
0000
0001
0000
0000
0010
0000
1000
0000
0010
0000
0110
0000
0000
0000
,
0010
0000
0000
1000
0000
0000
0010
0000
0001
0000
0000
1000
0000
0000
0001
0000
,
0010
0000
0000
0100
0000
0000
0010
0000
0001
0000
1000
0000
1001
0000
0000
0000
,
0010
0000
0000
0110
0000
0000
0001
0000
1000
0000
0000
1001
0000
0000
1000
0000
,
0100
0000
0000
0110
0000
0000
0100
0000
1000
0000
0001
0000
1000
0000
0000
0000
,
0010
0000
0000
1010
0000
0000
1000
0000
0010
0000
0000
0110
0000
0000
0100
0000
,
0001
0000
0000
0101
0000
0000
0001
0000
0010
0000
0100
0000
1000
0000
0000
0000
,
0001
0000
0000
0011
0000
0000
1000
0000
0100
0000
0000
1100
0000
0000
1000
0000
,
0010
0000
0000
0110
0000
0000
0100
0000
0001
0000
1000
0000
0001
0000
0000
0000
,
0010
0000
0000
0010
0000
0000
0001
0000
1000
0000
0000
0010
0000
0000
1000
0000
,
0100
0000
0000
0010
0000
0000
0001
0000
0100
0000
0010
0000
2000
0000
0000
0000
,
3001
0000
0000
0000
0101
0000
0000
0000
0001
0000
0000
0100
0000
0000
0001
0000
,
1000
0000
1100
0000
1000
1000
1000
0000
,
0010
0000
0000
0000
0110
0000
0000
0000
0010
0000
0000
0001
0000
0000
1000
0000
,
0010
0000
0110
0000
0100
0100
0100
0000
,
0001
0000
0000
0000
1000
0000
0000
0000
0001
0000
0000
0010
0000
0000
0100
0000
,
1000
0000
0010
0000
0100
0100
0100
0000
,
0010
0000
0000
0000
1000
0000
0000
0000
0001
0000
0000
1000
0000
0000
0100
0000
,
1000
0001
0100
0000
0220
0000
0330
0000
,
0020
0000
1000
1030
,
0002
0000
0100
1003
,
2000
0000
0100
3001
,
0010
0000
0000
0000
0000
0000
0000
0000
0000
0100
0000
0000
0000
0000
0000
0000
0000
0000
0001
0000
0000
0000
0000
0000
1000
0000
0000
0000
0000
0000
0000
0000
0100
0000
0000
0000
0000
0000
0000
0000
0010
0000
0000
0000
0000
0000
0000
0000
;

//---------------dance-single - t7r----------------
#NOTES:
     dance-single:
     t7r:
     Hard:
     10:
     0.537,0.502,0.343,0.153,0.230:
0000
0000
0000
0000
,
0000
0000
0000
0000
,
0000
0000
0000
0000
,
0000
0000
0000
0000
,
0000
0000
0000
0000
,
0000
0000
0000
0000
,
0001
0001
0010
0010
0100
0100
1000
1000
,
0001
0001
0010
0010
0100
0100
1000
1000
,
0001
0000
0100
0000
0001
0000
1000
0000
0100
1000
0000
0000
1001
0000
0000
0000
,
0020
0000
0000
0030
,
0100
0001
0001
0000
2000
0000
3001
0000
,
0200
0000
0300
0010
0100
0100
0001
0001
,
0000
0010
0100
0100
0020
0000
0031
0000
,
0200
0000
0300
0010
0100
0100
0010
0100
,
0001
1000
0100
0100
2000
0000
3001
0000
,
0020
0000
0030
0001
1000
1000
0001
1000
,
0000
0010
0100
0100
0002
0000
0103
0000
,
0020
0000
0030
0100
0110
0000
1001
0000
,
1100
0000
0000
0000
0101
0000
0000
0000
0100
0000
0000
0001
0100
0000
0001
0000
,
0100
0000
1100
0000
0001
0100
0101
0000
,
1100
0000
0000
0000
0101
0000
0000
0000
0100
0000
0000
0001
0100
0000
0001
0000
,
0100
0000
0101
0000
0001
0010
0012
0000
,
1003
0000
0000
0000
1010
0000
0000
0000
0011
0000
0000
1000
0100
0000
1000
0000
,
0001
0000
0011
0000
1000
0010
0011
0000
,
1000
0000
0000
0000
1010
0000
0000
0000
0011
0000
0000
1000
0100
0000
1000
0000
,
0001
1000
1000
0001
0100
0100
0120
0000
,
2030
0000
3010
1000
0000
1000
0001
0100
,
0001
0010
0010
0010
0001
0000
0001
0100
,
0002
0000
0003
1000
0100
0000
1001
0000
,
0110
0000
0001
1000
0100
1000
0001
0000
,
1001
0000
0000
0000
0000
0000
1000
0000
0000
0100
0000
0000
0000
0000
0000
0100
0000
0000
0010
0000
0001
0000
0010
0000
,
0001
0100
0100
0100
0110
0000
0010
1000
,
0002
0000
1003
0001
1000
0000
1001
0000
,
0100
0100
0110
0010
0010
0110
0002
0000
,
1003
0000
0010
0100
0000
0000
0010
0000
1000
0000
0010
0100
0000
0000
0010
0000
,
1000
0000
0001
0010
0000
0000
0001
0000
1000
0000
0001
0000
0100
0000
0000
0000
,
0001
0000
0010
0100
0000
0000
0010
0000
0001
0000
0010
0100
0000
0000
0010
0000
,
0001
0000
1000
0010
0000
0000
0100
0000
0010
0000
1000
0000
0001
0000
0000
0000
,
1000
0000
0100
0001
0000
0000
0100
0000
1000
0000
0100
0001
0000
0000
0100
0000
,
1000
0000
0010
0001
0000
0000
0010
0000
1000
0000
0001
0000
0100
0000
0000
0000
,
0001
0000
0010
1000
0000
0000
0010
0000
0001
0000
0010
1000
0000
0000
0010
0000
,
0001
0000
1000
0001
0000
0000
0100
0000
0010
0000
1000
0000
0001
0000
0000
0000
,
0100
0000
0000
0001
0100
0000
0001
0000
1000
0000
0000
0001
0100
0000
0001
0000
,
0010
0000
0000
0001
0100
0000
0001
0000
1000
0000
0100
0000
0000
0000
1100
0000
,
0010
0000
0000
0100
1000
0000
0100
0000
0010
0000
0000
0100
1000
0000
0001
0000
,
0100
0000
0000
0010
0100
0000
0001
0000
1000
0000
0001
0000
0000
0000
0101
0000
,
0010
0000
0000
1000
0100
0000
0001
0000
0100
0000
0000
0001
0010
0000
1000
0000
,
0010
0000
0000
0001
0100
0000
1000
0000
0100
0000
0010
0000
0000
0000
1001
0000
,
0100
0000
0000
0010
0100
0000
0010
0000
1000
0000
0000
0001
0010
0000
0001
0000
,
0100
0000
0000
0001
1000
0000
0001
0000
0100
0000
0000
0000
2001
0000
0000
0000
,
3010
0000
0000
0000
0110
0000
0000
0000
0010
0000
0000
0010
0100
0000
0001
0000
,
1000
0000
1100
0000
0001
0100
0101
0001
,
1000
0000
0000
0000
1010
0000
0000
0000
0001
0000
0000
0001
0010
0000
0001
0000
,
0100
0000
0110
0000
0001
1000
1100
0100
,
0010
0000
0000
0000
0100
0000
0000
0000
1000
0000
0000
0010
1000
0000
0001
0000
,
0100
0000
0001
0000
1000
0001
0010
0010
,
0100
0000
0000
0000
0010
0000
0000
0000
0100
0000
0000
1000
0001
0000
0100
0000
,
0001
1000
1000
0001
0100
0100
0020
0000
,
1030
0000
0000
0000
0000
0000
0000
0000
0000
0100
0000
0000
1000
0000
0100
0000
1000
0000
0001
0000
1000
0000
0001
0000
,
1000
0000
0000
0000
0000
0000
0000
0000
0000
0010
0000
0000
0000
0000
0000
0000
0000
0000
0100
0000
0000
0000
0000
0000
0010
0000
0000
0000
0100
0000
0000
0000
0010
0000
0000
0000
0100
0000
0000
0000
0010
0000
0000
0000
0100
0000
0000
0000
,
0001
0000
0000
0000
0000
0000
0000
0000
0000
1000
0000
0000
0100
0000
1000
0000
0001
0000
1000
0000
0001
0000
1000
0000
,
0100
0000
0000
0000
0000
0000
0000
0000
0000
0110
0000
0000
0000
0000
0000
0000
0000
0000
0001
0000
0000
0000
0000
0000
1000
0000
0000
0000
0000
0000
0000
0000
1001
0000
0000
0000
0000
0000
0000
0000
1100
0000
0000
0000
0000
0000
0000
0000
;

//---------------dance-single - t7r----------------
#NOTES:
     dance-single:
     t7r:
     Challenge:
     15:
     0.762,0.726,0.172,0.217,0.844: // measure 1
0000
0000
0000
0000
,  // measure 2
0000
0000
0000
0000
,  // measure 3
0000
0000
0000
0000
,  // measure 4
0000
0000
0000
0000
,  // measure 5
0000
0000
0000
0000
,  // measure 6
0000
0000
0000
0000
,  // measure 7
0010
0000
0100
0001
0100
0000
0001
0000
1000
0001
1000
0000
0001
0000
0010
0000
,  // measure 8
0001
0000
1000
0100
1000
0000
0001
0000
0100
0010
0100
0000
0010
1000
0001
1000
,  // measure 9
0100
0000
0010
0100
1000
0100
0010
0000
0001
0100
0000
0000
0110
0000
0000
0000
,  // measure 10
0020
0000
0000
0000
0000
0000
1030
0001
1000
0000
1000
0000
0001
0000
0001
0000
,  // measure 11
1000
0000
0100
0010
0001
0000
0100
0000
0200
0000
0000
0000
0320
0000
0000
1030
,  // measure 12
0002
0000
0000
1003
0010
0010
0100
0001
,  // measure 13
1000
0000
0001
0100
0010
0000
0010
0000
0200
0000
0000
0000
0302
0000
0000
1003
,  // measure 14
0020
0000
0000
0000
0000
0000
0130
0001
1000
0000
1000
0000
0100
0000
0100
0000
,  // measure 15
1000
0000
0010
0100
0001
0000
1000
0000
0001
0000
0010
0100
1000
0000
0001
0000
,  // measure 16
1000
0000
0100
0010
0001
0000
1000
0000
0001
0000
0010
0100
1000
0000
0001
0000
,  // measure 17
1000
0010
1000
0010
0100
0000
0001
0000
1000
0100
1000
0100
0010
0000
0001
0000
,  // measure 18
1000
0000
0001
1000
0010
0000
0100
0001
1000
0000
0000
0000
0110
0000
0000
0000
,  // measure 19
1010
0000
0001
0100
0001
0000
1000
0100
0010
0000
0100
1000
0000
0001
1000
0000
,  // measure 20
0010
0000
0100
0001
0100
0000
0001
1000
0010
0000
0010
0000
0200
0000
0010
0000
,  // measure 21
0310
0000
1000
0100
1000
0000
0001
0010
0100
0000
0010
0001
0000
1000
0001
0000
,  // measure 22
0100
0000
0001
1000
0100
0000
1000
0001
1000
0010
0100
0001
2000
0000
0100
0000
,  // measure 23
3001
0000
0010
0100
1000
0000
0100
0010
0001
0000
0100
0010
0000
0100
0001
0000
,  // measure 24
0100
0000
0010
1000
0100
0000
0010
0001
0100
0000
0100
0000
0020
0000
0001
0000
,  // measure 25
1030
0000
0001
1000
0010
0000
1000
0001
0100
0000
0001
0010
0000
0001
1000
0000
,  // measure 26
0001
1000
0001
1000
0100
0000
1000
0100
0010
0000
0001
0010
0100
1000
0001
1000
,  // measure 27
0002
0000
0000
0000
0103
0000
0010
0000
1010
0000
0100
0000
0001
0000
1000
0001
,  // measure 28
0100
0000
0000
0000
0000
0000
0001
0000
0000
0010
0000
0000
0001
0000
0000
1000
0000
0000
0001
0000
0000
0010
0000
0000
0001
0000
0000
0000
0010
0000
0000
0000
0100
0000
0000
0000
1000
0000
0000
0000
0010
0000
0000
0000
0100
0000
0000
0000
,  // measure 29
0020
0000
0000
0000
0130
0000
0010
1000
0010
0000
0100
0000
0001
0000
1000
0001
,  // measure 30
0100
0000
0000
0000
0000
0000
0010
0000
0000
0100
0000
0000
0000
0000
0000
0001
0000
0000
0100
0000
0000
0000
0000
0000
0001
0000
0000
0000
0010
0000
0000
0000
0100
0000
0000
0000
1000
0000
0000
0010
0000
0000
1000
0000
0000
0001
0000
0000
,  // measure 31
2000
0000
0000
0000
0000
0000
3100
0000
0000
0010
0000
0000
0011
0000
0000
0001
0000
0000
1000
0000
0010
0000
0100
0000
,  // measure 32
0001
0000
1000
0010
1000
0001
1000
0100
1000
0100
0010
0001
0010
0100
1000
0100
,  // measure 33
0020
0000
0000
0000
0031
0000
0100
0000
0001
1000
0100
1000
0001
1000
0010
0000
,  // measure 34
0110
0110
0001
0110
0110
1000
1020
0000
,  // measure 35
1030
0000
0100
0010
0000
0100
1000
0000
0001
0000
0100
0010
0000
0100
0001
0000
,  // measure 36
1000
0000
0010
1000
0000
0001
1000
0000
0001
0000
0010
0001
0200
0000
0000
0000
,  // measure 37
0301
0000
0010
0100
0000
0010
0001
0000
1000
0000
0010
0100
0000
0010
1000
0000
,  // measure 38
0001
0000
0100
0001
0000
1000
0100
0000
1000
0000
0001
1000
0020
0000
0000
0000
,  // measure 39
1030
0000
0100
0001
0000
0100
1000
0000
0001
0000
1000
0010
0000
0001
0010
0000
,  // measure 40
1000
0000
0100
0001
0000
0100
1000
0000
0010
0000
0100
0001
0020
0000
0000
0000
,  // measure 41
0031
0000
0100
1000
0000
0100
0001
0000
1000
0000
0010
0001
0000
0010
1000
0000
,  // measure 42
0001
0000
0010
0100
0000
0100
1000
0000
0100
0000
0010
0001
0200
0000
0000
0000
,  // measure 43
0310
0000
0100
0001
0000
0100
1000
0000
0100
0000
0001
0010
0000
1000
0010
0000
,  // measure 44
0001
0000
1000
0100
0000
0001
0100
0000
1000
0000
0110
0000
0001
0000
0110
0000
,  // measure 45
1000
0000
0010
0001
0000
0010
1000
0000
0001
0000
0010
1000
0000
0010
0001
0000
,  // measure 46
1000
0000
0100
0010
0000
0001
0100
0000
0001
0000
1000
0001
0020
0000
0100
0000
,  // measure 47
0031
0000
0010
1000
0000
0010
0100
0000
1000
0000
0100
0001
0000
0100
0010
0000
,  // measure 48
0001
0000
0010
1000
0000
0010
0100
0000
0010
0000
0001
0100
0020
0000
1000
0000
,  // measure 49
0130
0000
0001
0100
0000
1000
0100
0000
0010
0000
1000
0010
0000
0001
0100
0000
,  // measure 50
0001
0000
0010
1000
0000
0100
0001
0100
1000
0000
0000
0000
1002
0000
0000
0000
,  // measure 51
1003
0000
0010
0100
0001
0000
0100
0010
1000
0000
0001
0010
0000
0100
1000
0000
,  // measure 52
0001
0000
0010
0100
1000
0000
0100
0010
0001
0000
1000
0000
0001
0000
1001
0000
,  // measure 53
0010
0000
0100
0001
1000
0000
0010
0100
0001
0000
0010
0100
0000
1000
0100
0000
,  // measure 54
0010
0000
0001
0100
0010
0000
1000
0010
0100
0000
0001
0000
1000
0000
1010
0000
,  // measure 55
0001
0000
0000
0100
0001
0000
0000
1000
0100
0000
0010
0100
0000
0100
1000
0000
,  // measure 56
0010
0000
0000
0100
0010
0000
0000
1000
0001
0000
1000
0000
0001
0000
0011
0000
,  // measure 57
0001
0000
0000
0100
0010
0000
0000
0100
0001
0000
1000
0010
0000
0010
0100
0000
,  // measure 58
0010
0000
0000
0000
1000
0000
0000
0000
0001
0000
0000
0000
0100
0000
0000
0000
0001
0000
0000
0000
1000
0000
0000
0000
0100
0000
0000
0000
0010
0000
0000
0000
0001
0000
0000
0000
0010
0000
0000
0100
0000
0000
1000
0000
0000
0100
0000
0000
,  // measure 59
0020
0000
0000
0000
0000
0000
0000
0000
0000
0031
0000
0000
1000
0000
0010
0000
0001
0000
0010
0000
1000
0000
0100
0000
,  // measure 60
0001
0000
0000
0000
0000
0000
0000
0000
0000
0100
0000
0000
0010
0000
0000
0000
0000
0000
0100
0000
0000
0000
0000
0000
0001
0000
0000
0000
0010
0000
0000
0000
1000
0000
0000
0000
0001
0000
0000
0000
0100
0000
0000
0000
1000
0000
0000
0000
,  // measure 61
0002
0000
0000
0000
0000
0000
0000
0000
0000
1003
0000
0000
0010
0000
1000
0000
0100
0000
0001
0000
0010
0000
0001
0000
,  // measure 62
0100
0010
0001
1000
0010
0100
0101
0000
1100
0000
0011
0000
;
