#TITLE:Ang Katulad Mong Walang Katulad;
#SUBTITLE:;
#ARTIST:Orange & Lemons;
#TITLETRANSLIT:;
#SUBTITLETRANSLIT:;
#ARTISTTRANSLIT:;
#GENRE:;
#CREDIT:;
#MENUCOLOR:;
#METERTYPE:DDR;
#BANNER:Ang Katulad Mong Walang Katulad.png;
#BACKGROUND:Ang Katulad Mong Walang Katulad-bg.png;
#LYRICSPATH:;
#CDTITLE:./CDTITLES/NONE.PNG;
#MUSIC:Ang Katulad Mong Walang Katulad.ogg;
#OFFSET:0.000;
#SAMPLESTART:40.435;
#SAMPLELENGTH:15.000;
#SELECTABLE:YES;
#LISTSORT:;
#BPMS:0.000=184.000,277.000=155.000,283.000=142.000,292.000=120.000,295.000=87.000;
#STOPS:;
#BGCHANGES:0.000=Ang Katulad Mong Walang Katulad.avi=1.000=0=0=0,
99999=-nosongbg-=1.000=0=0=0 // don't automatically add -songbackground-
;
#ATTACKS:;

//---------------dance-single - t7r----------------
#NOTES:
     dance-single:
     t7r:
     Beginner:
     2:
     0.103,0.137,0.064,0.000,0.000: // measure 1
0000
0000
0000
0000
,  // measure 2
0000
0000
0000
0000
,  // measure 3
0000
0000
0000
0000
,  // measure 4
0000
0000
0000
0000
,  // measure 5
0000
0000
0000
0000
,  // measure 6
0000
0000
0000
0000
,  // measure 7
0000
0000
0000
0000
,  // measure 8
1000
0000
0000
0001
,  // measure 9
0000
0000
1000
0000
,  // measure 10
0000
0001
0000
0000
,  // measure 11
0100
0000
0000
0000
,  // measure 12
0000
0000
0010
0000
,  // measure 13
0000
0100
0000
0000
,  // measure 14
0001
0000
0000
1000
,  // measure 15
0000
0000
0100
0000
,  // measure 16
0000
1000
0000
0000
,  // measure 17
0001
0000
0000
0100
,  // measure 18
0000
0000
0001
0000
,  // measure 19
0000
0000
0000
0000
,  // measure 20
1000
0000
0000
0010
,  // measure 21
0000
0000
1000
0000
,  // measure 22
0000
0001
0000
0000
,  // measure 23
0001
0000
0000
0010
,  // measure 24
0000
0000
0001
0000
,  // measure 25
0000
1000
0000
0000
,  // measure 26
0010
0000
0000
0010
,  // measure 27
0000
0000
0010
0000
,  // measure 28
0000
0000
0000
0000
,  // measure 29
0100
0000
0000
0100
,  // measure 30
0000
0000
0100
0000
,  // measure 31
0000
0000
0000
0000
,  // measure 32
1001
0000
0000
0000
,  // measure 33
0000
0000
1000
0000
,  // measure 34
0000
0000
0000
0000
,  // measure 35
0001
0000
0000
0000
,  // measure 36
0000
0000
0010
0000
,  // measure 37
0000
0000
0000
0000
,  // measure 38
0100
0000
0000
0100
,  // measure 39
0000
0000
1000
0000
,  // measure 40
0000
0001
0000
0000
,  // measure 41
1000
0000
0000
1000
,  // measure 42
0000
0000
0001
0000
,  // measure 43
0000
1000
0000
0000
,  // measure 44
0001
0000
0000
0001
,  // measure 45
0000
0000
0010
0000
,  // measure 46
0000
0010
0000
0000
,  // measure 47
0010
0000
0000
0010
,  // measure 48
0000
0000
0001
0000
,  // measure 49
0000
0000
0000
0000
,  // measure 50
1000
0000
0000
0000
,  // measure 51
0000
0000
0100
0000
,  // measure 52
0000
0100
0000
0000
,  // measure 53
0100
0000
0000
0100
,  // measure 54
0000
0000
1000
0000
,  // measure 55
0000
0001
0000
0000
,  // measure 56
0100
0000
0000
0000
,  // measure 57
0000
0000
0010
0000
,  // measure 58
0000
0010
0000
0000
,  // measure 59
1000
0000
0000
0001
,  // measure 60
0000
0000
1001
0000
,  // measure 61
0000
0000
0000
0000
,  // measure 62
0110
0000
0000
0000
,  // measure 63
0000
0000
1001
0000
,  // measure 64
0000
0000
0000
0000
,  // measure 65
0110
0000
0000
0000
,  // measure 66
0000
0000
1001
0000
,  // measure 67
0000
1000
0000
0000
,  // measure 68
0001
0000
0000
0000
,  // measure 69
0000
0000
0000
0000
,  // measure 70
0000
0000
0000
0000
,  // measure 71
0010
0000
0000
0100
,  // measure 72
0000
0000
0000
0000
,  // measure 73
0001
0000
0000
0000
,  // measure 74
1000
0000
0000
0010
,  // measure 75
0000
0000
1001
0000
;

//---------------dance-single - t7r----------------
#NOTES:
     dance-single:
     t7r:
     Easy:
     5:
     0.258,0.341,0.119,0.357,0.000: // measure 1
0000
0000
0000
0000
,  // measure 2
0000
0000
0000
0000
,  // measure 3
0000
0000
0000
0000
,  // measure 4
0000
0000
0000
0000
,  // measure 5
0000
0000
0000
0000
,  // measure 6
0000
0000
0000
0000
,  // measure 7
0000
0000
0000
0000
,  // measure 8
0000
0010
0010
0000
,  // measure 9
0100
0100
0000
0001
,  // measure 10
0001
0000
1000
1000
,  // measure 11
2000
0000
0000
0000
,  // measure 12
0000
3000
0002
0000
,  // measure 13
0000
0000
0000
0003
,  // measure 14
0000
0100
0100
0000
,  // measure 15
0010
0010
0000
1000
,  // measure 16
1000
0000
0001
0001
,  // measure 17
0020
0000
0000
0030
,  // measure 18
0000
0000
0002
0000
,  // measure 19
0000
0000
0003
0000
,  // measure 20
1000
1000
1000
0100
,  // measure 21
0100
0100
0010
0010
,  // measure 22
0010
0001
0001
0001
,  // measure 23
0200
0000
0000
0300
,  // measure 24
0000
0000
0020
0000
,  // measure 25
0000
0030
0000
0000
,  // measure 26
0000
1000
1001
0000
,  // measure 27
0001
1001
0000
1000
,  // measure 28
1100
0000
0001
0101
,  // measure 29
0200
0000
0300
0020
,  // measure 30
0000
0030
2000
0000
,  // measure 31
3000
0002
0000
0003
,  // measure 32
1000
1000
1000
2002
,  // measure 33
0000
3003
0001
0001
,  // measure 34
0001
2002
0000
3003
,  // measure 35
0010
0010
0010
0220
,  // measure 36
0000
0330
0100
0100
,  // measure 37
0100
0220
0000
0330
,  // measure 38
0010
1000
0001
0100
,  // measure 39
0001
1000
0020
0000
,  // measure 40
0000
1030
0000
0001
,  // measure 41
0200
0000
0000
0301
,  // measure 42
0000
1000
0200
0000
,  // measure 43
0000
0310
0000
0001
,  // measure 44
0020
0000
0000
0031
,  // measure 45
1000
0100
1000
0010
,  // measure 46
0010
1000
0100
0100
,  // measure 47
0010
0001
0001
0100
,  // measure 48
0010
0010
2000
0000
,  // measure 49
0000
3000
0000
0000
,  // measure 50
0002
0000
0000
0003
,  // measure 51
0000
0000
0200
0000
,  // measure 52
0300
0020
0000
0030
,  // measure 53
2000
0000
3000
0002
,  // measure 54
0000
0003
2000
0000
,  // measure 55
0000
3000
0000
0000
,  // measure 56
0200
0000
0300
0010
,  // measure 57
0001
0100
0001
0010
,  // measure 58
0010
0100
1000
1000
,  // measure 59
0001
0100
0100
0010
,  // measure 60
1000
1000
0001
1000
,  // measure 61
0001
2002
0000
3003
,  // measure 62
1000
0010
0100
0220
,  // measure 63
0000
0330
0001
0010
,  // measure 64
0100
0220
0000
0330
,  // measure 65
0010
0001
0100
0202
,  // measure 66
0000
0303
0010
1000
,  // measure 67
0001
0100
0001
1000
,  // measure 68
0020
0000
0000
0000
,  // measure 69
0000
0000
0000
0000
,  // measure 70
0000
0000
0030
0000
,  // measure 71
0010
0000
0000
0100
,  // measure 72
0000
0000
0000
0000
,  // measure 73
0001
0000
0000
0000
,  // measure 74
1000
0000
0000
0010
,  // measure 75
0000
0000
1001
0000
;

//---------------dance-single - t7r----------------
#NOTES:
     dance-single:
     t7r:
     Medium:
     7:
     0.390,0.457,0.137,0.421,0.000: // measure 1
0000
0000
0000
0000
,  // measure 2
0000
0000
0000
0000
,  // measure 3
0000
0000
0000
0000
,  // measure 4
0000
0000
0000
0000
,  // measure 5
0000
0000
0000
0000
,  // measure 6
0000
0000
0000
0000
,  // measure 7
0000
0000
0000
0000
,  // measure 8
0001
0010
0010
0100
,  // measure 9
1000
1000
0010
0100
,  // measure 10
0100
0001
1000
1000
,  // measure 11
0020
1000
0130
2000
,  // measure 12
0100
3010
0002
0010
,  // measure 13
0103
2000
0010
3100
,  // measure 14
0010
0100
0100
0001
,  // measure 15
1000
1000
0100
0010
,  // measure 16
0010
0100
1000
1000
,  // measure 17
0020
0000
0030
0200
,  // measure 18
0000
0300
0002
0000
,  // measure 19
0003
2000
0000
3000
,  // measure 20
0001
0010
0010
0100
,  // measure 21
1000
1000
0010
0100
,  // measure 22
0100
0001
1000
1000
,  // measure 23
0200
0010
0301
2000
,  // measure 24
0100
3010
0002
0100
,  // measure 25
0013
2000
0010
3100
,  // measure 26
0010
0100
0110
0001
,  // measure 27
1000
1001
0100
0010
,  // measure 28
0110
0010
0001
1001
,  // measure 29
0020
0100
0031
2000
,  // measure 30
0100
3010
0002
0010
,  // measure 31
0103
2000
0001
3100
,  // measure 32
0001
1000
0001
2002
,  // measure 33
0000
3003
1000
0010
,  // measure 34
0100
0220
0000
0330
,  // measure 35
0001
0010
0100
0220
,  // measure 36
0000
0330
0010
0001
,  // measure 37
1000
1001
0010
0100
,  // measure 38
0001
0000
0010
0001
0100
0000
0001
0000
,  // measure 39
1000
0010
0100
0000
0010
0000
0000
0000
,  // measure 40
1000
0010
1000
0100
,  // measure 41
0010
0000
0001
0010
,  // measure 42
0001
0100
0010
0000
,  // measure 43
0100
0010
1000
0001
,  // measure 44
1000
0000
0001
0010
,  // measure 45
0100
1000
0020
1000
,  // measure 46
1030
2000
0001
3001
,  // measure 47
0002
1000
1003
0200
,  // measure 48
0010
0310
0020
0001
,  // measure 49
0130
0001
1000
0010
,  // measure 50
0200
0010
1300
0002
,  // measure 51
0100
0000
0013
0000
1000
0000
0100
1000
,  // measure 52
0100
0000
0010
0000
0001
0010
0001
0000
,  // measure 53
1000
0000
0001
0100
0001
0000
1000
0000
,  // measure 54
0010
1000
0010
0000
2000
0000
0001
0000
,  // measure 55
3100
0001
0010
0100
,  // measure 56
0020
0001
0130
2000
,  // measure 57
0010
0000
3100
0000
0020
0000
0130
0001
,  // measure 58
0100
0000
0002
0000
1003
0001
1000
0000
,  // measure 59
0200
0000
1300
0100
1000
0000
0020
0000
,  // measure 60
0130
0001
1000
0000
0001
0000
1000
0000
,  // measure 61
0001
2002
0000
3003
,  // measure 62
0010
0100
0010
2020
,  // measure 63
0000
3030
1000
0100
,  // measure 64
1000
2200
0000
3300
,  // measure 65
0010
0001
0010
0011
,  // measure 66
0001
0100
0010
0000
0110
0000
0100
0001
,  // measure 67
1000
0000
0001
0000
1000
0001
0010
0000
,  // measure 68
2002
0000
0000
0000
,  // measure 69
0000
0000
0000
0000
,  // measure 70
0000
0000
3003
0000
,  // measure 71
0001
0000
0000
1000
,  // measure 72
0000
0000
0010
0000
,  // measure 73
0000
0100
0000
0000
,  // measure 74
0001
0000
0000
1000
,  // measure 75
0000
0000
0220
0000
,  // measure 76
0000
0000
0000
0000
,  // measure 77
0000
0000
0000
0330
;

//---------------dance-single - t7r----------------
#NOTES:
     dance-single:
     t7r:
     Hard:
     10:
     0.513,0.598,0.486,0.366,0.000: // measure 1
0000
0000
0000
0000
,  // measure 2
0000
0000
0000
0000
,  // measure 3
0000
0000
0000
0000
,  // measure 4
0000
0000
0000
0000
,  // measure 5
0000
0000
0000
0000
,  // measure 6
0000
0000
0000
0000
,  // measure 7
0000
0000
0000
0000
,  // measure 8
0001
0100
0110
1000
,  // measure 9
0010
0110
0010
1000
,  // measure 10
1001
0100
0001
1001
,  // measure 11
0001
0010
0110
1000
,  // measure 12
0010
0110
0100
0001
,  // measure 13
0101
1000
0100
1100
,  // measure 14
0020
1000
1030
0002
,  // measure 15
0100
0103
2000
0100
,  // measure 16
3100
0020
0001
0031
,  // measure 17
2000
0001
3100
0002
,  // measure 18
1000
0013
2000
0100
,  // measure 19
3010
0002
0010
0103
,  // measure 20
1000
0010
1000
0010
0100
0000
0001
0010
,  // measure 21
0001
0010
0100
0000
1000
0010
0100
0001
,  // measure 22
1000
0000
0001
0010
0100
1000
0001
0000
,  // measure 23
1000
0100
0010
0100
1000
0000
0001
0100
,  // measure 24
0010
0100
0001
0000
1000
0001
0010
0001
,  // measure 25
1000
0001
0110
1100
,  // measure 26
1000
0011
1001
0001
,  // measure 27
1010
1001
1000
0101
,  // measure 28
1001
0001
1100
1001
,  // measure 29
1000
1020
0130
0001
,  // measure 30
0021
0130
1000
2001
,  // measure 31
3100
0001
1001
0110
,  // measure 32
0100
0010
0100
0210
,  // measure 33
0001
0301
1000
0100
,  // measure 34
0010
0220
0000
0330
,  // measure 35
0001
1000
0001
1002
,  // measure 36
1000
1003
0010
0100
,  // measure 37
0010
0000
0110
0000
1000
0100
1000
0000
,  // measure 38
0001
0000
0010
0001
1000
0000
0001
0000
,  // measure 39
0100
0001
1000
0000
0010
0000
0000
0100
,  // measure 40
0010
0000
0100
0000
0001
1000
0100
0000
,  // measure 41
1000
0000
0000
0010
1000
0000
0001
0000
,  // measure 42
0100
0001
1000
0000
0010
0000
0000
1000
,  // measure 43
0100
0000
0010
0000
0001
0010
0100
0000
,  // measure 44
1000
0000
0010
0100
0001
0000
1000
0000
,  // measure 45
0001
1000
0100
0000
2010
0000
3001
0100
,  // measure 46
0001
0000
0020
0000
0031
1000
0001
0000
,  // measure 47
2000
0000
3100
1000
0100
0000
0020
0000
,  // measure 48
0031
0010
0001
0000
2000
0000
3001
0100
,  // measure 49
0010
0100
0110
0101
,  // measure 50
0012
0000
1003
0100
1000
0000
0001
0000
,  // measure 51
1000
0000
0100
0000
0020
0000
0130
1000
,  // measure 52
0001
0000
0200
0000
0301
1000
0010
0000
,  // measure 53
2000
0000
3010
0100
0001
0000
0020
0000
,  // measure 54
0031
0010
0100
0000
1000
0100
1000
0100
,  // measure 55
0010
0000
0001
0100
0001
0100
0010
0000
,  // measure 56
1000
0001
0100
0001
1000
0000
0001
0000
,  // measure 57
0100
0010
0100
0001
1000
0100
0010
0100
,  // measure 58
1000
0000
0001
0100
0010
0100
0001
0000
,  // measure 59
1000
0100
0001
0100
1000
0000
0001
0000
,  // measure 60
1010
0110
1100
1100
,  // measure 61
1100
0012
1000
1003
,  // measure 62
0101
0101
0101
0210
,  // measure 63
0010
1300
0110
0110
,  // measure 64
0110
2001
0100
3100
,  // measure 65
0011
0011
0011
1002
,  // measure 66
0103
0001
1000
0010
0100
0000
0010
1000
,  // measure 67
0100
0000
1001
0000
0010
0001
0100
0000
,  // measure 68
0220
0000
0000
0000
,  // measure 69
0000
0000
0000
0000
,  // measure 70
0000
0000
0330
0000
,  // measure 71
0020
0000
0030
0020
,  // measure 72
0000
0130
0200
0000
,  // measure 73
0301
2000
0000
3001
,  // measure 74
0020
0000
0030
2002
,  // measure 75
0000
3003
0220
0000
,  // measure 76
0000
0000
0000
0000
,  // measure 77
0000
0000
0000
0330
;

//---------------dance-single - t7r----------------
#NOTES:
     dance-single:
     t7r:
     Challenge:
     13:
     0.640,0.879,0.779,0.275,0.243: // measure 1
0000
0000
0000
0000
,  // measure 2
0000
0000
0000
0000
,  // measure 3
0000
0000
0000
0000
,  // measure 4
0000
0000
0000
0000
,  // measure 5
0000
0000
0000
0000
,  // measure 6
0000
0000
0000
0000
,  // measure 7
0000
0000
0000
0000
,  // measure 8
1000
1010
1010
0100
,  // measure 9
0101
0101
0001
0011
,  // measure 10
0011
1000
1100
1100
,  // measure 11
0010
0110
0110
0001
,  // measure 12
1001
1001
1000
1100
,  // measure 13
1100
0010
0100
0001
,  // measure 14
1000
1001
1001
0001
,  // measure 15
0101
0101
0010
1010
,  // measure 16
1010
1000
1100
1100
,  // measure 17
0010
0011
0011
0001
,  // measure 18
1001
1001
0001
0101
,  // measure 19
0101
0010
0100
0001
,  // measure 20
1000
0100
1000
0100
0010
0001
0100
0001
,  // measure 21
0100
0001
0010
0100
0010
0001
0010
0001
,  // measure 22
1000
0010
1000
0010
1000
0010
0100
0010
,  // measure 23
1000
0100
0010
0100
1000
0001
0100
0001
,  // measure 24
0010
0001
1000
0010
0100
0010
1000
0010
,  // measure 25
0100
0000
0000
0000
0001
0000
0000
0000
1000
0000
0000
0000
0000
0000
0000
0000
0100
0010
0000
0000
0000
0000
0000
0000
0110
0000
0000
0000
0000
0000
0000
0000
,  // measure 26
0010
0011
0011
0001
,  // measure 27
1001
1001
1000
1010
,  // measure 28
1010
0010
0110
0110
,  // measure 29
0100
0101
1001
0100
,  // measure 30
1100
1001
0010
1010
,  // measure 31
1001
0010
0011
1001
,  // measure 32
0101
0101
0101
0102
,  // measure 33
1000
1003
1010
1010
,  // measure 34
1010
2010
0001
3001
,  // measure 35
1100
1100
1100
2100
,  // measure 36
0001
3001
0110
0110
,  // measure 37
0110
0000
0210
0000
0301
1000
0100
0010
,  // measure 38
0011
0000
0100
1000
0010
0100
0110
0000
,  // measure 39
0001
0010
0100
1000
1010
0000
0010
0100
,  // measure 40
0001
0000
0010
0000
0001
1000
0100
0000
,  // measure 41
1000
0000
0010
0100
0001
0000
0010
0000
,  // measure 42
0001
0010
0100
0000
1000
0000
0010
1000
,  // measure 43
0001
0000
0100
0000
0001
1000
0010
0000
,  // measure 44
0100
0000
0010
1000
0100
0000
0010
0000
,  // measure 45
0001
0000
0100
0000
0001
0000
1000
0000
0000
0000
0000
0000
0120
0000
0000
0000
0000
0000
1030
0000
0000
0010
0000
0000
,  // measure 46
0100
0000
0210
0000
0301
0010
0100
0000
,  // measure 47
0012
0000
1003
0100
0010
0000
2100
0000
,  // measure 48
3001
0100
0010
0000
1020
0000
0130
0001
,  // measure 49
1000
0210
0302
0023
,  // measure 50
0032
0000
0013
0100
1000
0000
1100
0000
,  // measure 51
0010
0001
0100
0000
0012
0000
1003
0001
,  // measure 52
1000
0000
2010
0000
3001
1000
0001
0000
,  // measure 53
0102
0000
1003
0001
1000
0000
2100
0000
,  // measure 54
3001
1000
0001
0000
0010
0100
1000
0100
,  // measure 55
0010
0001
0100
0000
0001
0000
1001
0000
,  // measure 56
0010
0100
0001
0100
0010
1000
0100
0000
,  // measure 57
0010
0100
1000
0010
0120
0000
1030
0001
,  // measure 58
0100
0000
0012
0000
1003
0001
0010
0000
,  // measure 59
0201
0000
0301
1000
0100
0000
1020
0000
,  // measure 60
1030
0000
0000
0010
0000
0000
0100
0000
0000
0000
0000
0000
0010
0000
1000
0000
0010
0000
1000
0000
0010
0000
1000
0000
,  // measure 61
0010
1000
0001
0100
0010
0100
0010
0100
0010
0100
0010
1000
,  // measure 62
0100
0010
0100
0010
0100
0010
0100
0010
0001
1000
0001
1000
,  // measure 63
0001
1000
0001
1000
0001
0100
0001
0010
0001
0010
0001
0010
,  // measure 64
0001
0010
0100
1000
0010
1000
0010
1000
0010
1000
0010
0100
,  // measure 65
0001
0010
0100
0010
0001
0010
0100
0010
0001
1000
0010
0100
,  // measure 66
0010
0000
1000
0000
0010
0000
0100
0000
0010
0000
1000
0000
0001
0000
0000
0000
0000
0000
1001
0000
0000
0010
0000
0000
,  // measure 67
0100
0010
1010
0000
0110
0001
1000
0001
,  // measure 68
0022
0000
0000
0000
,  // measure 69
0000
0000
0000
0000
,  // measure 70
0000
0000
0033
0000
,  // measure 71
0100
1000
0010
2000
,  // measure 72
0001
3001
0200
0010
,  // measure 73
0310
2000
0100
3010
,  // measure 74
0002
0010
0103
2000
,  // measure 75
3001
1000
0001
0000
0000
0000
0100
0000
0000
0000
0000
0000
0220
0000
0000
0000
0000
0000
0000
0000
0000
0000
0000
0000
,  // measure 76
0000
0000
0000
0000
,  // measure 77
0000
0000
0000
0330
;
