#TITLE:(This Is Not) The Angels;
#SUBTITLE:;
#ARTIST:Hommarju;
#TITLETRANSLIT:;
#SUBTITLETRANSLIT:;
#ARTISTTRANSLIT:;
#GENRE:;
#CREDIT:;
#MENUCOLOR:;
#METERTYPE:DDR;
#BANNER:(This Is Not) The Angels.png;
#BACKGROUND:(This Is Not) The Angels-bg.png;
#LYRICSPATH:;
#CDTITLE:./CDTITLES/BEATMANIA IIDX.PNG;
#MUSIC:(This Is Not) The Angels.ogg;
#OFFSET:0.000;
#SAMPLESTART:79.385;
#SAMPLELENGTH:15.000;
#SELECTABLE:YES;
#LISTSORT:;
#BPMS:0.000=130.000,50.000=65.000,52.000=260.000,60.000=130.000,74.000=65.000,75.000=130.000,155.000=65.000,161.000=260.000,169.000=130.000,215.000=65.000,216.000=130.000,248.000=32.500;
#STOPS:18.000=0.46153846153846153846153846153846
,34.000=0.46153846153846153846153846153846
;
#BGCHANGES:0.000=(This Is Not) The Angels.avi=1.000=0=0=0,
99999=-nosongbg-=1.000=0=0=0 // don't automatically add -songbackground-
;
#ATTACKS:;

//---------------dance-single - ----------------
#NOTES:
     dance-single:
     :
     Beginner:
     3:
     0.112,0.153,0.008,0.000,0.000:
0000
0000
0000
0000
,
0000
0000
0000
0000
,
0000
0000
0000
0000
,
0000
0000
0000
0000
,
0000
0000
0000
0010
,
0000
0000
0000
0010
,
0000
0000
0000
0100
,
0000
0000
0000
0100
,
0000
0100
0000
0001
,
0000
0001
0000
1000
,
0000
1000
0000
0010
,
0000
0010
0010
0000
,
0100
0000
0100
0000
,
0010
0000
0000
0000
,
0000
0000
0000
0000
,
0010
0000
0000
0000
,
1000
0000
0000
0000
,
0001
0000
0000
0000
,
1000
0000
1000
1000
,
0000
0000
0000
0001
,
0000
0000
0000
0100
,
0000
0000
0000
0010
,
0000
0000
0000
1000
,
1000
0000
0000
0001
,
0001
0000
0000
0010
,
0010
0000
0000
0100
,
0100
0000
0000
0010
,
0000
0000
0000
0001
,
0000
0000
0000
0100
,
0000
0000
0000
1000
,
0000
0000
0000
0010
,
0000
0000
0000
1000
,
0000
0000
0000
0100
,
0000
0000
0000
0001
,
0000
0000
0000
0010
,
0010
0010
0000
0100
,
0000
0100
0000
0001
,
0001
0001
0000
1000
,
0000
1000
0000
0001
,
0000
0000
0000
1000
,
0000
0001
0000
0000
,
0000
0000
0000
0000
,
0000
0001
0000
0001
,
0000
1000
0000
1000
,
0000
0010
0000
0010
,
0000
0100
0000
0100
,
0000
0010
0000
0010
,
0000
1000
0000
1000
,
0000
0001
0000
0001
,
0000
1000
0000
0001
,
0000
1000
0000
0100
,
0000
0010
0000
0001
,
0000
0001
0000
0010
,
0000
0100
0000
1000
,
1000
0000
1000
0000
,
0010
0000
0010
0000
,
0100
0000
0100
0000
,
0001
0000
0001
0000
,
1000
1000
0000
0000
,
0001
0001
0000
0000
,
0010
0010
0000
0000
,
0100
0100
0000
0000
,
1001
0000
0000
0000
;

//---------------dance-single - ----------------
#NOTES:
     dance-single:
     :
     Easy:
     6:
     0.276,0.255,0.066,0.140,0.008:
0000
0000
0000
0000
,
0000
0000
0000
0000
,
0000
0000
0000
0000
,
0000
0000
0000
0000
,
0000
0000
0000
0000
0000
0000
0000
0000
0000
0000
0000
0000
0000
0000
0000
0000
0000
0000
0000
0000
0000
0000
0000
0000
0000
0000
0000
0000
0000
0000
0000
0000
0000
1001
0000
0000
0000
0000
0000
0000
0000
0000
0000
0000
0000
0000
0000
0000
0010
0000
0000
0000
0000
0000
0000
0000
0000
0000
0000
0000
0000
0000
0000
0000
,
1000
0001
0001
1000
,
0100
0010
0010
0001
,
0010
0100
0100
1000
,
0001
0000
0000
0000
0000
0000
0000
0000
0000
0000
0000
0000
0000
0000
0000
0000
0100
0000
0000
0000
0000
0000
0000
0000
0000
0000
0000
0000
0000
0000
0000
0000
0010
0100
0000
0000
0000
0000
0000
0000
0000
0000
0000
0000
0000
0000
0000
0000
0010
0000
0000
0000
0000
0000
0000
0000
0000
0000
0000
0000
0000
0000
0000
0000
,
1000
0001
1000
0100
,
0010
0001
1000
0010
,
0100
0001
1000
1000
,
0001
0000
0001
0000
0100
0010
0100
0010
,
1000
0000
0001
0000
,
1000
0000
0001
0000
,
1000
0100
0020
0030
,
0001
0100
0002
0003
,
1000
0001
0020
0030
,
0001
0000
1000
0000
0100
0100
1000
0000
,
0100
0010
0001
1000
,
0010
0100
0001
1000
,
0100
0010
0001
1000
,
0001
0000
0100
0000
0010
0000
1000
1000
,
0000
0000
0001
0000
0001
0000
0010
0010
,
0000
0000
0001
0000
0001
0000
0100
0100
,
0000
0000
0010
0000
0010
0000
1000
1000
,
0000
0001
0001
2000
,
0100
0000
3010
0002
,
0100
0000
0013
2000
,
0001
0000
3010
0002
,
1000
0000
0013
0200
,
0010
0000
1300
0020
,
0100
0000
0031
0200
,
0010
0000
1300
0001
,
1000
0100
0010
0100
,
0100
0110
0000
0001
,
0001
1001
0000
1000
,
1000
1001
0000
0010
,
0100
0110
0000
0010
,
1000
0000
0001
0000
0100
0000
0001
0010
,
0100
1000
0001
0000
0000
0000
0010
0000
,
0000
0100
1000
0001
,
0000
1000
0001
1000
,
0010
0100
0001
1000
,
0001
0010
0001
1000
,
0100
0010
0100
1000
,
0001
0110
0001
0100
,
0010
1000
0010
0100
,
0001
1000
0100
0010
,
0001
1000
0001
1000
,
0001
1001
0010
0200
,
0300
0010
1000
0200
,
0300
0010
0001
2000
,
3000
0000
0001
0000
0010
0000
0100
0100
,
0010
0001
2000
3000
,
0010
1000
0002
0003
,
0100
0010
0200
0300
,
0010
1000
0200
0300
,
0010
0010
0000
0000
0001
0000
0010
0000
,
0100
0100
0000
0000
1000
0000
0010
0000
,
1000
1000
0000
0000
0001
0000
1000
0000
,
0001
0001
0000
0000
1000
0000
0100
0000
,
0110
0000
0000
0000
;

//---------------dance-single - ----------------
#NOTES:
     dance-single:
     :
     Medium:
     10:
     0.449,0.484,0.107,0.164,0.160:
0000
0000
0000
0000
,
0000
0000
0000
0000
,
0000
0000
0000
0000
,
0000
0000
0000
0000
,
0000
0000
0000
0000
0000
0000
0000
0000
0000
0000
0000
0000
0000
0000
0000
0000
0000
0000
0000
0000
0000
0000
0000
0000
0000
0000
0000
0000
0000
0000
0000
0000
0000
1001
0000
0000
0000
0000
0000
0000
0000
0000
0000
0000
0000
0000
0000
0000
0110
0000
0000
0000
0000
0000
0000
0000
0000
0000
0000
0000
0000
0000
0000
0000
,
0010
0000
0000
1000
0000
0000
1000
0000
0001
0000
1000
0000
0001
0000
0000
0000
,
0100
0000
0000
0010
0000
0000
0010
0000
1000
0000
0100
0000
0010
0000
0000
0000
,
0100
0000
0000
1000
0000
0000
1000
0000
0001
0000
0100
0000
0001
0000
0000
0010
,
0000
0000
0000
0000
0000
0000
0000
0000
0001
0000
0000
0000
0000
0000
0000
0000
1000
0000
0000
0000
0000
0000
0000
0000
0001
0000
0000
0000
0000
0000
0000
0000
0100
0010
0000
0000
0000
0000
0000
0000
0000
0000
0000
0000
0000
0000
0000
0000
0100
0000
0000
0000
0000
0000
0000
0000
0000
0000
0000
0000
0010
0000
0000
0000
,
0000
0000
1000
0000
0001
0000
1000
0000
0100
0000
0000
0000
0010
0000
0000
0001
,
0000
0000
1000
0000
0001
0000
0100
0000
0010
0000
0000
0000
1000
0000
0000
0010
,
0000
0000
1000
0000
0010
0000
0100
0000
0001
0000
0000
1000
0000
0000
0001
0000
,
1000
1000
0001
0001
0100
0010
1000
0001
,
1000
0100
0010
0001
,
1000
0100
0020
0000
,
0031
1000
0001
0100
0010
0000
1000
0000
,
0001
1000
0001
0010
0100
0000
0010
0000
,
0001
0010
0100
1000
0001
0000
1000
0000
,
0010
0000
0010
0000
0100
0000
0100
0000
0001
0001
0001
0000
1000
0000
0100
0000
,
0010
0000
0000
0100
0000
0000
1000
0000
0001
0000
0100
0000
0001
0000
1000
0000
,
0010
0000
0000
0100
0000
0000
0001
0000
1000
0000
0100
0000
0010
0000
0100
0000
,
1000
0000
0000
0001
0000
0000
1000
0000
0001
0000
0100
0000
0010
0000
0000
0100
,
0000
0010
1000
1000
0001
0001
1000
1000
,
0100
0000
0000
0010
0000
0000
0010
0000
0001
0000
1000
0000
0001
0000
0001
0000
,
0100
0000
0000
0010
0000
0000
0010
0000
1000
0000
0010
0000
0100
0000
0100
0000
,
0010
0000
0000
1000
0000
0000
0100
0000
0010
0000
0001
0000
0010
0000
0010
0000
,
0100
0000
0000
1000
0000
0000
0001
0000
0100
0000
1000
0000
0200
0000
0000
0000
,
0010
0000
1300
0020
,
0100
0000
0031
2000
,
0100
0000
3010
0002
,
0100
0000
0000
0000
0013
0000
0001
0010
,
0001
0000
0200
0000
0310
0000
1000
0010
,
1000
0000
0200
0000
0310
0000
0001
1000
,
0100
0000
2000
0000
3001
0000
1000
0001
,
0010
0002
1003
1001
,
0110
0000
0100
0010
0100
0000
0101
0000
,
1100
0000
0001
0010
0100
0000
1010
0000
,
0011
0000
1000
0100
0010
0000
1001
0000
,
0110
0000
0100
0010
0100
0001
2000
0001
,
0100
3001
0002
1000
0100
1003
0020
0100
,
0001
1030
0001
0000
0000
0000
0100
0000
,
0000
0010
1000
0002
,
0000
0000
0000
0000
1003
0000
0100
0000
0010
0000
0000
0100
0000
0000
1000
0000
,
0001
0000
0100
0000
0001
0000
0100
0000
0010
0000
0000
0100
0000
0000
0001
0000
,
1000
0000
0010
0000
1000
0000
0001
0000
0100
0000
0000
0001
0000
0000
1000
0000
,
0100
0000
0010
0000
0100
0000
0000
1000
0000
0000
0001
0000
0100
0000
0010
0000
,
0100
0000
0001
0000
1000
0000
0100
0000
0001
0000
0000
0100
0000
0000
1000
0000
,
0010
0000
1000
0000
0001
0000
0010
0000
1000
0000
0000
0010
0000
0000
0001
0000
,
0010
0000
0001
0000
0100
0000
0010
0000
1000
0000
0000
0010
0000
0000
0100
0000
,
0001
0000
1000
0000
0001
0000
0000
0100
0000
0000
0010
0000
1000
0000
1000
0000
,
0010
0000
0010
0000
0100
0000
0001
0000
1000
0000
0000
0002
0000
0000
1000
0000
,
0013
0000
0000
0000
1000
0000
0001
0000
0100
0000
0000
0020
0000
0000
1000
0000
,
0130
0000
0000
0000
0001
0000
0010
0000
0100
0000
0000
2000
0000
0000
0001
0000
,
3010
0000
0000
0000
0001
0000
1000
0000
0100
0000
0000
0000
1000
1000
1000
0000
,
0010
0000
0100
0000
0001
0000
0000
0020
0000
0000
0001
0000
0100
0000
0031
0000
,
1000
0000
0100
0000
0010
0000
0000
0200
0000
0000
1000
0000
0010
0000
1300
0000
,
0001
0000
1000
0000
0010
0000
0000
2000
0000
0000
0001
0000
0010
0000
3100
0000
,
0010
0000
0001
0000
0100
0000
0000
0002
0000
0000
1000
0000
0100
0000
0013
0000
,
0100
0000
0100
0000
0010
0000
0000
0100
0000
0000
0100
0000
0001
0000
1000
0000
,
0001
0000
0001
0000
0010
0000
0000
0100
0000
0000
1000
0000
0001
0000
1000
0000
,
0100
0000
0100
0000
0010
0000
0000
1100
0000
0000
0001
0000
1000
0000
0010
0000
,
0100
0000
0100
0000
0010
0000
0000
0101
0000
0000
1000
0000
0001
0000
0100
0000
,
1001
0000
0000
0000
;

//---------------dance-single - ----------------
#NOTES:
     dance-single:
     :
     Hard:
     14:
     0.628,0.739,0.271,0.099,0.563: // measure 1
0000
0000
0000
0000
,  // measure 2
0000
0000
0000
0000
,  // measure 3
0000
0000
0000
0000
,  // measure 4
0000
0000
0000
0000
,  // measure 5
0000
0000
0000
0000
0000
0000
0000
0000
0000
0000
0000
0000
0000
0000
0000
0000
0000
0000
0000
0000
0000
0000
0000
0000
0000
0000
0000
0000
0000
0000
0000
0000
0000
1001
0000
0000
0000
0000
0000
0000
0000
0000
0000
0000
0000
0000
0000
0000
0110
0000
0000
0000
0000
0000
0000
0000
0010
0000
0000
0000
0000
0000
0000
0000
,  // measure 6
1000
0000
0000
0100
0000
0010
0100
0000
0010
0000
0001
0000
0100
0000
0010
0000
,  // measure 7
1000
0000
0000
0010
0000
0100
0010
0000
1000
0000
0100
0000
0010
0000
0001
0000
,  // measure 8
1000
0000
0000
0001
0000
0010
0100
0000
1000
0000
0100
0000
0010
0000
0001
1000
,  // measure 9
0000
0000
0000
0000
0001
0000
0000
0000
0100
0000
0000
0000
0000
0000
0000
0000
0001
0000
0000
0000
0010
0000
0000
0000
0100
0000
0000
0000
0000
0000
0000
0000
1001
1010
0000
0000
0000
0000
0000
0000
1000
0000
0000
0000
0000
0000
0000
0000
0100
0000
0000
0000
0000
0000
0000
0000
0000
0000
0000
0000
0010
0000
0000
0000
,  // measure 10
0000
0001
0100
0000
0010
0000
1000
0000
0001
0000
0010
0000
0100
0000
0000
0010
,  // measure 11
0000
0001
1000
0000
0001
0000
0010
0000
0001
0000
0100
0000
1000
0000
0000
0100
,  // measure 12
0000
0001
1000
0000
0100
0000
0010
0000
0100
0000
1000
0010
0000
0001
0010
0000
,  // measure 13
1000
0000
0100
0000
0000
0000
0100
0000
0010
0000
0001
0000
1000
0000
0001
0000
1000
0000
0000
1000
0010
0000
0100
0000
0001
0000
0000
0001
0010
0000
0100
0000
,  // measure 14
1000
0100
1000
0100
1000
0100
1000
0100
,  // measure 15
0010
0001
0010
0001
0010
0001
0010
0001
,  // measure 16
1000
0000
0001
0000
1001
0000
0010
0100
0000
0000
0001
0000
0010
0000
0100
0000
,  // measure 17
1000
0000
0001
0000
1001
0000
0010
0100
0000
0000
1000
0000
0010
0000
0100
0000
,  // measure 18
0001
0000
1000
0000
0110
0000
0010
1000
0000
0000
0100
0000
0010
0000
0001
0000
,  // measure 19
1000
0000
0001
0000
0110
0000
0001
0010
0100
0100
0100
0000
0010
0000
0001
0000
,  // measure 20
0100
0000
0000
0010
0000
1000
0010
0000
1000
0000
0100
0000
0010
0000
0100
0000
,  // measure 21
1000
0000
0000
0010
0000
0100
0001
0000
0010
0000
0001
0000
1000
0000
0100
0000
,  // measure 22
0001
0000
0000
0100
0000
1000
0010
0000
0100
0000
0001
0000
0010
0000
1000
0000
,  // measure 23
0010
0000
0000
0001
0000
0100
0010
0000
0100
0001
1000
0001
1000
0000
1001
0000
,  // measure 24
0010
0000
0100
0010
0000
0010
0000
0010
1000
0000
0001
0000
1000
0000
1001
0000
,  // measure 25
0001
0000
0010
0100
0000
0100
0000
0100
0010
0000
0001
0000
0100
0000
0110
0000
,  // measure 26
0010
0000
1000
0010
0000
0010
0000
0010
1000
0000
0001
0000
0100
0000
0110
0000
,  // measure 27
0001
0000
0010
0001
0000
0001
0000
0001
1000
0000
0001
0000
0020
0000
0000
0000
,  // measure 28
1000
0000
0000
0000
0000
0000
0000
0000
1030
0100
0010
0000
0200
0000
0000
0000
,  // measure 29
0010
0000
0000
0000
0000
0000
0000
0000
0301
0010
0100
0000
2000
0000
0000
0000
,  // measure 30
0001
0000
0000
0000
0000
0000
0000
0000
3010
0100
0001
0000
0020
0000
0000
0000
,  // measure 31
0001
0000
0000
0000
0000
0000
0000
0000
1030
0100
0010
0000
0100
0000
0000
1000
,  // measure 32
0100
0000
0000
1000
0000
1000
0000
0000
0001
0100
0010
0000
0100
0000
0000
0001
,  // measure 33
0100
0000
0000
0001
0000
0001
0000
0000
1000
0100
0010
0000
0100
0000
0000
1000
,  // measure 34
0001
0000
0000
1000
0000
1000
0000
0000
0001
1000
0010
0000
0100
0000
0000
0001
,  // measure 35
0010
0000
0000
0100
0000
0100
0000
0000
0010
0001
1000
0000
1001
0000
0000
0000
,  // measure 36
0010
1000
0100
1000
1010
0000
0101
0000
,  // measure 37
0010
0001
0100
0001
0011
0000
1100
0000
,  // measure 38
0100
0010
0001
1000
1001
0000
0110
0000
,  // measure 39
0010
0000
1000
0000
0001
0000
0100
0000
1010
0000
0000
0000
1100
1000
0100
0010
,  // measure 40
0001
0000
0010
0000
0100
0000
1000
0000
0001
0000
0010
0000
1000
0000
0010
0000
0001
0000
0100
0000
1000
0000
0100
0000
0001
0010
0000
0010
0100
0000
0100
1000
,  // measure 41
0000
1000
0001
0000
1000
0000
0001
0000
1000
0000
0000
0000
0000
0000
0000
0000
0000
0000
0000
0000
0100
0000
0000
0000
1000
0000
0000
0000
0000
0000
0000
0000
,  // measure 42
1000
0001
0000
0001
0100
0010
2000
0000
,  // measure 43
0000
0000
0000
0000
3001
0000
0010
0000
0011
0000
0001
0100
0000
0001
0100
0000
,  // measure 44
0010
0000
1000
0000
0100
0000
1000
0000
1100
0000
1000
0010
0000
1000
0010
0000
,  // measure 45
0100
0000
0001
0000
1000
0000
0001
0000
1001
0000
0001
0010
0000
0100
1000
0000
,  // measure 46
0100
0000
0010
0000
0100
0000
1000
0010
0000
0010
0100
0000
0001
0000
1000
0000
,  // measure 47
0001
0010
0100
0000
0010
0000
0001
0000
0101
0000
0010
0100
0000
0001
0100
0000
,  // measure 48
0010
0000
1000
0000
0100
0000
0010
0000
0110
0000
0100
1000
0000
0010
1000
0000
,  // measure 49
0001
0000
1000
0000
0010
0000
0100
0000
0110
0000
0010
1000
0000
0001
0100
0000
,  // measure 50
0001
0000
0010
0000
0001
0000
1000
0100
0000
0001
0100
0000
1000
0010
0000
0100
,  // measure 51
0001
1000
0001
0000
1000
0000
0100
0000
0100
0000
1000
0020
0000
0000
0130
0000
,  // measure 52
0001
0000
1000
0000
0001
0000
0010
0000
0010
0000
0100
2000
0000
0000
3001
0000
,  // measure 53
0100
0000
0010
0000
0100
0000
0001
0000
0001
0000
1000
0200
0000
0000
1300
0000
,  // measure 54
0010
0000
0100
0000
0010
0000
1000
0000
1000
0000
0001
0010
0100
0100
0100
0000
,  // measure 55
0110
0000
0001
0000
1000
0000
0010
2000
0000
0000
3001
0000
0010
0000
0001
0000
,  // measure 56
1000
0000
0100
0000
1000
0000
0010
0002
0000
0000
0013
0000
1000
0000
0100
0000
,  // measure 57
0010
0000
0001
0000
0100
0000
1000
0020
0000
0000
0130
0000
1000
0000
0010
0000
,  // measure 58
0100
0000
0100
0000
0001
0010
0100
2000
0000
0000
3001
0000
0010
0100
0010
0100
,  // measure 59
0010
0000
0011
0000
0100
0000
0100
0010
0000
0010
0000
0010
1000
0001
1000
0000
,  // measure 60
0100
0000
0110
0000
0100
0000
1000
0010
0000
0010
0000
1000
0001
1000
0100
0000
,  // measure 61
0010
0000
1010
0000
0100
0000
0001
0010
0000
0010
0000
0010
0001
1000
0001
0000
,  // measure 62
1000
0000
1100
0000
0001
0000
0100
0010
0000
1000
0000
0001
0100
0010
1000
0000
,  // measure 63
1001
0000
0000
0000
;

//---------------dance-single - ----------------
#NOTES:
     dance-single:
     :
     Challenge:
     16:
     0.874,0.994,0.411,0.115,1.000: // measure 1
0000
0000
0000
0000
,  // measure 2
0000
0000
0000
0000
,  // measure 3
0000
0000
0000
0000
,  // measure 4
0010
0100
0010
0100
0001
0010
0001
0010
0100
1000
0100
1000
0001
1000
0001
1000
,  // measure 5
0100
0000
0000
0000
0010
0000
0000
0000
0100
0000
0000
0000
0010
0000
0000
0000
0100
0000
0000
0000
1000
0000
0000
0000
0010
0000
0000
0000
0200
0000
0000
0000
0000
0320
0000
0000
0000
0000
0000
0000
0000
0000
0000
0000
0000
0000
0000
0000
1030
0000
0000
0000
0000
0000
0000
0000
0001
0000
0000
0000
0100
0000
0000
0000
,  // measure 6
0010
0000
0100
0001
0000
1000
0100
0000
0010
0100
1000
0000
0001
0000
1000
0001
,  // measure 7
0100
0000
0010
1000
0000
0001
1000
0000
0001
0010
0100
0000
0010
0000
0001
0100
,  // measure 8
0010
0000
1000
0100
0000
0010
0100
0000
1000
0010
0100
0000
0010
0000
1000
0010
,  // measure 9
0000
0000
0000
0000
0001
0000
0000
0000
0010
0000
0000
0000
0000
0000
0000
0000
1000
0000
0000
0000
0100
0000
0000
0000
0010
0000
0000
0000
0001
0000
0000
0000
2000
3001
0000
0000
0000
0000
0000
0000
0010
0000
0000
0000
0100
0000
0000
0000
1000
0000
0000
0000
0000
0000
0000
0000
0010
0000
0000
0000
0100
0000
0000
0000
,  // measure 10
0000
0010
1000
0000
0001
0100
0010
0000
1000
0000
0100
0010
0001
0000
0100
0010
,  // measure 11
0000
0100
0001
0000
1000
0001
0100
0000
0010
0000
0100
0001
1000
0000
0001
0010
,  // measure 12
0000
1000
0010
0000
0001
0100
0010
0000
1000
0000
0001
0100
0000
0100
0010
0000
,  // measure 13
1000
0000
0100
0000
0010
0000
0001
0000
1000
0000
0010
0000
0100
0000
0001
0000
1000
0000
0100
1000
0100
0000
1000
0000
1000
0000
0001
0100
0001
0000
1000
0000
,  // measure 14
0001
0010
0001
0010
0100
1000
0100
1000
,  // measure 15
0001
0010
1000
0010
0001
0100
1000
0100
,  // measure 16
0001
0000
1001
0000
0010
1000
0100
1000
0000
1000
0001
0000
1000
0100
0010
0000
,  // measure 17
0001
0000
1001
0000
0100
0010
1000
0010
0000
0010
0100
0000
0001
1000
0100
0000
,  // measure 18
1000
0000
1001
0000
1000
0100
0010
0001
0000
0001
0010
0000
0001
1000
0100
0000
,  // measure 19
1000
0000
0000
0000
1010
0000
0000
0000
0010
0000
0100
0000
0001
0000
1000
0000
0001
1000
0001
0100
0001
0000
0100
0000
0110
0000
0000
0000
0010
0000
1000
0000
,  // measure 20
0010
0000
1000
0100
0000
0010
0100
0000
1000
0100
0010
0001
0100
0000
0010
0100
,  // measure 21
0001
0000
0010
0001
0000
1000
0001
0000
0100
0010
1000
0001
0010
0000
0001
0100
,  // measure 22
0010
0000
0100
0001
0000
0100
0010
0000
1000
0100
0001
0100
1000
0000
0001
0100
,  // measure 23
0000
1000
0100
0000
0001
0010
1000
0010
0001
0100
1000
0100
0001
0000
1001
0000
,  // measure 24
0110
0000
0010
1000
0000
0001
0100
0001
0010
0100
0010
0000
0001
0000
1001
0000
,  // measure 25
0110
0000
1000
0010
0000
0100
0001
1000
0100
0010
0001
0000
1001
0000
1001
0000
,  // measure 26
0010
0000
1000
0010
0000
0001
0010
1000
0001
1000
0001
0000
0101
0000
0101
0000
,  // measure 27
0010
0000
0001
0010
0000
0100
1000
0100
0010
0100
1000
0000
0020
0000
0000
0100
,  // measure 28
1000
0000
0100
0000
0100
0000
0000
0130
0010
1000
0001
0000
2000
0000
0000
0100
,  // measure 29
0010
0000
0100
0000
0100
0000
0000
3100
0010
0001
1000
0000
0002
0000
0000
0100
,  // measure 30
0010
0000
0100
0000
1000
0000
0000
1003
0010
0100
0001
0000
0200
0000
0000
0010
,  // measure 31
0001
0000
1000
0000
1000
0000
0000
0301
1000
0001
0100
0000
0010
0100
0010
0100
,  // measure 32
0001
0000
1000
0100
0000
0100
0010
0100
1000
0001
0100
0000
0010
0100
0010
1000
,  // measure 33
0001
0000
1000
0100
0000
0100
1000
0001
0010
0100
1000
0000
0001
0010
0001
0010
,  // measure 34
0001
0000
1000
0010
0000
0010
1000
0001
0100
0010
1000
0000
0001
0100
0001
0100
,  // measure 35
1000
0100
1000
0100
0001
0010
0100
0010
0100
1000
0100
0010
0001
0000
0000
0000
,  // measure 36
1001
0010
1020
0000
0130
0000
1001
0000
,  // measure 37
1001
0100
0012
1000
0103
0000
1001
0000
,  // measure 38
0101
0010
1000
0100
0001
0100
1000
0010
,  // measure 39
0001
0000
0000
0000
0010
0000
0000
0000
1000
0000
0000
0000
0001
0000
0000
0000
1001
0000
0000
0000
0010
0000
0000
0000
1001
0000
1000
0100
1000
0000
0001
0100
,  // measure 40
0000
0100
0001
0000
1000
0000
0001
0010
0100
0000
0010
0001
0010
0000
0001
1000
0000
1000
0010
0000
1000
0000
0001
1000
0100
1000
0100
1000
0001
0010
0001
0010
,  // measure 41
0001
0100
0010
1000
0001
0010
0100
1000
0001
0000
0000
0000
0000
0000
0000
0000
1000
0000
0000
0000
0100
0000
0000
0000
0001
0000
0000
0000
0000
0000
0000
0000
,  // measure 42
0100
1000
0000
0001
0100
1000
0020
0000
,  // measure 43
0000
0000
0000
0000
0130
0000
0010
0001
0100
0000
0010
1000
0000
0001
1000
0100
,  // measure 44
1000
0100
0010
0000
0100
0000
1000
0010
0100
0000
0010
1000
0000
0001
0010
0001
,  // measure 45
1000
0100
0010
0000
0100
0000
0010
0001
0100
0000
0010
1000
0000
0001
0010
0001
,  // measure 46
1000
0010
0100
0010
1000
0000
0001
0100
0000
1000
0100
0000
0001
0010
0100
0010
,  // measure 47
0001
0001
0100
0000
0110
0000
0001
1000
0010
0000
1000
0100
0000
0001
0100
1000
,  // measure 48
0001
1000
0010
0000
0100
0000
0001
0010
0100
0000
0010
0001
0000
1000
0010
0001
,  // measure 49
0010
1000
0001
0000
1000
0000
0100
1000
0100
0000
0010
0001
0000
0100
0010
0100
,  // measure 50
0001
0010
0100
0000
1000
0000
0100
0001
0000
0100
1000
0000
0001
0100
0010
1000
,  // measure 51
0010
0010
0100
0010
0110
0000
1010
0000
1000
0010
0100
0001
0000
1000
0100
0000
,  // measure 52
0001
0100
1000
0000
0110
0000
0011
0000
0001
0010
0100
1000
0000
0001
0100
0000
,  // measure 53
1000
0100
0001
0000
0110
0000
0101
0000
1000
0100
0010
0001
0000
1000
0010
0000
,  // measure 54
0001
0000
0010
0000
1000
0000
0000
0000
0110
0000
0000
0000
1100
0000
0000
0000
0001
0000
0100
0000
0010
0000
1000
0000
0001
0010
0100
1000
0001
0000
1000
0000
,  // measure 55
1001
0000
0101
0000
1000
0010
0100
0020
0000
1030
0100
0000
0010
0100
0001
0000
,  // measure 56
1001
0000
0011
0000
0001
0010
0100
0020
0000
0031
0100
0000
0010
0100
0001
0000
,  // measure 57
1001
0000
1100
0000
1000
0001
0100
0002
0000
1003
0010
0000
0100
0001
1000
0000
,  // measure 58
1001
0000
1010
0000
0001
0100
0010
2000
0000
3001
0010
0000
1000
0100
0010
0010
,  // measure 59
0001
0000
1001
0000
0101
0000
0001
0010
0000
1000
0010
0001
0100
0010
1000
0001
,  // measure 60
1000
0000
1001
0000
1100
0000
1000
0010
0000
0001
0010
1000
0001
0100
0010
1000
,  // measure 61
1001
0000
0110
0000
0101
0000
1000
0010
0000
0100
0001
0010
1000
0010
0001
0100
,  // measure 62
0110
0000
1001
0000
0101
0000
0001
0010
0000
1000
0010
0001
0100
1000
0001
1000
,  // measure 63
1001
0000
0000
0000
;
