#TITLE:overcomplexification;
#SUBTITLE:;
#ARTIST:かめりあ;
#TITLETRANSLIT:;
#SUBTITLETRANSLIT:;
#ARTISTTRANSLIT:Camellia;
#GENRE:;
#CREDIT:;
#MENUCOLOR:;
#METERTYPE:DDR;
#BANNER:overcomplexification.png;
#BACKGROUND:overcomplexification-bg.png;
#LYRICSPATH:;
#CDTITLE:./CDTITLES/JUBEAT.PNG;
#MUSIC:overcomplexification.ogg;
#OFFSET:0.000;
#SAMPLESTART:88.421;
#SAMPLELENGTH:14.980;
#SELECTABLE:YES;
#LISTSORT:;
#BPMS:0.000=95.000,20.000=190.000,44.000=95.000,48.000=190.000,208.000=95.000,216.000=190.000,232.000=95.000,236.000=190.000,308.000=95.000;
#STOPS:;
#BGCHANGES:;
#ATTACKS:;

//---------------dance-single - ----------------
#NOTES:
     dance-single:
     :
     Beginner:
     3:
     0.102,0.164,0.025,0.017,0.000:
0000
0000
0000
0000
,
0000
0000
0000
0000
,
0000
0000
0000
0000
,
0000
0000
0000
0000
,
0000
0000
0000
0000
,
0100
0000
0000
0000
,
0000
0000
0000
0000
,
0010
0000
0000
0000
,
0000
0000
0000
0000
,
1000
0000
0000
0000
,
0000
0000
0000
0000
,
0001
0000
0000
0000
,
1000
0000
0000
0000
,
1000
0000
0000
0000
,
0001
0000
0000
0000
,
0001
0000
0000
0000
,
0100
0000
0000
0000
,
0100
0000
0000
0000
,
0010
0000
0000
0000
,
0010
0000
0000
0000
,
1001
0000
0000
0000
,
1000
0000
0000
0000
,
0001
0000
0000
0000
,
0100
0000
0000
0000
,
0010
0000
0000
0000
,
1001
0000
0000
0000
,
0100
0000
0000
0000
,
0010
0000
0000
0000
,
0100
0000
0000
0000
,
1000
0000
0000
0000
,
0001
0000
0000
0000
,
0100
0000
0000
0000
,
0010
0000
0000
0000
,
0100
0000
0000
0000
,
0001
0000
0000
0000
,
1000
0000
0000
0000
,
0001
0000
0000
0000
,
1000
1000
1000
0000
,
0001
0000
0000
0000
,
0010
0010
0010
0000
,
0100
0000
0000
0000
,
0010
0010
0010
0000
,
0001
0000
0000
0000
,
1000
0000
0000
0000
,
0020
0000
0000
0000
,
0000
0000
0000
0030
,
0000
0100
0000
0100
,
0000
0100
0000
0100
,
0200
0000
0000
0000
,
0000
0000
0000
0300
,
0000
0001
0000
0001
,
0001
0000
0000
0000
,
1000
0000
0000
0000
,
0001
0000
0000
0000
,
0010
0000
0000
0000
,
0000
0000
0000
0000
,
0010
0000
0000
0000
,
0000
0000
0000
0000
,
0110
0000
0000
0000
,
0000
0000
0000
0000
,
0000
0000
0000
0000
,
0000
0001
0000
0001
,
0000
0001
0000
0000
,
0000
1000
0000
1000
,
0000
1000
0000
0000
,
0000
0010
0000
0010
,
0000
0010
0000
0000
,
0000
0100
0000
0100
,
0100
0000
0000
0000
,
0001
0000
0000
0000
,
1000
0000
0000
0000
,
0100
0000
0000
0000
,
0010
0000
0000
0000
,
0100
0000
0000
0000
,
1000
0000
0000
0000
,
0001
0000
0000
0000
,
1000
1000
1000
0000
,
0001
0000
0000
0000
,
0100
0000
0000
0010
;

//---------------dance-single - ----------------
#NOTES:
     dance-single:
     :
     Easy:
     7:
     0.331,0.395,0.250,0.175,0.000:
0000
0000
0000
0000
,
0000
0000
0000
0000
,
0000
0000
0000
0000
,
0000
0000
0000
0000
,
0000
0000
0000
0000
,
0001
0001
0001
0001
,
0001
0001
0001
1000
,
0010
0010
0010
0010
,
0100
0100
0001
0000
,
1000
0100
1000
0100
,
0010
0001
0010
0001
,
2000
0000
0001
3001
,
1001
0000
0010
0100
,
0100
0010
0100
0000
,
0001
0000
0000
0000
0011
0000
0000
1001
,
0000
1100
1001
0000
,
0110
0000
0010
0100
,
0100
0010
0100
0000
,
0001
0001
0001
1000
,
0001
0001
1000
0000
,
1001
0000
0100
0010
,
0100
0100
1000
0001
,
0200
0000
0000
0000
0310
0000
0000
0110
,
0000
1001
0010
0100
,
0010
0010
0100
0100
,
0001
0001
2000
3000
,
0002
0000
0000
0000
,
2000
0000
3003
0000
,
0210
0000
0000
0000
0000
0000
0000
0301
,
0000
0000
0000
1000
,
2100
0000
0000
0000
0000
0000
0000
3010
,
0000
0000
0000
0100
,
0120
0000
0000
0000
0000
0000
0000
1030
,
0000
0000
0000
0001
,
1000
0000
0000
1001
0000
1000
0000
0000
,
0001
0000
0000
1001
0000
0001
0000
0000
,
1000
0000
0010
0100
,
0001
0010
0100
0000
,
0010
0000
0001
1000
,
0010
0100
0001
1000
,
0100
0000
1000
0100
,
0010
0100
1000
0000
,
0001
0000
0000
1001
0000
0001
0000
0000
,
1000
0000
0000
1001
0000
1000
0000
0000
,
0020
0100
0000
0100
,
0000
0100
0000
0130
,
0000
0001
0000
1000
,
0000
0001
0000
1000
,
0200
0010
0000
0010
,
0000
0010
0000
0310
,
0000
0001
0000
1000
,
0010
0000
0110
0000
,
2001
0010
0010
3010
,
0002
1000
0010
0013
,
0001
0001
0100
0100
,
0010
0010
1000
1000
,
0001
0010
0100
1000
,
0010
0000
0000
0110
0000
0000
1001
0000
,
0220
0000
0000
0330
,
1001
0000
0000
0000
,
0100
0000
0000
0100
0000
0000
0100
0000
,
0010
0010
1000
1000
,
0001
0001
0100
0100
,
0001
0001
0010
0010
,
0100
0100
1000
0100
,
1000
1000
0010
0010
,
0100
0100
0001
0001
,
1000
0100
0001
0100
,
1000
0010
0001
0010
,
1000
1001
0001
1001
,
1000
1001
0010
0100
,
0001
0010
0100
1000
,
0100
0100
0010
0001
,
0100
0110
0010
0110
,
0100
0110
2002
3003
,
0001
0001
1000
1000
,
0010
0100
0010
0000
0220
0000
0330
0000
,
0002
0000
0000
1000
0000
0000
0013
0000
,
2000
0000
0000
0001
0000
0000
3020
0000
,
0030
0000
0000
0000
;

//---------------dance-single - ----------------
#NOTES:
     dance-single:
     :
     Medium:
     10:
     0.457,0.526,0.216,0.216,0.087:
0000
0000
0000
0000
,
0000
0000
0000
0000
,
0000
0000
0000
0000
,
0000
0000
0000
0000
,
0000
0000
0000
0000
,
0010
0010
0010
0010
,
0010
0000
0010
0000
0010
0000
0010
0100
,
0001
0001
0001
0001
,
1000
0001
1000
0000
0002
0000
0003
0000
,
1000
0100
1000
0000
0001
0100
0001
0000
,
1000
0010
1000
0000
0001
0010
0001
0000
,
2002
0000
0000
0000
3003
0000
0000
0000
0100
0000
0000
0100
0000
0000
0110
0000
,
1001
0000
0000
0001
0010
0000
0001
0000
,
0001
0100
0001
0000
0010
0000
0001
0000
,
1000
0000
0001
1000
0010
0000
1000
0100
,
0000
0010
0001
0000
1000
0000
0001
0000
,
1001
0000
0000
1000
0100
0000
1000
0000
,
1000
0010
1000
0000
0010
0000
0100
0000
,
0001
0001
0001
0000
0001
0000
1000
1000
,
1000
1000
0020
0130
,
1001
0000
0000
0001
0100
0000
0001
0000
,
0001
0010
0100
0000
0010
0000
0001
0000
,
2000
0000
0000
0000
3001
0000
1000
0001
,
0000
1000
0100
0000
0010
0001
1000
0000
,
0010
1001
0100
1001
,
0010
0000
0000
0000
1001
0000
0000
0000
0001
0000
0000
1000
0000
0000
0001
0000
,
2000
0000
0000
0000
,
3002
0000
1003
0000
,
0200
0000
0000
0310
0100
1000
0001
1000
,
0000
0000
0001
0001
,
2000
0000
3010
0200
0000
0301
0010
0100
,
0000
0000
0010
0001
,
0020
0000
0000
0130
0010
0001
1000
0001
,
0000
0000
1000
1000
,
0020
0000
0130
0001
0000
1001
0000
0001
,
0020
0000
0130
1000
0000
1001
0000
1000
,
0010
0000
0100
0001
0100
0000
0001
0010
,
0001
0001
1000
0001
,
1000
0000
1000
0100
0010
0000
0100
1000
,
0000
0001
1000
0000
0010
0100
0001
0000
,
1000
0000
0010
1000
0010
0000
0100
0001
,
0100
0100
0001
0010
,
0001
0000
0010
0002
0000
1003
0000
1000
,
0010
0000
1000
0002
0000
1003
0000
1000
,
0200
0010
0000
0010
,
0000
0010
0000
0310
,
0000
0001
0100
0010
,
1000
0000
0000
1000
0000
0000
0001
0000
0000
1000
0001
1000
,
0020
0100
0000
0100
,
0000
0100
0000
0130
,
0000
0001
0010
0100
,
1000
0001
0220
0330
,
0010
0000
0000
0000
0010
0000
0000
0000
0010
0000
0000
0000
0010
0100
0001
0000
,
1000
0000
0000
0000
1000
0000
0000
0000
0001
0001
0001
0000
1000
0000
0000
0000
,
0001
0100
0010
0000
1000
0100
0010
0000
,
0001
0100
1000
0000
1000
0100
0001
0000
,
0100
0110
0010
0110
,
0001
0000
0000
1000
0000
0000
0001
0000
0000
1001
0000
0000
1000
0000
0010
0000
,
0200
0000
0000
0000
,
0310
0000
0000
0000
,
0100
0000
0000
0100
0000
0000
1001
0000
,
0001
0000
0000
0100
0000
0000
0001
0000
0010
0000
0000
0000
0011
0000
0000
0000
,
1000
0000
0000
0100
0000
0000
1000
0000
0010
0000
0000
0000
1010
0000
0000
0000
,
0010
0000
0000
0100
0000
0000
0001
0000
1000
0000
0000
0000
0110
0000
0000
0000
,
0001
0000
0000
0100
0000
0000
0001
0000
0010
0000
0000
0000
0001
0000
1000
0000
,
0010
0000
0000
1000
0000
0000
0100
0000
0010
0000
0000
0000
1100
0000
0000
0000
,
0100
0000
0000
1000
0000
0000
0010
0000
0001
0000
0000
0000
0110
0000
0000
0000
,
0010
0000
0000
0100
0000
0000
0001
0000
0010
0000
0000
1000
0000
0000
0010
0000
,
0001
0000
0000
1000
0000
0000
0100
0000
0001
0000
0100
0000
1000
0000
0000
0000
,
0001
0100
0001
0000
1000
0100
1000
0000
,
0001
0010
0001
0000
1000
0000
1010
0000
,
0010
1000
0100
0000
0010
0001
0100
0000
,
0010
0100
0001
1000
0001
0000
1000
0000
,
0001
0000
0000
1001
0000
0000
1000
0000
0010
0000
0000
0110
0000
0000
0010
0000
,
0100
0000
0000
0100
0000
0000
0100
0000
2002
0000
0000
0000
3003
0000
0000
0000
,
0001
0010
1000
0000
1000
0010
0001
0000
,
0100
0000
0000
0110
0000
0000
2001
0000
0000
0000
0000
0000
3010
0000
0000
0000
,
2000
0000
0000
0100
0000
0000
3001
0000
,
0002
0000
0000
0010
0000
0000
2003
0000
,
3000
0000
0000
0000
;

//---------------dance-single - ----------------
#NOTES:
     dance-single:
     :
     Hard:
     14:
     0.636,0.756,0.475,0.291,0.283:
0000
0000
0000
0000
,
0000
0000
0000
0000
,
0000
0000
0000
0000
,
0000
0000
0000
0000
,
0000
0000
0000
0000
,
0010
0010
0010
0010
,
0100
0000
0100
0000
0100
0000
0100
0001
,
1000
1000
1000
1000
,
0001
0010
0100
0000
2002
0000
3003
0000
,
1000
0010
1000
0010
0100
0001
0100
0001
,
1000
0000
0100
0000
1000
0000
0100
0000
0010
0000
0001
0000
1000
0001
1000
0001
,
2000
0000
0000
0000
0000
0000
0000
0000
3010
0000
0000
0110
0000
0000
1001
0000
,
0110
0000
0000
0100
0001
0000
0100
0010
,
0100
0001
0100
0100
0010
1000
0100
0010
,
0100
0000
1000
0000
0001
0000
1000
0001
0010
0000
0000
0000
0001
1000
0010
0000
,
0000
0000
1000
0001
0100
0000
0001
0000
1000
0000
0001
0000
0110
0000
0001
0000
,
0100
0000
0000
0100
0010
0000
0100
0010
,
0100
1000
0100
0100
0010
1000
0100
0000
,
0010
0010
0010
0000
1001
0000
0100
0100
,
0100
1001
0210
0301
,
0100
0000
0000
0100
0010
0000
0100
0001
,
0100
0000
0010
0000
0100
0000
0100
0000
0001
0000
0010
0000
0100
0000
0010
0001
,
2000
0000
0000
0000
0000
0000
0000
0000
3001
0000
0000
0000
1000
0001
0010
0000
,
0000
0000
0001
1000
0010
0000
1000
0000
0001
0000
1000
0000
0110
0000
0001
0000
,
0010
1001
0100
1001
,
0010
0000
0000
0000
1001
0000
0000
0000
0110
0000
0000
1010
0000
0000
0011
0000
,
2000
0000
0000
0000
,
3002
0000
1003
0000
,
2001
0000
0000
0000
0000
0000
3010
1000
0010
0000
0100
0000
0001
0000
2000
0000
,
0000
0001
0001
3001
,
0210
0000
0000
0000
0301
0000
0020
0000
0000
0000
0130
1000
0100
0000
0020
0000
,
0000
0001
0100
1030
,
1002
0000
0000
0000
0000
0000
1003
0010
1000
0000
0001
0000
0100
0000
0002
0000
,
0000
1000
1000
1003
,
1100
0000
0001
0010
0001
0000
2000
0000
0000
0000
3001
0000
0000
0000
1000
0100
,
1000
0000
0001
0100
0001
0000
0020
0000
0000
0000
0031
0000
0000
0000
1000
0100
,
1000
0000
0100
1000
0010
0000
0100
1000
,
0100
0010
0100
0100
0001
0010
0100
0000
,
0020
0000
0000
0000
0031
0000
2000
0000
0000
0000
3010
0100
0010
0000
0100
0000
,
0000
0000
0100
0000
0010
0000
0000
0100
0010
0000
1000
0000
0001
0000
0000
0000
,
1001
0000
1000
0100
0010
0000
0100
0010
,
0100
0001
0100
0100
0010
0100
1000
0000
,
0010
0000
0100
0001
0100
0000
0002
0000
0000
0000
1003
0000
0000
0000
0010
1000
,
0010
0000
1000
0100
1000
0000
0020
0000
0000
0000
0130
0000
0000
0001
1000
0001
,
2000
0100
0001
0100
,
0010
0001
0010
3001
,
1000
0000
0000
1000
0100
0000
0000
0000
1000
0000
0000
1000
0010
0000
0000
0000
,
1000
0000
0000
0000
0000
0000
0000
0000
0000
1000
0000
0000
0001
0000
0000
0000
0000
0000
0000
0000
0000
0001
0000
0000
1000
0000
0000
0000
0000
0000
0000
0000
0000
0000
0000
0000
0001
0000
0000
0000
1000
0000
0000
0000
0001
0000
0000
0000
,
0020
0001
0100
1000
,
0100
0001
1000
0031
,
0100
0000
0000
0100
0010
0000
0000
0000
0100
0000
0000
0100
0001
0000
0000
0000
,
1000
0000
0100
1000
0000
0001
0100
0000
0220
0000
0000
0000
0330
0000
0000
0000
,
0010
0000
0000
0000
0010
0000
0000
0000
0010
0000
0000
0000
0100
0010
1000
0000
,
0001
0000
0000
0000
0000
0000
0000
0000
0000
0000
0000
0000
0001
0000
0000
0000
0000
0000
0000
0000
0000
0000
0000
0000
1000
0000
0000
1000
0000
0000
1000
0000
0000
0000
0000
0000
2002
0000
0000
0000
3003
0000
0000
0000
0000
0000
0000
0000
,
1000
0100
1000
0100
0001
0100
0001
0100
,
1000
0010
1000
0010
0001
0010
0001
0010
,
1000
1001
0110
0101
,
1100
0000
0001
0010
0000
0000
1001
0000
1000
0001
0000
0000
0110
0000
0100
0000
,
2002
0000
0000
3003
,
0220
0000
0000
0330
,
0010
0000
0000
0100
0000
0000
0110
0000
,
1001
0000
0000
0001
0100
0000
0001
0000
0010
0000
0000
0000
0011
0000
0000
0000
,
1100
0000
0000
0100
1000
0000
0010
0000
0100
0000
0000
0000
1010
0000
0000
0000
,
0110
0000
0000
0010
0100
0000
0010
0000
1000
0000
0000
0000
1100
0000
0000
0000
,
1001
0000
0000
0001
0100
0000
0001
0000
0010
0000
0000
0001
1000
0001
0100
0000
,
1010
0000
0000
0010
1000
0000
0010
0000
0100
0000
0000
0000
1010
0000
0000
0000
,
1100
0000
0000
0100
1000
0000
0100
0000
0010
0000
0000
0000
0110
0000
0000
0000
,
0011
0000
0001
0010
0000
0001
0100
0000
0010
0000
1000
0010
0000
1000
0100
0000
,
1000
0000
0001
1000
0000
0001
0100
0000
0010
0000
0000
0100
0001
1000
0001
0000
,
1000
0100
0010
0100
1000
0100
0010
0100
,
1000
0000
0010
0000
0001
0000
0010
0000
0100
0000
0000
0100
0010
0000
0100
0000
,
0001
0000
1000
0010
0000
1000
0001
0000
1000
0000
0000
0000
1010
0000
0000
0000
,
0100
0000
0010
0100
0000
0100
0001
0000
1000
0000
0000
0001
1000
0001
0100
0000
,
1001
0000
0000
1100
0000
0000
0011
0000
1001
0000
0000
1010
0000
0000
0101
0000
,
0010
0100
0000
0100
0000
0100
0010
0000
2002
0000
0000
0000
3003
0000
0000
0000
,
1100
0100
0100
0100
0101
0100
0100
0100
,
1010
0000
0000
0011
0000
0000
1100
0000
0000
0101
0000
0000
0001
0000
1000
0000
,
0002
0000
0000
1000
0000
0000
0013
0000
,
2000
0000
0000
0001
0000
0000
3200
0000
,
0300
0000
0000
0000
;

//---------------dance-single - ----------------
#NOTES:
     dance-single:
     :
     Challenge:
     17:
     0.917,1.000,0.391,0.383,0.874: // measure 1
0000
0000
0000
0000
,  // measure 2
0000
0000
0000
0000
,  // measure 3
0000
0000
0000
0000
,  // measure 4
0000
0000
0000
0000
,  // measure 5
0000
0000
0000
0000
,  // measure 6
1010
0010
0010
0010
,  // measure 7
0100
0000
0100
0000
0100
0001
1000
0000
,  // measure 8
0011
0010
0010
0010
,  // measure 9
0001
0000
0001
0000
2000
0000
0000
0000
3001
0010
0100
1000
0002
0000
0000
0000
,  // measure 10
1003
0010
1000
0000
0001
0010
0001
0000
1000
0100
1000
0000
0001
0100
0001
0000
,  // measure 11
1000
0010
1000
0010
0100
0001
0100
0001
1000
0100
1000
0100
0010
0001
0010
0001
,  // measure 12
2000
0000
0000
0000
0000
0000
3020
0000
0000
0000
0000
0000
0230
0000
0000
0000
0301
0010
0100
1000
0001
0000
1000
0010
0100
0001
1000
0000
1001
0000
0000
0000
,  // measure 13
0210
0000
0301
0100
1010
0000
1000
0010
,  // measure 14
0100
0001
0100
0100
0010
1000
0001
0100
,  // measure 15
0001
0000
1000
0000
0100
0000
1000
0001
0010
0001
0010
0001
1000
0000
0010
1000
,  // measure 16
0010
1000
0001
0000
1000
0010
1000
0010
0100
0000
0001
0000
1000
0000
0010
0000
,  // measure 17
0210
0000
0301
0100
1010
0000
1000
0010
,  // measure 18
0100
0001
0100
0100
0010
1000
0010
0100
,  // measure 19
0110
0110
0110
0000
0101
0000
0110
0110
,  // measure 20
0110
0000
0000
0000
1010
0000
0000
0000
0001
0010
0100
1000
0001
1000
0100
0000
,  // measure 21
0110
0000
0001
1000
0100
0000
1000
0000
1010
0000
0001
1000
0100
1000
0001
0000
,  // measure 22
0100
0000
1010
0000
0100
0000
0100
0000
1010
0000
0001
0010
0001
0100
0010
0000
,  // measure 23
0210
0000
0000
0000
0000
0000
0000
0000
0301
0100
0010
0100
0001
0000
1000
0010
,  // measure 24
0100
0010
1000
0000
0001
0010
0100
0010
0001
0000
0001
0000
1000
0000
1000
0000
,  // measure 25
0010
1001
0100
1001
,  // measure 26
0110
0000
0000
0000
0101
0000
0000
0000
1010
0000
0000
1001
0000
0000
1100
0000
,  // measure 27
0010
0010
0010
0010
2000
0000
3002
0000
,  // measure 28
2003
0000
3200
0000
0310
0100
1000
0010
,  // measure 29
0210
0000
0000
0000
0301
0000
1000
0100
1000
0000
0001
0000
0010
0000
0002
0000
,  // measure 30
0000
0000
0000
0000
1003
0010
1000
0010
1000
0000
0001
0000
0010
0100
0010
0001
,  // measure 31
2000
0000
0000
0000
3010
0000
1000
0001
1000
0000
0001
0000
0100
0000
0020
0000
,  // measure 32
0000
0000
0130
0000
0001
0100
0001
0100
0001
1000
0001
1000
0001
0010
0100
1000
,  // measure 33
0002
0000
0000
0000
0013
0000
0001
1000
0001
0000
0100
0000
0001
0000
2000
0000
,  // measure 34
0000
0000
0000
0000
3010
0000
0000
0010
0100
0001
0000
0001
1000
0000
0001
1000
,  // measure 35
0001
0000
0010
0000
0100
0000
1000
0001
0010
0000
0001
0000
0000
0000
0001
0100
,  // measure 36
0001
0000
1000
0000
0010
0000
1000
0001
0100
0000
0001
0000
0000
0000
0001
0000
,  // measure 37
2001
0000
3010
0100
1010
1000
0100
1010
,  // measure 38
0100
0000
1010
0000
0100
0000
0100
0000
1010
0000
0100
0000
0001
1000
0001
0100
,  // measure 39
0002
0000
0000
0000
0013
0000
0001
1000
0010
0000
1000
0000
0100
0000
0010
0000
,  // measure 40
0000
0000
0010
0000
0100
0000
0000
1000
0010
0000
0100
0000
0010
1000
0001
1000
,  // measure 41
0200
0000
0310
0001
1001
0010
0100
1001
,  // measure 42
0100
1001
0100
0100
1001
0010
0100
0010
,  // measure 43
0012
0000
0000
0000
1003
0000
0200
0000
0000
0000
0301
0000
0100
1000
0001
1000
,  // measure 44
0200
0000
0000
0000
1300
0000
0020
0000
0000
0000
0031
0000
0010
1000
0001
1000
,  // measure 45
0200
1000
0310
0200
,  // measure 46
1000
0000
0010
0000
0320
0000
0000
0000
0130
0000
1000
0000
0001
1000
0000
0001
,  // measure 47
0100
0000
0001
0000
1000
0100
0000
0100
0010
0000
0100
0000
1000
0001
0000
0001
,  // measure 48
0100
0000
0000
0000
0000
0000
0001
0000
0000
0000
0000
0000
1000
0000
0000
0001
0000
0000
0000
0000
0000
0001
0000
0000
0010
0000
0000
0000
0000
0000
0001
0000
0000
0000
0000
0000
1000
0000
0000
0000
0001
0000
0000
0000
1000
0000
0000
0000
,  // measure 49
0020
0001
0130
0020
,  // measure 50
0001
0000
0100
0000
0230
0000
0000
0000
0310
0000
0001
0000
1000
0001
0000
1000
,  // measure 51
0010
0000
1000
0000
0001
0010
0000
0010
0100
0000
1000
0000
0010
0100
0000
0100
,  // measure 52
0001
0000
1000
0000
0001
0100
0000
0100
1000
0000
0100
0000
0020
0000
0000
0000
,  // measure 53
2030
0000
0000
0000
3100
0000
0001
0000
0010
0100
0001
0000
0010
0100
1000
0000
,  // measure 54
0002
0000
0000
0000
0103
0000
1000
0000
1010
0010
0010
0000
0220
0000
0330
0000
,  // measure 55
1010
0000
0010
0000
1000
0000
0010
1000
0001
0000
0010
0001
1000
0000
0001
0000
,  // measure 56
0011
0000
0010
0000
0001
0000
0010
0001
1000
0000
0010
1000
0001
0000
1000
0000
,  // measure 57
0001
0000
0100
0001
0010
0000
0100
1000
0010
0000
0100
0001
0010
0000
0100
0010
,  // measure 58
0001
0000
1000
0100
0000
0001
0100
0000
1000
0010
0000
0001
0010
1000
0001
1000
,  // measure 59
0002
0000
0000
0000
,  // measure 60
1000
0000
0000
0100
0000
0000
0010
0000
0010
0000
0000
1000
0000
0000
0100
0000
,  // measure 61
0013
0000
0001
1000
0100
0000
0010
0000
0001
1000
0010
0000
1001
0000
0000
0000
,  // measure 62
1010
0000
0001
0100
0000
0001
0100
0001
0010
0000
0001
1000
0000
0001
1000
0100
,  // measure 63
1000
0000
0100
0010
0000
0100
1000
0100
0010
0000
0100
1000
0000
0010
1000
0010
,  // measure 64
0100
0000
0010
1000
0000
0001
1000
0100
1000
0000
0001
1000
0000
0001
0010
0001
,  // measure 65
0100
0000
0010
1000
0000
0010
0100
0010
1000
0000
0001
0010
0100
1000
0100
0010
,  // measure 66
0001
0000
0010
0001
0000
0010
0100
0010
0001
0000
0100
0010
0000
0100
0001
0100
,  // measure 67
0010
0000
1000
0010
0000
1000
0001
1000
0010
0000
1000
0100
0000
0010
0100
1000
,  // measure 68
0100
0000
0001
0100
0000
1000
0100
0001
0100
0000
1000
0010
0000
0001
0010
1000
,  // measure 69
0010
0000
0100
0001
0000
1000
0001
0100
0001
0000
1000
0001
1000
0010
0100
0001
,  // measure 70
1000
0000
0100
1000
0000
0100
0010
0001
1000
0000
0010
0100
0000
0010
1000
0001
,  // measure 71
0100
0000
0001
0010
0000
0001
0100
0010
1000
0000
0001
0010
0000
0100
0010
0001
,  // measure 72
2000
0000
3010
0100
0000
0010
1000
0010
0100
0000
0001
0010
0000
0001
1000
0001
,  // measure 73
0100
0000
0001
0010
0000
0100
0010
0001
1000
0000
0001
0010
0100
1000
0100
0010
,  // measure 74
0001
0000
0100
0001
0000
0100
1000
0100
0010
0000
1000
0100
0000
0001
0100
0010
,  // measure 75
0100
0100
0000
1000
0000
1000
0010
0000
0220
0000
0000
0000
0330
0000
0000
0000
,  // measure 76
1010
0000
0010
1000
0100
0000
0010
0001
0100
0000
0010
1000
0100
0000
0010
0001
,  // measure 77
1000
0100
0010
0001
0100
0010
1000
0010
0100
0001
0010
0100
0010
0000
0010
0000
,  // measure 78
2001
0000
0010
0000
0100
0000
3002
0000
0100
0000
0013
0001
1000
0001
0200
0000
,  // measure 79
0320
0000
0000
0000
1000
0000
0000
0000
0100
0000
0000
0000
2030
0000
0000
0000
0100
0000
0000
0000
3001
0000
0100
0000
0010
1000
0001
1000
0020
0000
0000
0000
,  // measure 80
0030
0000
0000
0000
;
