#TITLE:invoker (The Requiem's Gram Remix);
#SUBTITLE:;
#ARTIST:Caladborg;
#TITLETRANSLIT:;
#SUBTITLETRANSLIT:;
#ARTISTTRANSLIT:;
#GENRE:;
#CREDIT:;
#MENUCOLOR:;
#METERTYPE:DDR;
#BANNER:invoker (The Requiem's Gram Remix).png;
#BACKGROUND:invoker (The Requiem's Gram Remix)-bg.png;
#LYRICSPATH:;
#CDTITLE:./CDTITLES/NONE.PNG;
#MUSIC:invoker (The Requiem's Gram Remix).ogg;
#OFFSET:0.000;
#SAMPLESTART:12.000;
#SAMPLELENGTH:15.000;
#SELECTABLE:YES;
#LISTSORT:;
#BPMS:0.000=200.000;
#STOPS:174.500=0.300
,206.000=0.150
,221.500=0.150
,381.000=0.150
,396.500=0.150
;
#BGCHANGES:;
#ATTACKS:;

//---------------dance-single - ----------------
#NOTES:
     dance-single:
     :
     Beginner:
     5:
     0.148,0.238,0.031,0.000,0.000: // measure 1
0000
0000
0000
0000
,  // measure 2
0000
0000
0000
0000
,  // measure 3
0000
0000
0000
0000
,  // measure 4
0000
0000
0000
0000
,  // measure 5
0000
0000
0000
0000
,  // measure 6
0000
0000
0000
0000
,  // measure 7
0000
0000
0000
0000
,  // measure 8
0000
0000
0000
0000
,  // measure 9
0000
0000
0000
0000
,  // measure 10
0000
0000
0000
0000
,  // measure 11
0010
0000
0000
0000
,  // measure 12
0010
0000
0000
0000
,  // measure 13
0100
0000
0000
0000
,  // measure 14
0100
0000
0000
0000
,  // measure 15
0001
0000
0000
0000
,  // measure 16
0001
0000
0000
0000
,  // measure 17
1000
0000
0000
0000
,  // measure 18
1000
0000
0000
0000
,  // measure 19
0000
0010
0000
0010
,  // measure 20
0000
0010
0000
0010
,  // measure 21
0000
0010
0000
0010
,  // measure 22
0000
0010
0010
0000
,  // measure 23
0000
0100
0000
0100
,  // measure 24
0000
0100
0000
0100
,  // measure 25
0000
0100
0000
0100
,  // measure 26
0100
0000
0000
0000
,  // measure 27
0001
0000
0001
0000
,  // measure 28
0001
0000
0001
0000
,  // measure 29
0001
0000
0001
0000
,  // measure 30
0001
0001
0001
0000
,  // measure 31
1000
0000
1000
0000
,  // measure 32
1000
0000
1000
0000
,  // measure 33
1000
0000
1000
0000
,  // measure 34
1000
1000
1000
0000
,  // measure 35
0010
0000
0000
0000
,  // measure 36
0100
0000
0000
0000
,  // measure 37
0010
0000
0000
0000
,  // measure 38
1000
0000
0000
0000
,  // measure 39
0001
0000
0000
0000
,  // measure 40
0010
0000
0000
0000
,  // measure 41
0100
0000
0000
0000
,  // measure 42
1000
0000
0000
0000
,  // measure 43
0010
0000
0000
0000
,  // measure 44
0010
0000
0000
0100
,  // measure 45
0000
0000
0000
0100
,  // measure 46
0000
0000
0000
0001
,  // measure 47
0000
0000
0000
0001
,  // measure 48
0000
0000
0000
1000
,  // measure 49
0000
0000
0000
1000
,  // measure 50
0000
0000
0000
0001
,  // measure 51
0000
0001
0000
0001
,  // measure 52
0000
0000
0000
0000
0000
1000
0000
0000
,  // measure 53
0000
1000
0000
0000
0000
1000
0000
0000
,  // measure 54
0000
0000
0000
0000
0000
0000
0000
0010
,  // measure 55
0000
0000
0000
0010
0000
0000
0000
0010
,  // measure 56
0000
0000
0100
0000
,  // measure 57
0100
0000
0100
0000
,  // measure 58
0000
0000
1001
0000
,  // measure 59
0000
0000
1000
0000
,  // measure 60
0000
0000
0001
0000
,  // measure 61
0000
0000
1000
0000
,  // measure 62
0000
0000
0010
0000
,  // measure 63
0000
0000
0100
0000
,  // measure 64
0000
0000
0010
0000
,  // measure 65
0000
0000
1000
0000
,  // measure 66
0000
0000
1001
0000
,  // measure 67
0000
0000
0001
0001
,  // measure 68
0001
0000
1001
0000
,  // measure 69
0000
0000
1000
1000
,  // measure 70
1000
0000
0010
0000
,  // measure 71
0000
0000
0100
0000
,  // measure 72
0000
0000
0001
0000
,  // measure 73
0000
0000
1000
0000
,  // measure 74
0000
0000
0010
0000
,  // measure 75
0010
0000
0100
0000
,  // measure 76
0100
0000
0001
0000
,  // measure 77
0001
0000
1000
1000
,  // measure 78
1000
0000
0001
0000
,  // measure 79
1000
0000
0001
0000
,  // measure 80
0000
0000
1000
0000
,  // measure 81
0001
0000
1000
0000
,  // measure 82
0000
0000
0010
0000
,  // measure 83
0100
0000
0010
0000
,  // measure 84
0000
0000
0100
0000
,  // measure 85
0010
0000
0100
0000
,  // measure 86
0000
0000
0001
0000
,  // measure 87
0000
0000
0001
0000
,  // measure 88
0000
0000
1000
0000
,  // measure 89
0000
0000
1000
0000
,  // measure 90
0000
0000
0010
0000
,  // measure 91
0000
0000
0010
0000
,  // measure 92
0000
0000
0100
0000
,  // measure 93
0000
0000
0100
0000
,  // measure 94
0000
0000
0001
0000
,  // measure 95
1000
0000
0001
0000
,  // measure 96
0000
0000
0000
1000
0000
0000
0000
0000
,  // measure 97
0000
0000
0000
1000
0000
0000
0000
0000
,  // measure 98
0000
0000
0000
0001
0000
0000
0000
0000
,  // measure 99
0000
0000
0000
0001
0000
0000
0000
0000
,  // measure 100
0000
0100
0000
0000
,  // measure 101
0000
0100
0000
0000
,  // measure 102
0000
1001
0000
0000
;

//---------------dance-single - ----------------
#NOTES:
     dance-single:
     :
     Easy:
     8:
     0.399,0.515,0.376,0.227,0.000: // measure 1
0000
0000
0000
0000
,  // measure 2
0000
0000
0000
0000
,  // measure 3
0000
0000
0000
0000
,  // measure 4
0000
0000
0000
0000
,  // measure 5
0000
0000
0000
0000
,  // measure 6
0000
0000
0000
0000
,  // measure 7
0000
0000
0000
0000
,  // measure 8
0000
0000
0000
0000
,  // measure 9
0000
0000
0000
0000
,  // measure 10
0000
0000
0000
0000
,  // measure 11
1001
0010
0010
0010
,  // measure 12
0100
0100
0100
0100
,  // measure 13
0001
0001
0001
0001
,  // measure 14
1000
1000
1000
1001
,  // measure 15
0110
1000
0000
1000
,  // measure 16
0001
1000
0000
1000
,  // measure 17
1001
0010
0000
0010
,  // measure 18
0200
0000
0000
0300
,  // measure 19
0010
1000
0010
0010
,  // measure 20
1000
0100
0010
0010
,  // measure 21
0001
0010
0100
0100
,  // measure 22
0010
0001
1000
1001
,  // measure 23
0100
0001
0100
0100
,  // measure 24
0010
1000
0001
0001
,  // measure 25
1000
0100
0010
0010
,  // measure 26
0220
0000
0000
0330
,  // measure 27
0100
1100
0000
1100
,  // measure 28
0000
0010
0000
0011
,  // measure 29
0000
0101
0000
0101
,  // measure 30
0000
0010
0100
0001
,  // measure 31
1000
1001
0000
1001
,  // measure 32
0000
0010
0000
0110
,  // measure 33
0000
0101
0000
0100
,  // measure 34
0220
0000
0000
0330
,  // measure 35
2000
0001
0000
3001
,  // measure 36
0200
0010
0000
0310
,  // measure 37
0002
1000
0000
1003
,  // measure 38
0020
0100
0000
0130
,  // measure 39
0120
1000
0000
1030
,  // measure 40
0200
0001
0000
0301
,  // measure 41
2000
0100
0000
3010
,  // measure 42
2002
0000
0000
3003
,  // measure 43
1010
0000
0000
0010
0000
0010
0000
0000
,  // measure 44
1010
0000
0000
0100
0000
0100
0101
0000
,  // measure 45
0000
0100
0000
0100
0000
0000
1010
0000
,  // measure 46
0000
1000
0000
1000
0001
0000
1001
0000
,  // measure 47
0000
0010
0000
0010
0000
0000
0110
0000
,  // measure 48
0000
0100
0000
0100
0010
0000
1001
0000
,  // measure 49
0000
0001
0000
0001
0000
0000
1001
0000
,  // measure 50
0000
1000
0000
1000
0010
0000
1000
0000
,  // measure 51
0100
0010
0001
1000
,  // measure 52
0100
0000
0010
0000
0000
0100
0000
0000
,  // measure 53
0000
0100
0000
0000
0000
0010
0000
0000
,  // measure 54
0000
0010
0000
0000
0000
1001
0000
0010
,  // measure 55
0000
0100
0000
0001
0000
1000
0000
0010
,  // measure 56
0000
0100
0000
0000
0001
0000
0000
0000
,  // measure 57
1000
0000
0001
0001
,  // measure 58
1000
1000
0002
0000
,  // measure 59
0000
0000
0023
0000
,  // measure 60
0000
0000
0230
0000
,  // measure 61
0000
0000
2300
0000
,  // measure 62
0000
0000
3002
0000
,  // measure 63
0000
0000
2003
0000
,  // measure 64
0000
0000
3020
0000
,  // measure 65
0000
0000
0230
0000
,  // measure 66
0000
0000
0310
0000
,  // measure 67
0000
0000
0100
0010
,  // measure 68
0100
1001
0010
0000
,  // measure 69
0000
0000
1000
0100
,  // measure 70
0010
0001
1001
0000
,  // measure 71
0000
0010
1001
0000
,  // measure 72
0000
0100
1001
0000
,  // measure 73
0000
0001
0101
0000
,  // measure 74
0000
1000
1100
0000
,  // measure 75
0011
0000
1001
0000
,  // measure 76
0110
0000
0001
1001
,  // measure 77
1000
1001
0010
0100
,  // measure 78
0220
0330
0010
1000
,  // measure 79
0010
0010
1000
0100
,  // measure 80
0010
0010
0001
0010
,  // measure 81
0100
0100
0010
0001
,  // measure 82
1000
1001
0001
0100
,  // measure 83
0001
0001
1000
0100
,  // measure 84
1000
1000
0010
1000
,  // measure 85
0010
0010
1000
0001
,  // measure 86
2002
3003
1000
0010
,  // measure 87
0100
0001
1000
0010
,  // measure 88
0100
0001
1000
0100
,  // measure 89
0010
0001
1000
0100
,  // measure 90
0010
0000
0001
0000
1000
0000
1000
1000
,  // measure 91
1000
0000
2000
0000
3001
0000
0001
0001
,  // measure 92
0001
0000
0002
0000
0103
0000
0100
0100
,  // measure 93
0100
0200
0310
0100
,  // measure 94
0001
0000
1000
0000
1001
0000
0000
0010
,  // measure 95
0000
0010
0000
1000
0010
0000
0000
1000
,  // measure 96
0000
1001
0000
1001
0000
0000
0001
0000
,  // measure 97
0001
0000
0001
0010
0000
0100
0000
0010
,  // measure 98
0000
0001
0000
1001
0000
0000
0100
0000
,  // measure 99
0100
0000
0010
0100
0000
0000
1001
0000
,  // measure 100
0110
0000
1000
0000
0000
0010
0000
0010
,  // measure 101
0000
1000
0100
0000
0000
0010
0000
0001
,  // measure 102
0000
1000
0110
0000
0000
0000
0000
0000
;

//---------------dance-single - ----------------
#NOTES:
     dance-single:
     :
     Medium:
     11:
     0.544,0.753,0.501,0.290,0.023: // measure 1
0000
0000
0000
0000
,  // measure 2
0000
0000
0000
0000
,  // measure 3
0000
0000
0000
0000
,  // measure 4
0000
0000
0000
0000
,  // measure 5
0000
0000
0000
0000
,  // measure 6
0000
0000
0000
0000
,  // measure 7
0000
0000
0000
0000
,  // measure 8
0000
0000
0000
0000
,  // measure 9
0000
0000
0000
0000
,  // measure 10
0000
0000
0000
0000
,  // measure 11
1001
0000
0010
1000
0010
0000
1000
0000
,  // measure 12
0001
0000
0010
0001
0010
0000
0001
0000
,  // measure 13
1000
0000
0100
1000
0100
0000
1000
0000
,  // measure 14
0001
0000
0100
0001
0100
0000
0110
0000
,  // measure 15
1001
0000
0010
1000
0001
0000
1000
0000
,  // measure 16
1001
0000
0010
0001
1000
0000
0001
0000
,  // measure 17
0110
0000
0100
0001
0010
0000
0100
0000
,  // measure 18
0220
0000
0000
0330
,  // measure 19
1000
0100
0010
0000
0100
0000
1000
0000
,  // measure 20
0001
0100
0010
0000
0100
0000
0001
0000
,  // measure 21
1000
0001
0100
0000
0001
0000
1000
0000
,  // measure 22
0001
1000
0010
0000
0100
0000
1001
0000
,  // measure 23
0010
1000
0100
0000
0010
0000
0001
0000
,  // measure 24
0010
0001
0100
0000
0010
0000
1000
0000
,  // measure 25
0100
1000
0010
0000
0100
0000
0001
0000
,  // measure 26
1000
0000
0000
1001
0000
0000
0001
0000
2000
0000
0000
0000
3000
0000
0000
0000
,  // measure 27
0010
0110
0010
0110
,  // measure 28
0010
0000
0110
0000
0100
0100
0010
0000
,  // measure 29
1000
1001
1000
1001
,  // measure 30
0001
0000
1001
0000
0100
0001
1000
0000
,  // measure 31
0001
0011
0001
0011
,  // measure 32
1000
0000
1010
0000
0100
0100
0001
0000
,  // measure 33
1000
1100
0001
0101
,  // measure 34
2002
0000
0000
3003
,  // measure 35
0210
0001
0000
0301
,  // measure 36
0020
1000
0000
1030
,  // measure 37
0200
0010
0000
0310
,  // measure 38
0002
1000
0003
0110
,  // measure 39
1001
0000
0010
1000
0001
0000
0001
0000
,  // measure 40
1000
0000
0010
1000
0100
0000
0100
0000
,  // measure 41
0010
0000
0001
0100
0010
0000
0010
0000
,  // measure 42
0200
0000
0000
0300
,  // measure 43
0210
0000
0000
0301
0000
0101
0000
1000
,  // measure 44
0200
0000
0000
1300
0000
1001
0120
0000
,  // measure 45
0000
1030
0000
1010
0000
1000
0010
0000
,  // measure 46
0000
0012
0000
1003
0001
0100
0020
0000
,  // measure 47
0000
0130
0000
0101
0000
1000
0200
0000
,  // measure 48
0000
1300
0000
0010
1001
0000
0210
0000
,  // measure 49
0000
0301
0000
1001
0000
0100
2000
0000
,  // measure 50
0000
3001
0000
0010
0001
0000
1001
0000
,  // measure 51
1000
0001
0100
0010
1000
0000
0001
0000
,  // measure 52
1000
0001
0010
0100
1000
0200
0000
0000
,  // measure 53
0310
0000
0000
0000
0110
0000
0000
0100
0000
0000
1001
0000
0000
0001
0000
0000
,  // measure 54
1001
0000
0000
0100
0000
0000
0100
0000
0010
0000
1000
0000
0000
0000
0010
0000
,  // measure 55
1000
0100
1000
0010
0000
0100
0000
0001
,  // measure 56
0100
0010
1000
0001
2000
0000
0000
3100
,  // measure 57
0000
1000
0000
0001
0200
0000
0000
0301
,  // measure 58
0000
0010
0000
0100
0020
0000
0000
0000
,  // measure 59
0000
0000
0000
0000
,  // measure 60
0000
0030
0002
0000
,  // measure 61
0000
0000
0000
0000
,  // measure 62
0000
0003
2000
0000
,  // measure 63
0000
0000
0000
0000
,  // measure 64
0000
3000
0020
0000
,  // measure 65
0000
0000
0000
0000
,  // measure 66
0000
0000
0030
0000
0110
0000
0001
0100
,  // measure 67
0000
0100
0000
2010
0000
0000
0000
0000
,  // measure 68
0000
0000
3001
0000
1001
0000
1000
0100
,  // measure 69
0000
0100
0000
0012
0000
0000
0000
0000
,  // measure 70
0000
0000
1003
0000
0110
0000
0001
1000
,  // measure 71
0000
0100
0000
0010
0001
0000
1000
0010
,  // measure 72
0000
0100
0000
0010
1000
0000
0001
0100
,  // measure 73
0000
0010
0000
0100
0001
0000
1000
0100
,  // measure 74
0000
0010
0000
0100
1001
0000
0000
0000
,  // measure 75
0110
0000
1001
0000
,  // measure 76
1010
0000
0001
1001
,  // measure 77
1000
0000
1001
0000
0010
0100
0010
0100
,  // measure 78
0020
0000
0030
0000
1000
0000
0100
1000
,  // measure 79
0000
0001
0000
0100
0000
0010
1000
0000
,  // measure 80
0001
0010
0001
0000
1000
0000
0001
0100
,  // measure 81
0000
0010
0100
0001
0000
1000
0100
0000
,  // measure 82
0010
0100
1000
0000
0001
0000
1000
0010
,  // measure 83
0000
0001
0000
0010
0000
1000
0001
0000
,  // measure 84
1000
0001
0100
0000
0001
0000
1000
0100
,  // measure 85
0000
0001
0100
1000
0000
0001
0100
0000
,  // measure 86
0010
1000
0001
0000
1001
0000
0010
0100
,  // measure 87
0001
0000
0100
0000
0001
0000
0010
0100
,  // measure 88
1000
0000
0100
0000
1000
0000
0010
1000
,  // measure 89
0001
0000
1000
0000
0001
0000
0010
0001
,  // measure 90
1000
0000
0110
0000
0001
0001
0001
0001
,  // measure 91
0001
0001
0200
0000
1300
1000
1000
1000
,  // measure 92
1000
1000
0200
0000
0301
0100
1000
0000
,  // measure 93
1000
0100
0001
0000
0100
0000
1001
0000
,  // measure 94
0220
0000
0330
0000
2010
0000
3001
1000
,  // measure 95
0000
1000
0001
0000
1200
0000
1300
0100
,  // measure 96
0000
0100
0011
0100
0000
1000
0100
0000
,  // measure 97
1100
0000
0000
0110
0000
0000
1001
0000
0000
0101
0000
0000
1002
0000
0000
0000
,  // measure 98
0103
0001
1000
0002
0000
0013
0001
0000
,  // measure 99
0001
1000
0000
0020
0000
0130
0010
0000
,  // measure 100
0010
1001
1100
0000
0001
0100
0000
0100
,  // measure 101
0010
0000
1001
0000
0010
1000
0000
0001
,  // measure 102
1000
0001
0110
0000
0000
0000
0000
0000
;

//---------------dance-single - ----------------
#NOTES:
     dance-single:
     :
     Hard:
     16:
     0.877,1.000,0.837,0.274,0.313: // measure 1
0000
0000
0000
0000
,  // measure 2
0000
0000
0000
0000
,  // measure 3
0000
0000
0000
0000
,  // measure 4
0000
0000
0000
0000
,  // measure 5
0000
0000
0000
0000
,  // measure 6
0000
0000
0000
0000
,  // measure 7
0020
0130
0020
0130
,  // measure 8
0020
1030
0020
1030
,  // measure 9
0002
0103
0002
0103
,  // measure 10
0002
1003
0002
1003
,  // measure 11
0001
0010
0100
1000
0001
0010
0100
0010
,  // measure 12
0001
0000
0010
0000
0100
0000
1000
0000
0001
0000
0010
0000
0100
0000
1000
0001
,  // measure 13
0100
0010
1000
0001
0100
0010
1000
0001
,  // measure 14
1000
0100
0010
0001
1000
0100
0011
0000
,  // measure 15
0101
0010
1000
0001
0100
0010
1000
0001
,  // measure 16
1000
0100
0010
0001
1000
0100
1010
0000
,  // measure 17
0101
0010
1000
0001
0100
0010
1000
0001
,  // measure 18
2000
0000
0002
3003
,  // measure 19
0100
0000
0010
1000
0010
0000
1000
0000
0001
0000
0100
0000
0001
0000
0000
0000
,  // measure 20
0100
0000
0010
1000
0010
0000
1000
0000
0100
0000
0010
0000
0001
0000
0000
0000
,  // measure 21
0010
0000
0001
0010
0001
0000
1000
0000
0001
0000
0100
0000
0010
0000
0000
0000
,  // measure 22
1000
0000
0010
1000
0010
0000
1000
0000
0001
0000
0100
0001
1000
0000
0000
0000
,  // measure 23
0001
0000
0010
0001
0010
0000
0001
0000
0010
0000
0100
0000
1000
0000
0000
0000
,  // measure 24
0010
0000
1000
0010
1000
0000
0001
0000
1000
0000
0100
0000
0010
0000
0000
0000
,  // measure 25
1000
0000
0001
0100
0001
0000
1000
0000
0001
0000
0010
0000
0100
0000
0010
0000
,  // measure 26
0011
0000
0000
1001
0000
0000
0101
0000
0010
0000
1000
0000
0001
1000
0001
1000
,  // measure 27
0010
0000
0000
1000
0100
0000
0000
0010
0001
0000
0000
1000
0010
0000
0000
0100
,  // measure 28
0001
0000
0000
0100
0010
0000
0000
1000
0010
0000
0010
0000
1000
0000
0000
0001
,  // measure 29
0010
0000
0000
0010
0001
0000
0000
1000
0100
0000
0000
0100
1000
0000
0000
0001
,  // measure 30
0100
0000
0000
0100
0010
0000
0000
1000
0001
0000
1000
0001
0010
0000
0000
0000
,  // measure 31
0101
0000
0000
0010
1000
0000
0000
0001
0100
0000
0000
0100
0010
0000
0000
1000
,  // measure 32
0100
0000
0000
0010
0001
0000
0000
1000
0010
0000
0010
0000
0100
0000
0000
1000
,  // measure 33
0100
0110
1001
0110
,  // measure 34
1000
0001
1000
0001
1000
0000
0001
0000
0100
0000
0010
0000
1000
0000
0001
0000
,  // measure 35
1001
0100
0100
0100
,  // measure 36
0010
0010
0010
0010
,  // measure 37
1000
1000
1000
1000
,  // measure 38
0001
0000
0001
0000
0001
1000
1001
0000
,  // measure 39
0110
0001
0100
0010
1000
0001
0100
0010
,  // measure 40
1000
0100
0010
0001
1000
0010
0100
0001
,  // measure 41
1000
0100
0001
0100
1000
0010
0001
0010
,  // measure 42
2000
0000
0000
0000
3001
0100
1010
0000
,  // measure 43
2100
0000
3001
0011
0000
1001
0000
0001
,  // measure 44
0201
0000
0310
0110
0000
1001
2100
0000
,  // measure 45
3001
0011
0000
0101
0000
0010
1020
0000
,  // measure 46
1030
0000
1001
0000
0000
0000
1100
0000
0001
0010
0100
0000
0012
0000
0000
0000
,  // measure 47
1003
1010
0000
0011
0000
1000
1200
0000
,  // measure 48
1300
1100
0000
0010
1001
0000
0201
0000
,  // measure 49
0301
0101
0000
1100
0000
0001
0021
0000
,  // measure 50
0031
0000
0011
0000
0000
0000
1010
0000
0010
1000
0001
0000
1100
0000
0001
0000
,  // measure 51
0010
0000
0100
1000
0001
0000
1000
0000
0010
0000
0100
0000
0001
0000
1000
0000
,  // measure 52
0010
0000
0100
0001
1000
0000
0001
0000
0011
0000
2100
0000
0000
0000
3010
0000
,  // measure 53
1010
0000
0000
0000
1001
0000
0000
0101
0000
0000
1100
0000
0000
0011
0000
0000
,  // measure 54
1001
0000
0000
0000
0110
0000
0001
1000
0001
1000
0010
0000
1000
0000
0100
0000
,  // measure 55
0010
0100
1000
0000
0010
0000
0100
0000
0001
0000
0010
0000
0001
0000
0100
0000
,  // measure 56
0001
0010
0100
0000
0010
0000
1001
0000
0102
0000
0000
0000
1003
0000
1100
0000
,  // measure 57
0000
0011
0100
0000
2010
0000
3001
1001
,  // measure 58
0000
0000
0001
0010
0100
0010
0100
0010
0002
0000
0000
0000
0000
0000
0000
0000
,  // measure 59
0000
0000
0000
0000
,  // measure 60
0000
0003
2000
0000
,  // measure 61
0000
0000
0000
0000
,  // measure 62
0000
3000
0020
0100
,  // measure 63
0100
0130
0200
0010
,  // measure 64
0010
0310
2000
0001
,  // measure 65
0100
3001
0020
0001
,  // measure 66
1000
0000
0031
0000
1100
0000
0001
0010
,  // measure 67
0000
0101
0000
1010
0010
1000
0001
0100
,  // measure 68
0010
1000
0001
0100
0101
0000
0001
0010
,  // measure 69
0000
1100
0000
0011
1000
0000
0100
0000
,  // measure 70
0010
0000
0100
0000
1000
0001
1000
0001
0100
0000
0000
0000
0010
0000
1000
0000
,  // measure 71
0000
1010
0000
0100
0001
0000
0010
0001
,  // measure 72
0000
0011
0000
0100
1000
0000
0010
1000
,  // measure 73
0000
1010
0000
0100
0001
0000
0010
0001
,  // measure 74
0000
0000
0011
0000
0000
0000
0100
0000
1001
0000
0000
0000
0010
0000
0100
1000
,  // measure 75
0001
0000
0000
0000
0010
0000
0100
0001
1000
0000
0000
0000
0010
0000
0100
1000
,  // measure 76
0001
0000
0000
0000
0010
0000
0100
0001
0010
0000
0001
0000
0011
0000
1000
0000
,  // measure 77
1001
0100
1000
0100
1000
0010
0001
0010
1000
0000
0100
0010
0001
0000
0100
0010
,  // measure 78
1000
0010
1001
0000
0101
0010
1000
0001
,  // measure 79
0010
1000
0010
0001
1000
0100
0001
0100
,  // measure 80
1000
1000
0001
0000
0100
0001
1000
0010
,  // measure 81
0100
0010
1000
0100
0001
0010
1000
0001
,  // measure 82
0100
0010
1001
0000
0101
0010
1000
0001
,  // measure 83
0100
0001
1000
0010
0001
0100
1000
0100
,  // measure 84
0010
0100
0100
1000
0100
0010
0001
1000
,  // measure 85
0010
0000
0001
0000
0010
0000
1000
0000
1010
0000
0000
0011
0000
0000
1100
0000
,  // measure 86
0001
0000
0100
0000
0010
1000
0001
1000
0010
0000
1000
0100
0010
0000
0100
0000
,  // measure 87
1000
0000
0001
0000
0100
0000
0010
0000
0100
0000
0001
0010
0100
0000
0010
0000
,  // measure 88
0001
0000
1000
0000
0100
0000
0010
0000
0001
0000
1000
0001
0100
0000
0010
0000
,  // measure 89
1000
0000
0001
0000
0010
0000
1000
0000
0010
0000
0001
0100
1000
0000
0100
0000
,  // measure 90
0010
0100
1001
0000
1010
0010
1010
1010
,  // measure 91
1100
1100
1002
0000
0013
0001
0011
0011
,  // measure 92
0101
0000
0101
0000
2001
0000
0000
0000
3010
0100
0010
1000
0010
0000
0100
0000
,  // measure 93
0001
1000
0001
0010
0001
0000
1000
0000
0100
0000
0010
0100
1000
0000
0010
0100
,  // measure 94
0001
0000
1000
0010
0200
0000
0000
0000
0310
0000
1000
0000
1010
0000
0100
0000
,  // measure 95
0001
0100
0001
0010
0011
0100
1000
0100
,  // measure 96
0010
0110
1000
0210
0000
0301
0101
0000
,  // measure 97
1100
0000
0000
0011
0000
0000
1001
0000
0000
1010
0000
0000
1002
0000
0000
0000
,  // measure 98
1003
0000
0010
0100
0001
0100
0010
0000
1000
0000
1010
0000
0100
0000
0001
0000
,  // measure 99
0100
1001
0010
0001
0010
0011
0100
1000
,  // measure 100
0001
1001
0210
0000
0301
0101
0000
1100
,  // measure 101
0000
0010
2010
0000
3001
1001
0000
0011
,  // measure 102
1000
0001
1000
0001
0100
0000
0000
0000
0000
0000
0000
0000
0000
0000
0000
0000
;
