#TITLE:TOXIC VIBRATION;
#SUBTITLE:;
#ARTIST:SOUND HOLIC Vs. T.Kakuta feat. YURiCa;
#TITLETRANSLIT:;
#SUBTITLETRANSLIT:;
#ARTISTTRANSLIT:;
#GENRE:;
#CREDIT:;
#MENUCOLOR:;
#METERTYPE:DDR;
#BANNER:TOXIC VIBRATION.png;
#BACKGROUND:TOXIC VIBRATION-bg.png;
#LYRICSPATH:;
#CDTITLE:./CDTITLES/GITADORA.PNG;
#MUSIC:TOXIC VIBRATION.ogg;
#OFFSET:0.000;
#SAMPLESTART:89.696;
#SAMPLELENGTH:15.000;
#SELECTABLE:YES;
#LISTSORT:;
#BPMS:0.000=197.000;
#STOPS:38.000=0.30456852791878172588832487309645‬
,197.000=0.30456852791878172588832487309645‬
,332.000=0.30456852791878172588832487309645‬
;
#BGCHANGES:0.000=TOXIC VIBRATION.avi=1.000=0=0=0,
99999=-nosongbg-=1.000=0=0=0 // don't automatically add -songbackground-
;
#ATTACKS:;

//---------------dance-single - ----------------
#NOTES:
     dance-single:
     :
     Beginner:
     4:
     0.126,0.198,0.008,0.000,0.000: // measure 1
0000
0000
0000
0000
,  // measure 2
0000
0000
0000
0000
,  // measure 3
0000
0000
0000
0000
,  // measure 4
0000
0000
0000
0000
,  // measure 5
0000
0000
0000
0000
,  // measure 6
0000
0000
0000
0000
,  // measure 7
1000
0000
0000
0000
,  // measure 8
0001
0000
0000
0000
,  // measure 9
0100
0000
0000
0000
,  // measure 10
0010
0000
0000
0000
,  // measure 11
0000
1000
0000
1000
,  // measure 12
0000
0000
0000
0000
,  // measure 13
0000
0001
0000
0001
,  // measure 14
0000
0000
0000
0100
,  // measure 15
0000
0000
0000
0010
,  // measure 16
0000
0000
0000
1000
,  // measure 17
0000
0000
0000
0001
,  // measure 18
0000
0000
0000
1000
,  // measure 19
0000
1000
0000
1000
,  // measure 20
0000
0000
0000
0001
,  // measure 21
0000
0001
0000
0001
,  // measure 22
0000
0000
0000
0100
,  // measure 23
0000
0100
0000
0100
,  // measure 24
0000
0000
0000
0010
,  // measure 25
0000
0010
0000
0010
,  // measure 26
0000
0000
0000
1000
,  // measure 27
0000
0000
0000
0001
,  // measure 28
0000
0000
0000
0100
,  // measure 29
0000
0000
0000
0010
,  // measure 30
0000
0000
0000
1000
,  // measure 31
0000
0000
0000
0100
,  // measure 32
0000
0000
0000
0010
,  // measure 33
0000
0000
0000
0001
,  // measure 34
0000
0000
0000
0010
,  // measure 35
0000
0000
0000
0100
,  // measure 36
0000
0100
0000
0100
,  // measure 37
0000
0000
0000
1000
,  // measure 38
0000
1000
0000
1000
,  // measure 39
0000
0000
0000
0010
,  // measure 40
0000
0010
0000
0010
,  // measure 41
0000
0000
0000
0100
,  // measure 42
0000
0000
0000
0001
,  // measure 43
0000
0000
0000
1000
,  // measure 44
0000
0000
0000
0010
,  // measure 45
0000
0000
0000
0100
,  // measure 46
0000
0000
0000
0001
,  // measure 47
0000
0000
0000
1000
,  // measure 48
0000
0000
0000
0001
,  // measure 49
0000
0000
0000
0010
,  // measure 50
0000
0000
0000
0000
,  // measure 51
0000
0000
0100
0000
,  // measure 52
0000
0000
1000
0000
,  // measure 53
0000
0000
0010
0000
,  // measure 54
0000
0000
0100
0000
,  // measure 55
0100
0000
0100
0000
,  // measure 56
0000
0000
0001
0000
,  // measure 57
0001
0000
0001
0000
,  // measure 58
0000
0000
1000
0000
,  // measure 59
0000
0000
0010
0000
,  // measure 60
0000
0000
1000
0000
,  // measure 61
0000
0000
0100
0000
,  // measure 62
0000
0000
0010
0000
,  // measure 63
0010
0000
0010
0000
,  // measure 64
0000
0000
0100
0000
,  // measure 65
0100
0000
0100
0000
,  // measure 66
0000
0000
1000
0000
,  // measure 67
0000
0000
0000
0000
,  // measure 68
0000
0000
0010
0000
,  // measure 69
0000
0000
0000
0000
,  // measure 70
0000
0000
0100
0000
,  // measure 71
0000
0000
0000
0000
,  // measure 72
0000
0000
0001
0000
,  // measure 73
1000
0000
0001
0000
,  // measure 74
0000
0000
1000
0000
,  // measure 75
0000
0000
0010
0000
,  // measure 76
0000
0000
0100
0000
,  // measure 77
0000
0000
0001
0000
,  // measure 78
0000
0000
0010
0000
,  // measure 79
0000
0000
0100
0000
,  // measure 80
0000
0000
1000
0000
,  // measure 81
1000
0000
1000
0000
,  // measure 82
1000
0000
0001
0000
,  // measure 83
0001
0000
0001
0000
,  // measure 84
0001
0000
0000
0000
,  // measure 85
0000
0100
0000
0000
,  // measure 86
0000
0010
0000
0000
,  // measure 87
0000
1000
0000
0000
,  // measure 88
0000
0001
0000
0001
,  // measure 89
0000
0001
0000
0000
,  // measure 90
0000
1000
0000
1000
,  // measure 91
0000
1000
0000
0000
,  // measure 92
0000
0010
0000
0000
,  // measure 93
0000
0100
0000
0000
,  // measure 94
0000
0001
0000
0000
,  // measure 95
0000
1000
0000
0000
,  // measure 96
0000
0001
0000
1000
,  // measure 97
0000
0001
0000
0000
,  // measure 98
0000
1000
0000
0001
,  // measure 99
0000
1000
0000
0000
,  // measure 100
0000
0010
0000
0000
,  // measure 101
0000
0100
0000
0000
,  // measure 102
0000
1001
0000
0000
;

//---------------dance-single - ----------------
#NOTES:
     dance-single:
     :
     Easy:
     8:
     0.372,0.440,0.117,0.250,0.000: // measure 1
0000
0000
0000
0000
,  // measure 2
0000
0000
0000
0000
,  // measure 3
0000
0000
0000
0000
,  // measure 4
0000
0000
0000
0000
,  // measure 5
0000
0000
0000
0000
,  // measure 6
0000
0000
0000
0000
,  // measure 7
0010
0010
0010
0010
,  // measure 8
0100
0100
0100
0100
,  // measure 9
0001
1000
0001
1000
,  // measure 10
0010
0000
1001
1000
,  // measure 11
0000
1000
0000
0100
,  // measure 12
0000
0100
0000
0010
,  // measure 13
0000
0010
0000
0001
,  // measure 14
0000
0001
0000
0100
,  // measure 15
0100
0010
0100
0001
,  // measure 16
0001
1000
0001
1000
,  // measure 17
0100
0010
0001
1000
,  // measure 18
1000
0001
0000
1001
,  // measure 19
0000
0100
0000
0000
0100
0000
0000
0000
,  // measure 20
0001
1000
0001
0010
,  // measure 21
0000
0010
0000
0000
0010
0000
0001
0000
,  // measure 22
1000
0100
0010
0100
,  // measure 23
0000
0100
0000
0000
0100
0000
0000
0000
,  // measure 24
1000
0100
0010
0001
,  // measure 25
0000
0001
0000
0000
0001
0000
1000
0000
,  // measure 26
0001
1000
0000
0010
,  // measure 27
0000
0010
0000
0000
0010
0000
0100
0000
,  // measure 28
0001
1000
0001
1000
,  // measure 29
0000
1000
0000
0000
1000
0000
0100
0000
,  // measure 30
0010
0001
1000
0100
,  // measure 31
0000
0100
0000
0000
0100
0000
1000
0000
,  // measure 32
0010
1000
0001
0010
,  // measure 33
0000
0100
0000
0000
0010
0000
0001
0000
,  // measure 34
1000
0100
0010
0200
,  // measure 35
0000
1300
0000
0002
,  // measure 36
0000
0103
0000
2000
,  // measure 37
0000
3010
0000
0002
,  // measure 38
0000
0013
0000
2000
,  // measure 39
0000
3100
0000
0002
,  // measure 40
0000
0103
0000
1000
,  // measure 41
0000
0001
0000
0001
0000
0000
1000
0000
,  // measure 42
0000
1000
0000
0000
0000
0000
0001
0000
,  // measure 43
0010
0100
1000
0001
,  // measure 44
0010
0001
1000
0001
,  // measure 45
0010
0100
1000
0100
,  // measure 46
0010
0001
1000
0100
,  // measure 47
1000
1000
1000
0010
,  // measure 48
0100
0100
0100
0001
,  // measure 49
0010
0010
0010
0001
,  // measure 50
1000
1001
0020
0000
,  // measure 51
0000
0030
0200
0000
,  // measure 52
0000
0300
0001
1000
,  // measure 53
0001
1000
0010
0100
,  // measure 54
0001
0010
0100
1000
,  // measure 55
0100
0000
0010
0001
,  // measure 56
0010
0000
0001
1000
,  // measure 57
0010
0100
0010
0000
,  // measure 58
0110
0000
2000
0000
,  // measure 59
0000
3000
0002
0000
,  // measure 60
0000
0003
0010
0001
,  // measure 61
1000
0100
0010
0100
,  // measure 62
1000
0000
0001
0001
,  // measure 63
0100
0100
0010
0010
,  // measure 64
1000
1000
0001
0010
,  // measure 65
0100
0000
1000
0000
,  // measure 66
0110
0000
2002
0000
,  // measure 67
0000
3003
0020
0000
,  // measure 68
0000
0030
2000
0000
,  // measure 69
0000
3000
0002
0000
,  // measure 70
0000
0003
2000
0000
,  // measure 71
3100
0000
0002
0000
,  // measure 72
0103
0000
2000
0000
,  // measure 73
3010
0000
0002
0000
,  // measure 74
0013
0000
2000
0001
,  // measure 75
0000
0001
0000
0100
,  // measure 76
0000
3010
0002
1000
,  // measure 77
0000
1000
0000
0100
,  // measure 78
0000
0013
1000
0100
,  // measure 79
0010
0001
2000
0000
,  // measure 80
3002
0000
0103
0100
,  // measure 81
0010
0010
1000
1000
,  // measure 82
0001
0000
0001
0000
1000
0000
0000
0001
,  // measure 83
0000
0000
1001
0000
0000
0110
0000
0000
,  // measure 84
1001
0020
0000
0000
,  // measure 85
0030
0200
0000
0000
,  // measure 86
0300
0001
1000
0001
,  // measure 87
1000
0001
0010
0100
,  // measure 88
1000
0010
0010
1000
,  // measure 89
1000
0001
0001
0100
,  // measure 90
0100
0001
0100
1000
,  // measure 91
0100
0001
0000
1010
,  // measure 92
0000
2001
0001
0001
,  // measure 93
3001
0020
0100
0100
,  // measure 94
0130
0002
0010
0010
,  // measure 95
0013
2000
0100
0100
,  // measure 96
3100
0000
1000
0000
0000
1000
0001
0000
,  // measure 97
0000
0001
0100
0000
0000
0100
0010
0000
,  // measure 98
0000
0010
0100
0000
0100
0000
0001
0000
,  // measure 99
0001
1000
0010
2002
,  // measure 100
3003
0000
1000
0000
0000
1100
0000
0000
,  // measure 101
0001
0000
0000
0101
0000
0000
0010
0000
,  // measure 102
0110
0000
1000
0002
0000
0000
0000
0000
,  // measure 103
0000
0003
0000
0000
;

//---------------dance-single - ----------------
#NOTES:
     dance-single:
     :
     Medium:
     10:
     0.600,0.600,0.274,0.258,0.070: // measure 1
0000
0000
0000
0000
,  // measure 2
0000
0000
0000
0000
,  // measure 3
0000
0000
0000
0000
,  // measure 4
0000
0000
0000
0000
,  // measure 5
0000
0000
0000
0000
,  // measure 6
0000
0000
0000
0000
,  // measure 7
0010
0000
0000
0010
0100
0000
0001
0000
,  // measure 8
1000
0000
0000
1000
0001
0000
1000
0000
,  // measure 9
0001
0000
0100
0010
0000
1000
0001
0000
,  // measure 10
1000
0000
0000
0100
0000
0000
0010
0000
0002
0003
0000
0000
1000
0000
0000
0100
,  // measure 11
0000
0000
0100
0000
0010
0000
0000
0100
0000
0000
0100
0000
1000
0000
0000
0001
,  // measure 12
0000
0000
0001
0000
0100
0000
0000
0010
0000
0000
0010
0000
0100
0000
0000
0001
,  // measure 13
0000
0000
1000
0000
0100
0000
0000
0001
0000
0000
0100
0000
1000
0000
0000
0010
,  // measure 14
0000
0000
0001
0000
0010
0000
0000
0100
0000
0000
0001
0000
1000
0000
0000
0000
,  // measure 15
1001
0001
1001
0010
,  // measure 16
0110
0000
0100
0000
0110
0000
0001
1000
,  // measure 17
0001
1000
0001
0000
0100
0000
0010
0100
,  // measure 18
0001
0000
0000
0000
1100
0000
0000
0101
0000
0000
1000
0000
0001
0000
0000
0000
,  // measure 19
0001
0010
0000
0010
0100
0000
1000
0000
,  // measure 20
0100
1000
0010
0000
0100
0000
0010
0000
,  // measure 21
0010
1000
0000
1000
0001
0000
0100
0001
,  // measure 22
1000
0000
0001
1000
0100
0000
1000
0000
,  // measure 23
0100
1000
0000
1000
0001
0000
0100
0010
,  // measure 24
0100
0000
0001
0100
0001
0000
0010
0000
,  // measure 25
0001
0010
0000
0010
0001
0000
1000
0001
,  // measure 26
1000
0000
1001
0000
0110
0000
0010
0100
,  // measure 27
0001
0100
0000
0100
0010
0000
1000
0100
,  // measure 28
0010
0000
0001
0100
0010
0000
0100
0010
,  // measure 29
0100
0001
0000
0001
1000
0000
0001
0010
,  // measure 30
0100
0000
1000
0100
0010
0000
0001
0010
,  // measure 31
0100
1000
0000
0010
1000
0000
0001
0100
,  // measure 32
0010
0000
1000
0001
0100
0000
0010
1000
,  // measure 33
0001
0010
0000
0001
1000
0000
0010
0100
,  // measure 34
0001
0000
1000
0100
0010
0001
2000
0000
,  // measure 35
0100
0100
3100
0002
,  // measure 36
0100
0103
0010
2001
,  // measure 37
3010
0002
0013
2000
,  // measure 38
3100
0002
0103
2000
,  // measure 39
0010
0100
3001
0200
,  // measure 40
0001
0010
1300
0110
,  // measure 41
0001
1000
0000
1000
0001
0000
0100
0010
,  // measure 42
1000
0001
0000
0100
0010
0000
1000
0000
,  // measure 43
0100
0010
0000
0100
1000
0000
0001
0000
,  // measure 44
0100
0001
0000
0100
0010
0000
0100
0000
,  // measure 45
0001
1000
0000
0001
0000
0010
0000
0001
,  // measure 46
0010
0100
1000
0000
0010
0000
1000
0000
,  // measure 47
0010
1000
0000
1000
0001
0100
0010
0000
,  // measure 48
0100
0001
0000
1000
0100
0010
0100
0000
,  // measure 49
1000
0001
0000
0100
0001
1000
0010
0100
,  // measure 50
0001
0000
0010
0000
0002
0003
0000
0000
2000
0000
0000
0000
0000
0000
0000
0000
,  // measure 51
0000
3000
0020
0000
,  // measure 52
0000
0000
0030
0000
1000
0100
0010
0000
,  // measure 53
0001
0100
0010
0000
1000
0001
0100
0010
,  // measure 54
0100
0000
0001
0000
1000
0010
1000
0010
,  // measure 55
1000
0000
0001
0000
0001
0010
0001
0010
,  // measure 56
0001
1000
0010
0100
,  // measure 57
0101
0000
0000
1100
0000
0000
0001
0000
0010
0000
0000
0000
0000
0000
0100
0000
,  // measure 58
1000
0000
0000
0010
0200
0000
0000
0000
,  // measure 59
0000
0300
0002
0000
,  // measure 60
0000
0000
0003
0000
1000
0010
1000
0000
,  // measure 61
0001
0010
0001
0000
1000
0001
0100
0010
,  // measure 62
0100
0000
0001
0000
1000
0100
1000
0100
,  // measure 63
1000
0000
1000
0000
0001
0100
0001
0100
,  // measure 64
0001
0001
1000
1001
,  // measure 65
0010
0000
0000
0100
0000
0000
0001
0000
1000
0000
0000
0100
0000
0000
0010
0000
,  // measure 66
0001
1000
0010
0000
0200
0000
0010
0000
,  // measure 67
0010
0310
2000
0001
,  // measure 68
0001
3001
0020
0100
,  // measure 69
0100
0130
0002
0100
,  // measure 70
0010
0000
1003
0000
0001
0000
0100
0001
,  // measure 71
0000
1000
0100
0000
1000
0010
0001
0000
,  // measure 72
0110
0000
1001
0000
1000
0001
1000
0000
,  // measure 73
0001
1000
0001
0000
1000
0100
0001
0000
,  // measure 74
0001
0100
1000
0000
2100
0000
0000
0010
,  // measure 75
0000
3010
0000
0000
0100
0001
0100
0001
,  // measure 76
1000
0010
1000
0000
0002
0000
0000
0010
,  // measure 77
0000
0010
0000
1000
0000
1003
0100
0000
,  // measure 78
1000
0000
0001
0000
1000
0010
1000
0100
,  // measure 79
0000
0100
0010
0001
2000
0000
0000
0000
,  // measure 80
3002
0000
0000
0000
0103
0000
0000
0110
,  // measure 81
0000
0000
1001
0000
1100
0000
0000
0101
,  // measure 82
0000
0000
1010
0000
1000
0001
0000
0001
,  // measure 83
1000
0000
1000
0001
1000
0100
0010
0001
,  // measure 84
2000
3000
0010
0000
0200
0000
0000
0000
0000
0000
0000
0000
0000
0000
0000
0000
,  // measure 85
0300
0002
0000
0000
,  // measure 86
0003
0000
1000
0100
1000
0000
0001
0100
,  // measure 87
0001
0000
1000
0010
1000
0010
0100
0000
,  // measure 88
0001
0000
1000
0100
0001
0000
1100
0000
,  // measure 89
0001
0000
0001
0100
1000
0000
0101
0000
,  // measure 90
1000
0000
0000
0000
0010
0000
0000
0000
0100
0000
0000
0000
0001
0000
0000
1000
,  // measure 91
0000
0000
0010
0000
0100
0000
0000
0110
0000
0000
0001
0000
1000
0000
0000
1001
,  // measure 92
0000
1000
0200
0000
1000
0000
0010
0000
,  // measure 93
0301
0002
0100
1000
,  // measure 94
0013
0020
1000
0100
,  // measure 95
0031
0200
1000
0010
,  // measure 96
0301
0000
1000
0100
0000
0001
0100
0001
,  // measure 97
0000
1000
0010
1000
0000
0001
0010
0001
,  // measure 98
0000
0000
0010
0000
0100
0000
0000
0000
1001
0000
0000
0000
0101
0000
0000
0101
,  // measure 99
0000
0000
1000
0000
1100
0000
0000
1100
0000
0000
0010
0000
2020
0000
0000
0000
,  // measure 100
3030
0000
1000
0100
0000
0001
0100
0000
,  // measure 101
1000
0010
0000
0001
0010
0000
0110
0000
,  // measure 102
1001
0000
0110
0220
0000
0000
0000
0000
,  // measure 103
0000
0330
0000
0000
;

//---------------dance-single - ----------------
#NOTES:
     dance-single:
     :
     Hard:
     14:
     0.779,0.799,0.438,0.321,0.094: // measure 1
0000
0000
0000
0000
,  // measure 2
0000
0000
0000
0000
,  // measure 3
0000
0000
0000
0000
,  // measure 4
0000
0000
0000
0000
,  // measure 5
0000
0000
0000
0000
,  // measure 6
0000
0000
0000
0000
,  // measure 7
0010
0000
0010
1000
0100
0000
0010
0001
,  // measure 8
0100
0010
0100
0001
0010
0000
0100
1000
,  // measure 9
0001
0100
0100
1000
0100
0100
0001
1000
,  // measure 10
0010
0000
0000
0110
0000
0000
1001
0000
0220
0330
0000
0000
1000
0000
0000
1100
,  // measure 11
0000
0000
0001
0000
0100
0000
0000
0101
0000
0000
0001
0000
0010
0000
0000
0011
,  // measure 12
0000
0000
1000
0000
0100
0000
0000
1100
0000
0000
0100
0000
1000
0000
0001
1000
,  // measure 13
0000
0000
0010
0000
0100
0000
0001
0100
0000
0000
0001
0000
0010
0000
0100
1000
,  // measure 14
0000
0001
2000
0000
3001
0000
1000
0100
,  // measure 15
0010
0001
0100
0000
0001
0100
0001
0010
,  // measure 16
0100
1000
0100
0000
1000
0010
1000
0100
,  // measure 17
0100
0001
0100
0100
1000
0010
0100
0001
,  // measure 18
1000
0000
0010
0000
0100
0000
0000
0110
0000
0000
1001
0000
0010
0000
0100
0000
,  // measure 19
0100
0001
0000
0001
1000
0000
0001
0010
,  // measure 20
0100
1000
0001
0010
0100
1000
0010
1000
,  // measure 21
1000
0001
0000
1000
0010
0000
1000
0100
,  // measure 22
0010
0001
1000
0100
0010
0001
0100
0010
,  // measure 23
0010
0100
0000
0001
0100
0000
0001
0010
,  // measure 24
0100
1000
0001
0100
1000
0100
0001
0010
,  // measure 25
0010
0001
0000
1000
0010
0000
1000
0100
,  // measure 26
0010
0000
0110
0000
1001
0000
0001
0100
,  // measure 27
0001
0010
0000
0010
0002
0000
1003
0100
,  // measure 28
0010
0001
1000
0100
0010
0001
1000
0100
,  // measure 29
1000
0010
0000
0010
2000
0000
3001
0100
,  // measure 30
0010
1000
0001
0010
0100
1000
0001
0010
,  // measure 31
0001
1000
0000
1000
0020
0000
1030
0100
,  // measure 32
0001
0100
1000
0010
0001
0010
1000
0100
,  // measure 33
0010
0100
0000
0100
2000
0000
3001
0100
,  // measure 34
1000
0100
0001
0010
0100
1000
2010
0000
,  // measure 35
3100
0200
0301
0002
,  // measure 36
0013
0000
0020
0000
1030
0010
0200
0000
,  // measure 37
1300
2000
3100
0200
,  // measure 38
0310
0000
2000
0000
3001
0010
0002
0000
,  // measure 39
0103
0200
1300
2000
,  // measure 40
3010
0000
0020
0000
0031
0100
1001
0000
,  // measure 41
0001
1001
0000
1000
1001
0000
0010
0100
,  // measure 42
0001
1000
0000
1000
0001
0000
1000
0100
,  // measure 43
0001
0100
0000
0100
0010
0000
0001
0100
,  // measure 44
0010
1000
0001
0010
0100
1000
0001
0100
,  // measure 45
1000
0100
0000
0100
0010
0100
0000
0100
,  // measure 46
0001
1000
0001
0010
0002
0000
1003
0010
,  // measure 47
0100
0001
0000
0001
1000
0001
0010
0001
,  // measure 48
0001
0100
0010
0100
0001
0000
1000
0100
,  // measure 49
0010
0000
0001
0000
0000
0000
0001
0000
1000
0000
0010
0000
0100
0000
0010
0100
,  // measure 50
0010
0000
0100
0000
2002
3003
0000
0000
0001
0000
0100
0000
0000
0000
0010
0000
,  // measure 51
0000
0100
0000
0001
0010
0100
0000
1000
,  // measure 52
0000
0100
0000
0010
0100
1000
0010
0100
,  // measure 53
0001
1000
0010
1000
0001
0010
0100
1000
,  // measure 54
0001
1000
0010
0000
1000
0100
0100
0010
,  // measure 55
0001
0100
0010
0100
0001
0100
0100
0010
,  // measure 56
1000
0100
0010
0100
1000
0000
0001
0000
,  // measure 57
1001
0000
0000
1001
0000
0000
0100
0000
0210
0000
0000
0000
0000
0000
0301
1000
,  // measure 58
0020
0000
0000
1030
0001
0010
0000
0001
,  // measure 59
0000
1000
0000
0001
1000
0010
0000
1000
,  // measure 60
0000
0001
0000
1000
0100
0010
0010
0001
,  // measure 61
0100
0100
0010
1000
0001
0010
0010
0100
,  // measure 62
1000
0001
1000
0000
0010
1000
0100
0001
,  // measure 63
0100
1000
0010
0001
0010
1000
0100
0010
,  // measure 64
0001
0100
0010
1000
0001
0000
1001
0000
,  // measure 65
0110
0000
0000
0110
0000
0000
1000
0000
0101
0000
0000
1001
0000
0000
0001
0000
,  // measure 66
0010
0000
0001
1000
0010
0000
0100
0000
0210
0000
0000
0000
0010
0000
0000
0000
,  // measure 67
0010
0310
2000
0001
,  // measure 68
0001
3001
0002
0010
,  // measure 69
0010
0013
0200
1000
,  // measure 70
1000
0000
1300
0000
0020
0000
0000
1030
,  // measure 71
0010
0100
0001
1000
0001
0010
1000
0010
,  // measure 72
0001
0100
1000
0100
0001
0010
0100
1000
,  // measure 73
0001
0100
0010
1000
0001
1000
1001
0000
,  // measure 74
0010
0000
0100
0000
0001
1000
0001
0000
1000
0000
0010
0000
0000
0000
1000
0000
,  // measure 75
0000
0100
0000
1000
0010
0100
0000
0001
,  // measure 76
0000
0010
0000
0001
0100
0010
0010
1000
,  // measure 77
0100
0100
0010
0001
0001
1000
0010
1000
,  // measure 78
0001
0000
1001
0000
0010
0100
0100
0010
,  // measure 79
0100
0100
0002
0000
1003
0100
0010
0001
,  // measure 80
2000
0000
3001
0000
1100
0000
0000
0101
,  // measure 81
0000
0000
0011
0000
1010
0000
0000
1001
,  // measure 82
0000
0000
0110
0000
1000
1001
0000
0100
,  // measure 83
1100
0000
0000
0000
0010
0000
0011
0000
0000
0000
0001
0000
1000
0001
1000
0000
,  // measure 84
2002
3003
0001
0000
1000
0000
0010
0000
0000
0000
1000
0000
0000
0000
0100
0000
,  // measure 85
0000
1000
0001
0010
0000
0001
0000
0100
,  // measure 86
0000
0010
0100
0001
0010
0100
1000
0010
,  // measure 87
1000
0001
1000
0100
0010
0001
1000
0010
,  // measure 88
1000
0000
0001
0100
0100
1000
0100
0001
,  // measure 89
0100
1000
0010
1000
1000
0010
0001
0010
,  // measure 90
1000
0000
0010
0000
0100
0000
0000
0000
1001
0000
0000
0000
0110
0000
0000
0101
,  // measure 91
0000
0000
1000
0000
1010
0000
0000
0101
0000
0000
0001
0000
0011
0000
0000
1100
,  // measure 92
0000
0001
1002
0000
1000
0000
0100
0000
,  // measure 93
1003
2000
0001
0100
,  // measure 94
3001
0020
0100
0001
,  // measure 95
0130
2000
0100
0010
,  // measure 96
3001
0000
1000
0100
0100
0100
1000
0010
,  // measure 97
0001
0010
0100
0010
0010
0010
1000
0100
,  // measure 98
0001
0000
0100
0000
1000
0000
0000
0000
0011
0000
0000
0000
0101
0000
0000
0011
,  // measure 99
0000
0000
0110
0000
1001
0000
0000
1100
0000
0000
1010
0000
0202
0000
0000
0000
,  // measure 100
0303
0000
1001
0100
0100
0010
1000
1000
,  // measure 101
0001
0000
0010
0000
0010
0000
0100
0000
1000
0000
1000
0000
0010
0000
0100
0010
,  // measure 102
0100
0010
0100
0000
1001
0000
2002
0000
0000
0000
0000
0000
0000
0000
0000
0000
,  // measure 103
0000
3003
0000
0000
;

//---------------dance-single - ----------------
#NOTES:
     dance-single:
     :
     Challenge:
     18:
     1.000,1.000,0.360,0.524,0.876: // measure 1
0000
0000
0000
0000
,  // measure 2
0000
0000
0000
0000
,  // measure 3
0000
0000
0000
0000
,  // measure 4
0000
0000
0000
0000
,  // measure 5
0000
0000
0000
0000
,  // measure 6
0000
0000
0000
0000
0000
0000
0000
0000
0000
0000
0000
0000
0000
0000
0010
1000
,  // measure 7
0010
0000
0100
0000
0001
0000
1000
0000
0001
0000
0010
0000
0100
0000
0010
0001
,  // measure 8
0010
0000
0100
0000
1000
0000
0010
0000
0100
0000
0001
0000
1000
0000
0001
1000
,  // measure 9
0010
0000
1000
0100
1000
0100
1000
0000
0001
0000
0100
0010
0100
0010
0100
0000
,  // measure 10
0001
0000
0010
0001
0000
1000
0010
0000
0210
0000
0000
0000
0310
0000
1000
0100
,  // measure 11
0000
1000
0010
0000
1000
0000
0001
0100
0000
0001
0010
0000
0100
0000
0010
0001
,  // measure 12
0000
1000
0010
0000
0100
0000
0001
1000
0000
0001
0100
0000
0001
0000
0010
0001
,  // measure 13
0000
0001
0100
0000
0010
0000
1000
0100
0000
0100
0010
0000
0100
0000
1000
0001
,  // measure 14
0000
0001
0100
0000
0010
0000
0100
0010
1000
0000
0001
0010
0100
0000
0010
0000
,  // measure 15
0001
0010
0001
0010
0100
0000
0010
0000
0001
0000
1000
0000
0010
0000
0100
0000
,  // measure 16
0010
1000
0010
1000
0001
0000
1000
0000
0100
0000
0001
0000
0100
0000
1000
0010
,  // measure 17
1000
0010
0100
0000
0001
0010
0001
0010
0100
0000
0010
0001
1000
0000
0001
1000
,  // measure 18
0010
0000
0100
0010
1000
0000
0000
0110
0000
0000
1001
0000
1010
0000
0001
0000
,  // measure 19
0001
0100
0000
0001
0020
0000
0230
0320
,  // measure 20
0032
2003
3200
2300
3020
0032
1003
0100
,  // measure 21
0100
0010
0000
1000
0100
0000
2000
3020
,  // measure 22
0230
0302
2003
3200
0302
0023
0031
0100
,  // measure 23
0100
0010
0000
0001
2000
0000
3020
2030
,  // measure 24
3200
0302
0203
2300
3020
0032
0013
0100
,  // measure 25
0100
0001
0000
1000
0002
0000
1003
0010
,  // measure 26
0110
0000
0000
0000
1001
0000
0000
0000
0010
0000
1000
0000
0001
0000
1000
0100
,  // measure 27
1000
0100
0010
0000
0100
0000
1000
0001
2000
0000
0000
0000
3001
0000
0100
0001
,  // measure 28
1000
0000
0010
0000
1000
0000
0001
1000
0100
0000
0010
0000
0100
0000
0010
0001
,  // measure 29
0010
0001
0100
0000
0010
0000
0100
0001
2000
0000
0000
0000
3010
0000
0100
0010
,  // measure 30
1000
0000
0010
0000
0100
0000
0001
1000
0100
0000
0010
0000
0100
0000
1000
0001
,  // measure 31
1000
0001
0100
0000
0010
0000
0100
0001
0020
0000
0000
0000
0031
0000
1000
0001
,  // measure 32
0100
0000
0001
0000
1000
0000
0001
1000
0010
0000
1000
0000
0001
0000
0010
0100
,  // measure 33
0010
0100
1000
0000
0010
0000
0100
0001
0020
0000
0000
0000
0031
0000
0100
0001
,  // measure 34
0100
0000
0010
1000
0001
1000
0001
1000
0010
0100
0010
0100
0001
0000
0010
0000
,  // measure 35
0100
1000
0002
0010
1003
0100
1000
0010
,  // measure 36
0100
0001
2000
0010
3001
0100
0010
0100
,  // measure 37
0001
1000
0002
0010
0100
1003
2000
0010
,  // measure 38
0100
3001
0200
0010
1000
0301
0110
0001
,  // measure 39
0100
1000
0020
1000
0031
0100
0010
1000
,  // measure 40
0100
0010
0200
1000
0301
1000
0001
0000
,  // measure 41
0110
0110
0000
1001
1001
0100
0010
0100
,  // measure 42
1000
0000
0001
0000
0100
0000
0010
0100
0001
0000
0100
0000
0010
0000
1000
0001
,  // measure 43
1000
0001
0100
0000
0010
0000
1000
0001
0020
0000
0000
0000
0031
0000
0010
0100
,  // measure 44
1000
0100
0010
0000
0001
0000
0100
0001
0100
0010
0100
0000
0010
0000
1000
0000
,  // measure 45
0001
0100
0001
1000
0000
0000
1000
0100
0000
0000
0100
0001
0000
0000
0001
0100
,  // measure 46
1000
0000
0001
0100
0010
0000
0100
0000
0002
0000
0000
0000
1003
0000
0010
1000
,  // measure 47
0010
1000
0001
0100
0010
0100
0001
0010
,  // measure 48
0100
0010
0100
0010
0001
0000
1000
0000
0100
0000
0010
0000
0100
1000
0100
1000
,  // measure 49
0100
0000
1000
0010
1000
0000
0001
0100
0001
0000
1000
0100
0010
0100
1000
0001
,  // measure 50
0100
0010
1000
0001
2000
3000
0001
0000
1002
0000
0010
0000
0000
0000
1000
0000
,  // measure 51
0000
0100
0000
1003
0200
0010
0000
1000
,  // measure 52
0000
0000
0001
0000
0000
0000
0310
0000
0001
0000
0100
0010
1000
0000
0001
0000
,  // measure 53
1000
0100
1000
0100
0010
0000
0100
1000
0001
0000
0100
0010
1000
0000
0010
0000
,  // measure 54
0100
0000
0001
0010
0100
1000
0001
0000
2000
0000
0010
0000
0000
0000
3010
0000
,  // measure 55
0200
0001
0000
0301
0020
0100
0000
0130
,  // measure 56
2000
0000
0100
0000
0000
0000
3100
0000
1000
0000
0001
1000
0001
0000
0000
0000
,  // measure 57
1001
0000
0000
1001
0000
0000
0110
0000
0010
0000
0100
0001
1000
0000
0010
1000
,  // measure 58
0001
0100
0010
0100
0001
0010
0100
1000
2001
0000
0010
0000
0000
0000
0001
0000
,  // measure 59
0000
0100
0000
3001
0020
1000
0000
0100
,  // measure 60
0000
0000
0001
0000
0000
0000
0130
0000
1000
0000
0010
0100
0001
0000
1000
0000
,  // measure 61
0100
0010
0001
0000
1000
0000
0010
0000
1000
0000
0001
0100
0010
0000
0100
0001
,  // measure 62
1000
0000
0001
0000
0010
0000
0001
1000
0200
0000
1000
0000
0000
0000
0310
0000
,  // measure 63
0002
0100
0000
0013
2000
0100
0000
3001
,  // measure 64
0020
0000
0100
0000
0000
0000
0031
0000
1000
0001
1000
0001
1000
0000
0001
0000
,  // measure 65
1001
0000
0000
1010
0000
0000
0011
0000
1100
0000
0000
0101
0000
0000
0010
0000
,  // measure 66
0100
0010
1000
0001
0100
0000
0001
0000
0010
0100
1000
0100
0010
0000
0001
0000
,  // measure 67
0010
0100
1000
0100
0010
0000
0001
0000
0010
0100
1000
0100
0010
0000
0001
0000
,  // measure 68
0010
0100
1000
0100
0010
0000
0001
0000
1000
0100
1000
0100
0001
0100
0001
0100
,  // measure 69
1000
0010
1000
0010
0001
0010
0001
0010
1000
0100
0010
0001
1000
0100
0010
0001
,  // measure 70
1000
0100
0001
1000
0010
0001
1000
0100
0001
0000
0010
0000
0000
0000
0010
0000
,  // measure 71
0001
0000
1000
0000
0000
0000
1000
0000
0010
0000
1000
0010
0100
0000
0100
0001
,  // measure 72
1000
0000
1000
0001
0010
0000
0010
0001
0100
0000
0000
0000
0110
0000
0000
0000
,  // measure 73
0110
0000
1001
1001
0000
1100
0101
0000
,  // measure 74
1000
0010
0100
0001
1000
0000
0000
0000
0001
0000
0010
0001
0010
0000
0110
0000
,  // measure 75
0001
0000
0100
0000
1000
0000
0000
0000
0010
0000
1000
0010
1000
0000
0001
0000
,  // measure 76
0100
0000
0001
0010
0001
0000
1000
0000
0100
0000
0010
0100
1000
0001
1000
0010
,  // measure 77
0000
0000
0010
0001
0000
0000
0001
0010
0000
0000
0010
1000
0001
0000
0010
0100
,  // measure 78
1000
0000
0100
0000
0020
0000
0000
0000
0031
0100
0001
0100
0010
0000
1000
0100
,  // measure 79
1000
0000
0001
1000
0010
0000
0200
0000
0001
0000
2300
0000
0000
0000
3001
0000
,  // measure 80
0020
0000
0001
0000
0000
0000
1030
0000
0001
0000
1000
0100
1000
0000
0001
0000
,  // measure 81
1000
0010
1000
0000
0001
0000
1000
0001
0100
0000
0001
1000
0010
0000
1000
0000
,  // measure 82
0010
1000
0010
1000
0100
0000
0010
0001
1001
0000
1001
0000
0000
0000
0101
0000
,  // measure 83
0101
0000
0000
0000
1100
0000
1100
0000
0001
0010
0100
1000
0001
0100
1000
0100
,  // measure 84
0002
0003
1000
0000
0120
0000
1000
0000
0000
0000
0100
0000
0000
0000
0001
0000
,  // measure 85
0000
1030
0002
0010
0000
0100
0000
1000
,  // measure 86
0000
0000
0103
0000
1000
0100
1000
0100
0010
0000
0001
1000
0001
1000
0010
0000
,  // measure 87
0100
0000
0001
0000
1000
0100
0010
0001
1000
0000
0001
0100
0010
1000
0001
0000
,  // measure 88
0010
0001
1000
0010
0002
0000
0010
0000
0000
0000
1003
0000
0200
0000
1000
0000
,  // measure 89
0000
0310
0002
1000
0000
0103
0020
1000
,  // measure 90
0000
0000
0031
0000
1000
0000
0001
1000
0010
0000
0000
0000
0110
0000
0000
0101
,  // measure 91
0000
0000
1100
0000
0011
0000
0000
1001
0000
0000
0010
0000
0100
0010
0100
0010
,  // measure 92
1000
0100
0010
0001
1000
0000
0010
0000
0001
0000
0010
0000
1000
0000
0001
1000
,  // measure 93
0001
0000
1000
0000
0001
0000
0100
0000
1000
0000
0100
0000
0001
0000
1000
0001
,  // measure 94
1000
0000
0001
0000
1000
0000
0100
0000
0001
0000
0010
0000
1000
0000
0100
1000
,  // measure 95
0001
0000
1000
0000
0001
0000
0010
0000
1000
0000
0100
0000
0001
0000
0100
1000
,  // measure 96
0001
0000
1000
0000
0010
1000
0010
1000
0010
1000
0010
1000
0010
0001
0010
0001
,  // measure 97
0010
0001
0010
0001
0010
1000
0100
0001
0100
1000
0010
0001
0010
1000
0100
0010
,  // measure 98
0001
1000
0001
0100
0010
0000
0100
0010
1000
0000
0000
0000
0001
0000
0000
0000
,  // measure 99
1001
0000
1001
0000
0000
0000
0110
0000
0110
0000
0000
0000
0010
1000
0001
0010
,  // measure 100
0100
0000
0010
0000
0001
0100
0001
0100
0001
0100
1000
0100
1000
0100
1000
0100
,  // measure 101
0001
0010
1000
0001
0100
1000
0001
0010
1000
0010
0001
0100
1000
0100
0001
0010
,  // measure 102
1000
0010
0001
1000
1001
0000
2002
0000
0000
0000
0000
0000
0000
0000
0000
0000
,  // measure 103
0000
3003
0000
0000
;
