#TITLE:THE DETONATOR (RoughSketch BPM200 Remix);
#SUBTITLE:;
#ARTIST:Remixed by RoughSketch;
#TITLETRANSLIT:;
#SUBTITLETRANSLIT:;
#ARTISTTRANSLIT:;
#GENRE:;
#CREDIT:;
#MENUCOLOR:;
#METERTYPE:DDR;
#BANNER:THE DETONATOR (RoughSketch BPM200 Remix).png;
#BACKGROUND:THE DETONATOR (RoughSketch BPM200 Remix)-bg.png;
#LYRICSPATH:;
#CDTITLE:./CDTITLES/NONE.PNG;
#MUSIC:THE DETONATOR (RoughSketch BPM200 Remix).ogg;
#OFFSET:0.000;
#SAMPLESTART:14.500;
#SAMPLELENGTH:15.000;
#SELECTABLE:YES;
#LISTSORT:;
#BPMS:0.000=200.000,180.000=100.000,196.000=200.000;
#STOPS:;
#BGCHANGES:;
#ATTACKS:;

//---------------dance-single - ----------------
#NOTES:
     dance-single:
     :
     Beginner:
     3:
     0.130,0.151,0.008,0.000,0.000: // measure 1
0000
0000
0000
0000
,  // measure 2
0000
0000
0000
0000
,  // measure 3
0000
0000
0000
0000
,  // measure 4
0000
0000
0000
0000
,  // measure 5
0000
0000
0000
0000
,  // measure 6
0010
0000
0000
0000
,  // measure 7
1000
0000
0000
0000
,  // measure 8
0001
0000
0000
0000
,  // measure 9
0100
0000
0000
0000
,  // measure 10
0001
0000
0001
0000
,  // measure 11
0001
0000
0000
0000
,  // measure 12
1000
0000
1000
0000
,  // measure 13
1000
0000
0000
0000
,  // measure 14
0010
0000
0000
0000
,  // measure 15
0010
0000
0010
0000
,  // measure 16
0010
0000
0000
0000
,  // measure 17
0100
0000
0000
0000
,  // measure 18
0100
0000
0000
0000
,  // measure 19
0100
0000
0100
0000
,  // measure 20
0100
0000
0000
0000
,  // measure 21
0001
0000
0000
0000
,  // measure 22
1000
0000
0000
0000
,  // measure 23
1000
0000
1000
0000
,  // measure 24
1000
0000
0000
0000
,  // measure 25
0001
0000
0000
0000
,  // measure 26
0010
0000
0000
0000
,  // measure 27
0010
0000
0000
0000
,  // measure 28
0100
0000
0000
0000
,  // measure 29
1000
0000
0000
0000
,  // measure 30
0001
0000
0000
0000
,  // measure 31
0001
0000
0001
0000
,  // measure 32
0001
0000
0000
0000
,  // measure 33
1000
0000
1000
0000
,  // measure 34
1000
0000
0000
0000
,  // measure 35
0010
0000
0010
0000
,  // measure 36
0010
0000
0000
0000
,  // measure 37
0100
0000
0100
0000
,  // measure 38
0100
0000
0000
0000
,  // measure 39
0001
0000
0000
0000
,  // measure 40
1000
0000
0000
0000
,  // measure 41
0010
0000
0000
0000
,  // measure 42
1000
0000
0000
0000
,  // measure 43
1000
0000
0000
0000
,  // measure 44
0100
0000
0000
0000
,  // measure 45
0010
0000
0000
0000
,  // measure 46
0001
0000
0000
0000
,  // measure 47
1000
0000
0000
0000
,  // measure 48
0010
0000
0000
0000
,  // measure 49
0100
0000
0000
0000
,  // measure 50
0001
0000
0001
0000
,  // measure 51
0001
0000
0000
0000
,  // measure 52
1000
0000
1000
0000
,  // measure 53
1000
0000
0000
0000
,  // measure 54
0010
0000
0010
0000
,  // measure 55
0010
0000
0000
0000
,  // measure 56
0100
0000
0100
0000
,  // measure 57
0100
0000
0000
0000
,  // measure 58
1001
0000
0000
0000
,  // measure 59
0000
0000
0000
0000
,  // measure 60
1000
0000
1000
0000
,  // measure 61
1000
0000
0000
0000
,  // measure 62
0100
0000
0100
0000
,  // measure 63
0100
0000
0000
0000
,  // measure 64
0010
0000
0010
0000
,  // measure 65
0010
0000
0000
0000
,  // measure 66
0001
0000
0001
0000
,  // measure 67
0001
0000
0000
0000
,  // measure 68
0100
0000
0100
0000
,  // measure 69
0100
0000
0000
0000
,  // measure 70
0010
0000
0010
0000
,  // measure 71
0010
0000
0000
0000
,  // measure 72
1000
0000
0001
0000
,  // measure 73
1000
0000
0001
0000
,  // measure 74
1000
0000
0000
0000
,  // measure 75
0001
0000
0000
0000
,  // measure 76
0010
0000
0000
0000
,  // measure 77
0010
0000
0000
0000
,  // measure 78
0100
0000
0000
0000
,  // measure 79
0100
0000
0000
0000
,  // measure 80
1000
0000
0000
0000
,  // measure 81
0001
0000
0000
0000
,  // measure 82
1000
0000
0000
0000
,  // measure 83
0010
0000
0000
0000
,  // measure 84
0100
0000
0100
0000
,  // measure 85
0100
0000
0000
0000
,  // measure 86
0001
0000
0001
0000
,  // measure 87
0001
0000
0000
0000
,  // measure 88
1000
0000
1000
0000
,  // measure 89
1000
0000
0000
0000
,  // measure 90
0010
0000
0010
0000
,  // measure 91
0010
0000
0000
0000
,  // measure 92
0100
0000
0000
0000
,  // measure 93
0000
0000
0000
0000
,  // measure 94
0000
0000
0000
0000
,  // measure 95
0010
0000
0000
0000
;

//---------------dance-single - ----------------
#NOTES:
     dance-single:
     :
     Easy:
     7:
     0.356,0.379,0.040,0.177,0.000: // measure 1
0000
0000
0000
0000
,  // measure 2
0000
0000
0000
0000
,  // measure 3
0000
0000
0000
0000
,  // measure 4
0000
0000
0000
0000
,  // measure 5
0000
0000
0000
0000
,  // measure 6
0020
0000
0000
0000
,  // measure 7
0000
0000
0000
0030
,  // measure 8
2000
0000
0000
0000
,  // measure 9
0000
0000
0000
3000
,  // measure 10
0001
0001
0001
0001
,  // measure 11
1000
1000
1000
1000
,  // measure 12
0010
0100
0001
1000
,  // measure 13
0220
0000
0000
0330
,  // measure 14
1000
1000
0100
0100
,  // measure 15
0010
0010
0001
0100
,  // measure 16
0001
0001
0010
0010
,  // measure 17
0100
0100
1000
0010
,  // measure 18
1000
1000
0001
0001
,  // measure 19
0100
0100
0010
0010
,  // measure 20
0100
0001
1000
0001
,  // measure 21
2000
0000
0001
3000
,  // measure 22
0001
0001
0010
0010
,  // measure 23
0100
0100
1000
0100
,  // measure 24
1000
1000
0100
0100
,  // measure 25
0010
0001
2000
3000
,  // measure 26
0001
0001
0001
0001
,  // measure 27
0100
0100
0100
0100
,  // measure 28
0010
1000
0001
0100
,  // measure 29
2002
0000
0000
3003
,  // measure 30
1000
1000
0100
0100
,  // measure 31
0010
0001
0100
0001
,  // measure 32
0010
0010
0001
0001
,  // measure 33
1000
0010
0100
0010
,  // measure 34
1000
1000
0001
0001
,  // measure 35
0100
0000
0000
0100
0000
0000
0100
0000
,  // measure 36
0001
0001
0010
0010
,  // measure 37
0100
1000
0002
0003
,  // measure 38
1000
0010
1000
0001
,  // measure 39
1000
0100
0010
0001
,  // measure 40
0001
0010
0001
1000
,  // measure 41
0001
0100
0020
0030
,  // measure 42
1000
1000
1000
1000
,  // measure 43
0100
0100
0100
0100
,  // measure 44
0010
0001
0100
0010
,  // measure 45
1000
0100
0022
0033
,  // measure 46
1000
1000
1000
0000
,  // measure 47
0001
0001
0001
0000
,  // measure 48
0100
0010
0100
0000
,  // measure 49
0001
1000
0001
0000
,  // measure 50
1000
0100
0010
0000
,  // measure 51
0100
1000
0001
0000
,  // measure 52
0001
0100
0010
0000
,  // measure 53
0100
0001
1000
0000
,  // measure 54
0010
1000
0010
0000
,  // measure 55
0100
0001
0100
0000
,  // measure 56
0001
0010
0001
0000
,  // measure 57
0100
1000
0100
1000
,  // measure 58
1001
0000
0000
0000
,  // measure 59
0020
0000
0000
0030
,  // measure 60
0100
0001
0100
0100
,  // measure 61
0001
0010
0001
0001
,  // measure 62
1000
0010
1000
1000
,  // measure 63
0001
0010
0100
1000
,  // measure 64
0001
0100
0010
0010
,  // measure 65
1000
0100
0010
0010
,  // measure 66
0100
1000
0001
1000
,  // measure 67
0002
0000
1000
0003
,  // measure 68
0010
0000
0000
0100
0000
0100
0000
0000
,  // measure 69
1000
0000
0000
0010
0000
0010
0000
0000
,  // measure 70
0100
0000
0000
0001
0000
0001
0000
0000
,  // measure 71
1000
0000
0000
0100
0000
0010
0000
0000
,  // measure 72
0001
0001
0100
0100
,  // measure 73
0010
0010
1000
1000
,  // measure 74
0100
0010
0001
1000
,  // measure 75
0000
0010
0000
0000
0100
0000
0000
0100
,  // measure 76
0001
1000
0001
0010
,  // measure 77
0002
0000
0103
0000
,  // measure 78
1000
0010
1000
0001
,  // measure 79
2000
0000
3100
0000
,  // measure 80
0010
0001
0100
0010
,  // measure 81
0200
0000
0310
0000
,  // measure 82
1000
0100
0010
0001
,  // measure 83
0020
0000
0130
0000
,  // measure 84
0001
0100
0010
1000
,  // measure 85
0200
1000
0000
1300
,  // measure 86
1000
0100
0010
0001
,  // measure 87
0200
0001
0000
0301
,  // measure 88
0001
0010
0100
1000
,  // measure 89
0020
1000
0000
0031
,  // measure 90
1000
0100
0001
0100
,  // measure 91
1000
0000
0001
0000
,  // measure 92
0210
0000
0000
0000
,  // measure 93
0000
0000
0000
0000
,  // measure 94
0000
0000
0000
0000
,  // measure 95
0310
0000
0000
0000
;

//---------------dance-single - ----------------
#NOTES:
     dance-single:
     :
     Medium:
     11:
     0.563,0.719,0.145,0.169,0.024: // measure 1
0000
0000
0000
0000
,  // measure 2
0000
0000
0000
0000
,  // measure 3
0000
0000
0000
0000
,  // measure 4
0000
0000
0000
0000
,  // measure 5
0000
0000
0000
0000
,  // measure 6
1001
0010
0010
0010
,  // measure 7
0100
0001
0001
0001
,  // measure 8
1000
0100
0100
0100
,  // measure 9
0010
0001
0001
0001
,  // measure 10
1000
0010
1000
0010
0100
0000
0001
0000
,  // measure 11
0010
0000
0010
0001
0000
0001
0100
0000
,  // measure 12
0001
0100
0001
1000
0010
1000
0010
0000
,  // measure 13
0210
0000
0000
0000
0000
0000
0000
0301
,  // measure 14
0100
0100
0010
0000
1000
0000
0100
0000
,  // measure 15
0010
0010
0001
0000
1000
0000
0010
0000
,  // measure 16
1000
1000
0100
0000
1000
0000
0001
0000
,  // measure 17
0100
0100
0010
0000
0100
0001
1000
0000
,  // measure 18
0001
0001
0010
0000
0100
0000
1000
0000
,  // measure 19
0010
0010
1000
0000
0001
0000
1000
0000
,  // measure 20
0100
0100
0010
0000
0100
0000
1000
0000
,  // measure 21
0001
0100
0001
0000
1000
0001
0000
1000
,  // measure 22
0010
0010
1000
0000
0001
0010
0001
0000
,  // measure 23
1000
1000
0100
0000
1000
0010
1000
0000
,  // measure 24
0001
0001
0100
0000
0001
0010
0100
0000
,  // measure 25
0010
0010
0001
0000
0220
0000
0330
0000
,  // measure 26
1000
1000
0100
0000
1000
0001
1000
0000
,  // measure 27
0001
0001
0100
0000
0001
1000
0001
0000
,  // measure 28
0100
0010
1000
0000
0010
0100
0001
0000
,  // measure 29
0210
0000
0000
0000
0301
1000
0000
0001
,  // measure 30
0010
0000
0010
0001
0000
0001
0000
1000
,  // measure 31
0100
1000
0010
0000
0110
0000
0000
0000
,  // measure 32
1000
0000
1000
0100
0000
0100
0000
0010
,  // measure 33
0001
0100
0010
0000
1010
0000
0000
0000
,  // measure 34
0001
0000
0100
0010
0000
0010
0000
1000
,  // measure 35
0100
0000
0000
0110
0000
0000
1001
0000
,  // measure 36
0001
0000
0100
0001
0000
0001
0000
0100
,  // measure 37
0010
1000
0100
0000
1000
0010
0000
1000
,  // measure 38
0001
0000
1000
0100
1000
0010
1000
0000
,  // measure 39
0001
1000
0100
0000
0110
0000
0000
0000
,  // measure 40
1000
0000
0001
0100
0001
0010
0001
0000
,  // measure 41
1000
0001
0100
0000
1010
0000
0000
0000
,  // measure 42
0001
0001
0010
0010
,  // measure 43
0100
0100
1000
1000
,  // measure 44
0001
0100
0001
0000
1000
0100
0010
0001
,  // measure 45
0000
0100
0010
0000
2001
0000
0000
0000
,  // measure 46
3010
1000
0001
0100
0001
0010
0200
1300
,  // measure 47
1000
0100
0010
0001
0100
0010
0200
0301
,  // measure 48
0001
1000
0010
0100
0001
0010
0002
1003
,  // measure 49
1000
0000
0010
0000
0100
0000
0010
0000
1000
0100
0010
0000
0010
0000
0001
1000
,  // measure 50
0001
0000
0100
0001
0010
0000
0010
0000
,  // measure 51
0001
0100
0010
0000
0100
0000
0001
0000
,  // measure 52
1000
0000
1000
0100
0010
0000
0010
0000
,  // measure 53
0100
1000
0010
0000
0100
0001
0000
1000
,  // measure 54
0001
0000
1000
0010
0100
0000
0010
0000
,  // measure 55
1000
0100
0010
0000
0001
0000
0100
0000
,  // measure 56
0001
1000
0100
0000
0011
0000
0100
1000
,  // measure 57
0000
1000
0010
0000
0100
0001
1000
0001
,  // measure 58
2000
0000
0000
0000
,  // measure 59
3002
0000
0000
0000
0000
0000
0000
1003
,  // measure 60
0010
0010
0100
0000
0001
0010
0000
0010
,  // measure 61
0001
1000
0000
0001
0100
0010
1000
1000
,  // measure 62
0000
0100
0000
0010
0001
1000
0000
0001
,  // measure 63
0000
0010
0000
0010
0001
0001
0100
0010
,  // measure 64
0000
1000
0000
1000
0100
0010
0000
0100
,  // measure 65
0000
1000
0000
1000
0100
0010
0100
1000
,  // measure 66
0000
0001
0000
0001
0100
0010
0100
0001
,  // measure 67
2000
0000
0000
3000
,  // measure 68
0001
0010
0010
0000
0001
0100
0010
0100
,  // measure 69
0001
1000
1000
0000
0100
1000
0010
1000
,  // measure 70
0100
0010
0010
0000
0100
1000
0000
0001
,  // measure 71
1000
0010
0000
1000
0010
1000
0001
1000
,  // measure 72
0100
1100
0001
0101
,  // measure 73
1000
1010
0001
0011
,  // measure 74
1000
0100
0001
0100
1000
0010
0001
0010
,  // measure 75
0000
0000
0100
0000
0000
0010
0000
0000
1001
0000
0000
0110
0000
0000
1000
0000
,  // measure 76
0001
0000
0010
0001
0200
0000
0301
0000
,  // measure 77
1000
0100
0020
0031
,  // measure 78
1000
0000
0100
1000
0020
0000
0130
0000
,  // measure 79
1000
0000
0001
0000
0100
0001
1000
0001
,  // measure 80
1000
0000
0010
1000
0002
0000
0103
0000
,  // measure 81
0001
0000
0010
0100
2000
0000
3010
0000
,  // measure 82
1000
0000
0100
1000
0020
0000
0130
0000
,  // measure 83
0001
0000
0100
0000
0001
0010
0001
1000
,  // measure 84
0001
0000
0001
0100
0020
0000
0130
0000
,  // measure 85
0001
0100
0010
2000
,  // measure 86
3100
0000
1000
0100
0010
0000
0100
0000
,  // measure 87
1000
0000
0100
0000
0010
0001
1000
0001
,  // measure 88
1000
0000
0010
0100
0001
0000
0100
0000
,  // measure 89
0010
1000
0001
2000
,  // measure 90
3001
0000
0010
0001
0100
0000
0001
1000
,  // measure 91
0000
0000
0000
1000
0000
0000
0000
0000
0000
0010
0000
0000
0100
0000
0000
0000
0010
0000
0100
0000
0000
0000
0200
0000
,  // measure 92
0000
0000
0000
0000
,  // measure 93
0000
0000
0000
0000
,  // measure 94
0000
0000
0000
0000
,  // measure 95
0310
0000
0000
0000
;

//---------------dance-single - ----------------
#NOTES:
     dance-single:
     :
     Hard:
     15:
     0.749,0.946,0.298,0.153,0.145: // measure 1
0000
0000
0000
0000
,  // measure 2
0000
0000
0000
0000
,  // measure 3
0000
0000
0000
0000
,  // measure 4
0000
0000
0000
0000
,  // measure 5
0000
0000
0000
0000
,  // measure 6
1001
0001
0001
0001
,  // measure 7
0100
0100
0010
1000
,  // measure 8
1000
1000
1000
1000
,  // measure 9
0100
0010
0001
0001
,  // measure 10
1000
0100
0001
0100
1000
0010
0001
0010
,  // measure 11
1000
0000
0100
1000
0100
0000
1000
0000
0001
0000
0010
0001
0010
0000
0001
0000
,  // measure 12
1000
0001
0100
0010
1000
0100
0010
0001
,  // measure 13
0100
0000
0010
1000
0010
0000
1000
0000
0001
0000
0000
0000
1000
0000
0001
0000
,  // measure 14
0100
0100
0010
0000
1000
0100
0010
0100
,  // measure 15
1000
0000
1000
0000
0010
0000
0000
0000
0100
0000
0001
0000
0010
0000
0000
0001
,  // measure 16
0010
0010
0001
0000
1000
0100
0010
0100
,  // measure 17
1000
0000
1000
0000
0010
0000
0000
0000
0100
0010
0100
0000
0001
0000
1000
0000
,  // measure 18
0001
0001
0010
0000
0001
0100
0010
1000
,  // measure 19
0100
0100
0010
0000
0100
1000
0010
1000
,  // measure 20
0010
0010
1000
0000
0001
0001
0010
0001
,  // measure 21
0100
0010
1000
0000
0110
0001
0000
1000
,  // measure 22
0100
0100
1000
0000
0001
0010
0100
0010
,  // measure 23
0001
0001
0010
0000
0001
0100
0010
1000
,  // measure 24
0100
0100
1000
0000
0100
0010
0001
0100
,  // measure 25
0010
0010
0100
0010
0220
0000
0330
0000
,  // measure 26
1001
0001
0100
0000
1001
0000
1010
0000
,  // measure 27
1001
1000
0100
0000
1001
0000
0011
0000
,  // measure 28
1000
0100
0001
0100
1000
0010
0001
0010
,  // measure 29
2000
0000
0000
0000
0000
0000
0000
0000
3001
1000
0001
0000
0000
0000
0001
0000
,  // measure 30
0100
0000
0001
0010
0001
0100
0010
1000
,  // measure 31
0100
0100
0010
0000
0100
1000
0001
0100
,  // measure 32
0100
0000
0010
0100
0001
1000
0010
1000
,  // measure 33
0001
0000
0010
0000
0100
0000
1000
0000
0001
0010
0001
0000
0000
0000
1000
0000
,  // measure 34
0100
0000
1000
0010
0100
0001
1000
0100
,  // measure 35
0011
0000
0000
1100
0000
0000
0101
0001
,  // measure 36
1000
0000
0001
0100
0010
0100
0001
0010
,  // measure 37
0100
0100
1000
0000
0011
0100
0000
1000
,  // measure 38
1010
0000
0001
0100
0010
1000
0001
0000
,  // measure 39
1000
0010
0100
0001
1000
0100
0010
0100
,  // measure 40
1000
0000
1000
0001
0100
0010
0100
0000
,  // measure 41
0001
0000
0100
0000
0010
0000
1000
0000
0001
1000
0001
0000
0000
0000
1000
0000
,  // measure 42
0001
0101
1000
1100
,  // measure 43
0001
0011
1000
1010
,  // measure 44
0001
0100
1000
0100
0001
0010
1000
0010
,  // measure 45
0000
0000
0001
0100
0001
0000
1000
0000
0002
0000
0000
0000
0000
0000
0000
0000
,  // measure 46
1003
0000
0100
0010
0001
0000
0100
0000
0010
0000
2000
0000
3002
0000
0203
0000
,  // measure 47
0301
0000
0100
0010
1000
0000
0100
0000
0010
0000
0200
0000
2300
0000
3002
0000
,  // measure 48
1003
0000
0001
0100
0010
0000
0100
0000
0001
0000
0020
0000
0230
0000
2300
0000
,  // measure 49
3001
0000
1000
0001
0100
0000
0010
0000
0100
0001
1000
0001
1000
0000
0001
1000
,  // measure 50
1001
0000
0010
1000
0100
0000
1000
0100
,  // measure 51
0000
0010
0001
0100
0010
1000
0001
0000
,  // measure 52
0100
0000
0001
0100
0010
0000
1000
0010
,  // measure 53
0000
1000
0100
0010
0001
0110
0000
1001
,  // measure 54
0010
0000
0100
0001
1000
0000
0001
0010
,  // measure 55
0000
0100
1000
0010
0100
0001
1000
0000
,  // measure 56
0010
0100
0001
0000
1001
0000
0010
1000
,  // measure 57
0000
0000
0000
0001
0000
0000
0010
0000
0000
0100
0000
0000
1000
0000
0001
0000
1000
0000
0010
0000
1000
0000
0010
0000
,  // measure 58
0200
0000
0000
0010
0000
0010
0300
0010
,  // measure 59
1000
0000
0001
0100
0001
0000
0000
0000
0011
0000
0000
0000
1100
0000
1000
0000
,  // measure 60
0001
0100
0100
0010
1000
0100
0001
0100
,  // measure 61
1000
0000
0010
0000
0010
0000
0100
0000
0001
0000
1000
0000
0001
1000
0001
0000
,  // measure 62
1000
0100
0100
0010
0001
1000
1000
1000
,  // measure 63
0001
0000
1000
0000
0000
0000
0001
0000
0100
0000
0010
0100
0010
0000
0100
0000
,  // measure 64
0001
0000
0010
0000
0010
0000
0100
0000
1000
0000
0010
0000
1000
0000
0000
0001
,  // measure 65
1000
0000
0100
0000
0100
0000
0010
0000
0001
0000
0100
0000
0010
1000
0010
0000
,  // measure 66
1000
0001
0001
0100
0010
1000
0001
0100
,  // measure 67
0001
0000
1000
0100
1000
0000
0001
0000
1010
0000
0000
0000
0200
0000
0000
0000
,  // measure 68
0310
1000
1000
0001
0010
0010
0100
1000
,  // measure 69
0100
0000
0010
0000
0010
0000
0001
0000
1000
0000
0100
0000
0001
0000
0000
0100
,  // measure 70
1000
0001
0001
0100
0010
1000
0001
0100
,  // measure 71
0001
0000
0010
0000
0000
0000
0100
0000
1000
0000
0010
0001
0010
0000
0100
0000
,  // measure 72
0001
1000
1010
0000
1000
0100
0001
0100
,  // measure 73
1000
0001
0011
0000
0001
0100
1000
0100
,  // measure 74
0010
0100
0100
0001
1000
1000
0001
0001
,  // measure 75
0000
0000
1100
0000
0000
0011
0000
0000
1001
0000
0000
0110
0000
0000
1001
0000
,  // measure 76
0010
0000
0100
0001
1000
0010
1000
0000
,  // measure 77
0001
0010
0100
1000
0200
0000
0310
0001
,  // measure 78
0100
0100
0001
0010
0001
0000
1000
0100
,  // measure 79
0020
0000
0032
0000
1003
1000
0001
1000
,  // measure 80
1001
0001
0100
0010
0100
0000
0001
0010
,  // measure 81
0100
1000
0010
1000
0001
0000
1000
0100
,  // measure 82
0010
0010
0100
1000
0010
0000
0100
0001
,  // measure 83
0010
0000
0001
0000
1000
0000
0001
0000
0100
0010
0100
0000
0001
1000
0100
0000
,  // measure 84
1001
1000
0010
1000
0001
0000
1000
0100
,  // measure 85
0010
0001
0100
0001
0010
0000
0001
0100
,  // measure 86
0010
0010
0100
0001
1000
0000
0001
0100
,  // measure 87
0010
1000
0001
0000
1000
0011
0000
1100
,  // measure 88
0001
0001
0010
0001
0100
0000
0010
1000
,  // measure 89
0100
0010
0100
1000
0001
0000
1000
0100
,  // measure 90
0010
0010
0001
0000
1001
0000
0010
0100
,  // measure 91
0000
0000
0000
0100
0000
0000
0001
0000
0000
0000
0000
0000
1000
0000
0100
0000
0001
0000
0100
0000
1000
0000
0002
0000
,  // measure 92
0000
0000
0000
0000
,  // measure 93
0000
0000
0000
0000
,  // measure 94
0000
0000
0000
0000
,  // measure 95
1003
0000
0000
0000
;
