#TITLE:Noli Me Tangere;
#SUBTITLE:;
#ARTIST:Akhuta;
#TITLETRANSLIT:;
#SUBTITLETRANSLIT:;
#ARTISTTRANSLIT:;
#GENRE:;
#CREDIT:;
#MENUCOLOR:;
#METERTYPE:DDR;
#BANNER:Noli Me Tangere.png;
#BACKGROUND:Noli Me Tangere-bg.png;
#LYRICSPATH:;
#CDTITLE:./CDTITLES/GITADORA.PNG;
#MUSIC:Noli Me Tangere.ogg;
#OFFSET:0.000;
#SAMPLESTART:78.876;
#SAMPLELENGTH:15.000;
#SELECTABLE:YES;
#LISTSORT:;
#BPMS:0.000=267.000,79.000=178.000,187.000=267.000,279.000=178.000,339.000=89.000,346.500=267.000;
#STOPS:;
#BGCHANGES:0.000=Noli Me Tangere.avi=1.000=0=0=0,
99999=-nosongbg-=1.000=0=0=0 // don't automatically add -songbackground-
;
#ATTACKS:;

//---------------dance-single - ----------------
#NOTES:
     dance-single:
     :
     Beginner:
     6:
     0.096,0.169,0.034,0.000,0.000:
0000
0000
0000
0000
,
0000
0000
0000
0000
,
0000
0000
0000
0000
,
0000
0000
0000
0000
,
0000
0000
0000
0000
,
0000
0000
0000
0000
,
0000
0000
0000
0000
,
0000
0000
0000
0000
,
0000
0000
0000
0000
,
1000
0000
0000
0000
,
0000
0000
0000
0010
,
0000
0000
0000
0000
,
0000
0000
0100
0000
,
0000
0000
0000
0000
,
0000
0001
0000
0000
,
0000
0000
0000
0000
0000
1000
0000
0000
,
0000
0000
0000
0000
,
0000
0000
0000
0000
,
0000
0000
0000
0000
,
0000
0000
0000
1001
,
0000
0000
0000
0000
,
0000
0000
0000
0000
,
0000
0000
0010
0010
,
0000
0000
0000
0000
,
0000
0100
0000
0000
,
0000
0000
0000
0000
,
0000
0000
0001
0000
,
0000
1000
0000
0000
,
0010
0000
0000
0100
,
0000
0000
0001
0000
,
0000
1000
0000
0000
,
0100
0000
0000
0010
,
0000
0000
0000
0000
,
0000
1001
0000
0000
,
1000
0000
0000
0001
,
0000
0000
1000
0000
,
0000
0010
0000
0000
,
0100
0000
0000
0001
,
0000
0000
0001
0000
,
0000
0001
0000
0000
,
0000
0000
0000
1000
,
0000
0000
1000
0000
,
0000
1000
0000
0000
,
0000
0000
0000
0010
,
0000
0000
0010
0000
,
0000
0010
0000
0000
,
0100
0100
0100
0100
,
0000
0000
0000
0000
,
0000
0000
0010
0000
,
0000
0000
0000
0000
,
0000
1000
0000
0000
,
0000
0000
0000
0000
,
0001
0000
0000
0000
,
0000
0000
0000
1000
,
0000
0000
0000
0000
,
0000
0000
0001
0000
,
0000
0000
0000
0000
,
0000
0100
0000
0000
,
0000
0000
0000
0000
,
0010
0000
0000
0000
,
0000
0000
0000
1000
,
0000
0000
0000
0000
,
0000
0001
0000
0000
0000
0000
0000
0000
,
0000
0000
0100
0000
,
0000
0000
0000
0000
0000
0000
0000
0010
,
0000
0000
0000
0000
,
0000
0100
0000
0000
0000
0000
0000
0000
,
0010
0000
0000
0000
,
0000
0000
0000
0000
,
0000
0000
0000
1001
,
0000
0000
0000
0000
,
0000
0001
0000
0000
,
0000
0000
0000
1000
,
0000
0000
1000
0000
,
0000
1000
0000
0000
,
0000
0000
0000
0001
,
0000
0000
0001
0000
,
0000
0001
0000
0000
,
0000
0000
0000
0010
,
0000
0000
0010
0000
,
0000
0010
0000
0000
,
0000
0000
0000
0100
,
0000
0000
0100
0000
,
0000
0100
0000
0000
,
0000
0000
0000
1001
,
0000
0000
0000
0000
,
0000
0000
0000
0000
0000
0010
0000
0000
,
0000
0000
0000
0000
,
0000
0000
0000
0100
0000
0000
0000
0000
,
0000
0000
0000
0000
,
0000
0001
0000
0000
0000
0000
0000
0000
,
0000
0000
0000
0000
0000
0000
0000
1000
,
0000
0000
0000
0000
,
0000
0001
0000
0000
,
0000
0000
0000
0000
0000
0010
0000
0000
,
0000
0000
0000
0000
,
0100
0000
0000
0000
0000
0000
0000
0100
,
0000
0000
0000
0100
,
0000
0000
0000
0000
0000
0100
0000
0000
;

//---------------dance-single - ----------------
#NOTES:
     dance-single:
     :
     Easy:
     10:
     0.478,0.682,0.317,0.377,0.000:
0000
0000
0000
0000
,
0000
0000
0000
0000
,
0000
0000
0000
0000
,
0000
0000
0000
0000
,
0000
0000
0000
0000
,
0000
0000
0000
0000
,
0000
0000
0000
0000
,
0000
0000
0000
0000
,
0000
0000
0000
0000
,
0100
0000
0000
0010
0000
0000
1000
0000
,
0001
0100
0001
1000
,
0000
0001
0000
0000
1000
0000
0100
0000
,
0010
0000
0001
0000
0100
0000
0000
0010
,
0000
0100
0001
1000
,
0001
0010
0000
0100
,
0000
0000
1000
0000
0000
0001
0000
0000
,
0100
0000
0000
0010
0000
0000
1000
0000
,
0001
0000
0100
0000
,
0010
0000
1000
0001
,
1000
0010
0100
0002
,
0000
0000
2003
0000
,
0000
3020
0000
0000
,
0230
0000
0301
0002
,
0000
0000
2003
0000
,
0000
3100
0010
0100
,
1000
0001
2002
0000
,
0000
3003
0110
0001
,
0200
0320
1000
0230
,
0302
0010
0103
2000
,
0100
3010
1200
0010
,
0301
0012
1000
0203
,
0320
1000
0032
0200
,
0000
0000
0000
0000
,
0303
1100
0100
0020
,
0032
1000
0023
0230
,
1000
0310
0002
0010
,
0103
0201
0010
1300
,
2002
0003
3010
0101
,
1000
0100
1100
0001
,
0100
0110
0001
1001
,
1001
0010
0100
0010
,
1000
0100
0001
0100
,
1000
1010
0001
0010
,
1000
0010
0001
0101
,
1000
0100
1100
0001
,
0100
1010
0001
0010
,
0011
0010
0010
0100
,
0100
0010
0000
0001
,
1000
0001
1000
1000
,
0010
0000
1000
0001
,
1000
0100
0100
0010
,
0000
0001
0100
0010
,
1000
1000
0010
0100
,
0100
0100
0100
0001
,
0001
0010
0000
0001
,
0010
0100
1000
0010
,
0100
0000
0001
0010
,
1000
0010
0001
0100
,
0000
0010
1000
0001
,
1000
0100
0001
0100
,
0100
0100
0100
1000
,
0000
0000
1001
0000
0000
0001
0000
0001
,
0000
0100
0000
0000
0000
0110
0000
0000
,
0100
0100
0010
1000
,
0001
0000
0000
1001
0000
1001
0000
0100
,
0000
0001
0000
1000
0000
0000
0210
0000
,
0000
0310
0000
0010
0000
0020
0000
0000
,
1030
1000
2000
0000
,
0000
0000
3001
0000
0000
1000
0000
0000
,
0001
0000
0000
0110
0000
0000
2002
0000
,
0000
0000
0000
0000
,
3003
0220
0000
0000
,
0000
0000
0330
0100
,
0010
1000
0001
0000
1000
0000
0001
1000
,
0100
0000
0010
0000
0100
1000
0010
0000
,
0200
0001
0310
0001
,
0010
0100
1000
0000
0100
0010
0001
0000
,
1000
0000
0100
0000
0100
1000
0001
0000
,
0001
1000
0010
0000
0210
0000
0310
0000
,
1000
0010
0100
0000
1010
0000
0110
0000
,
0101
0000
0011
0000
0001
0010
0100
0000
,
2100
0000
3010
0000
0001
0000
1000
0001
,
1000
0001
1000
0000
0010
0100
0010
0100
,
0010
0000
1000
0100
0010
0100
1000
0000
,
0001
0100
0010
0100
0001
0000
2000
0000
,
0000
3002
0000
0000
0023
0000
0000
0000
,
0000
0000
0130
0000
0000
1100
0000
0000
,
0001
0000
0000
1000
0000
1000
0000
0001
,
0000
1000
0000
0101
0000
0000
1000
0000
,
0000
0010
0000
0010
0000
0100
0000
0010
,
0000
0110
0000
0000
0001
0000
0000
1000
,
0000
1000
0000
0001
0000
1000
0000
1001
,
0000
0000
0000
0001
0000
0000
0000
1000
,
0000
0000
0010
0000
0000
0100
0000
0000
,
0001
0000
0000
0000
1000
0000
0000
0001
,
0000
0000
0000
1001
0000
1000
0000
0000
,
0002
0000
0000
0103
0000
0100
0000
0200
,
0000
0310
0010
0020
,
0000
1030
0000
1000
0000
2000
0000
0000
,
3001
0000
0000
1001
0000
0000
0000
0000
;

//---------------dance-single - ----------------
#NOTES:
     dance-single:
     :
     Medium:
     12:
     0.609,0.724,0.283,0.266,0.013:
0000
0000
0000
0000
,
0000
0000
0000
0000
,
0000
0000
0000
0000
,
0000
0000
0000
0000
,
0000
0000
0000
0000
,
0000
0000
0000
0000
,
0000
0000
0000
0000
,
0000
0000
0000
0000
,
0000
0000
0000
0000
,
0001
0000
0000
0011
0000
0000
1000
0000
,
0100
0010
0010
0100
,
0000
1100
0000
0000
0010
0000
0100
0000
,
0001
0000
0001
0000
1000
0000
0000
0101
,
0000
0010
1000
0001
,
0100
0010
1000
0100
,
0010
0001
0100
0010
,
1000
0100
0010
0100
,
1000
0010
0100
0001
,
0010
1000
0010
0001
,
0100
0010
0010
2000
,
0000
0000
3002
0000
,
0000
0023
0000
0000
,
0230
0000
0310
0020
,
0000
0000
0032
0000
,
0000
1003
0010
0100
,
0210
0000
0010
0000
,
0000
0000
0000
0000
0301
0100
0001
0010
,
0002
0000
1003
0100
1000
0010
2000
0000
,
3010
0100
0001
0100
0020
0000
1030
0100
,
0010
0100
1000
1000
0001
0100
0001
1000
,
0002
0000
1003
0100
1000
0001
2000
0000
,
3010
1000
0010
0100
0010
0010
1000
0100
,
0100
0000
0110
0000
0010
0001
1000
0000
,
0010
0000
0110
0001
0100
0010
2000
0000
,
3100
0010
0001
0100
0020
0000
0130
0001
,
1000
0001
2000
0000
3100
0010
0001
0100
,
0010
0010
0100
0001
1000
0010
2000
0000
,
3002
0000
0000
0000
1003
0000
0000
0000
0001
0000
0000
0000
1000
0000
0000
1000
,
0100
0000
0010
0000
0100
0000
0000
0000
0001
0000
0000
0001
0100
0000
0010
0000
,
0001
0000
0000
0000
0110
0000
0000
0010
1000
0000
0010
0000
0100
0000
0000
0000
,
0010
1000
0100
0001
0100
0000
1000
0100
,
1000
0100
0001
0010
0100
1000
0100
0000
,
1000
0000
0001
0100
0001
0100
1000
0010
,
0100
0001
1000
0000
0001
0000
1000
0000
,
0010
1000
0100
1000
0010
0000
0100
0001
,
0010
0001
1000
0000
0001
0010
0100
1000
,
0100
0010
0001
1000
,
0100
0100
0001
0010
,
1100
0001
0001
0100
,
0100
1000
0010
0101
,
1000
0100
0010
0010
,
1000
0100
0011
1000
,
0100
0010
0010
1000
,
0001
0110
0110
0001
,
0100
1000
0010
0010
,
0101
1000
1000
0100
,
0001
0010
0010
1100
,
0001
0100
0001
0001
,
0010
1000
0011
0100
,
0100
1000
1000
0010
,
0110
0110
0110
1000
,
0000
0000
0001
0100
0000
0010
0000
0010
,
0000
1000
0000
0000
0000
0100
0010
0000
,
0001
0000
1000
0000
0110
0000
0001
0100
,
0001
0100
0000
0001
0000
0001
0000
1100
,
0000
1000
0100
1000
0100
0000
2000
0000
,
0000
3001
0000
1000
0000
0120
0000
0000
,
1030
0001
0210
0000
,
0000
0310
0001
0000
0001
1000
0000
1000
,
0001
0000
0001
1000
0001
1000
0020
0000
,
0000
0000
0000
0000
,
1030
0010
1000
0001
1000
0001
1000
0001
,
1000
0001
1000
0001
1000
0001
0010
0100
,
1000
0100
1000
0100
1000
0010
0100
0001
,
0100
0010
1000
0010
0001
0010
1000
0100
,
0020
0000
0130
0000
1100
0000
1001
0100
,
0010
0100
1000
0100
0001
0100
1000
0010
,
0100
0001
1000
0100
1000
0100
0001
0010
,
1000
0100
1000
0001
2000
0000
3001
0100
,
0001
0100
1000
0100
0001
0000
0011
0000
,
0101
0000
1000
0100
0001
0010
0100
1000
,
0200
0000
0310
0000
0110
0000
0001
1000
,
0100
1000
0001
0000
1000
0001
0100
0001
,
1000
0000
1000
0010
0001
0010
1000
0000
,
0001
0100
1000
0100
0001
1000
0002
0000
,
0000
2003
0000
0000
3020
0000
0000
0000
,
0000
0000
0130
0000
0000
1001
0000
1000
,
0010
0000
0000
1000
0000
0100
0000
0010
,
0000
0010
0000
1001
0000
0001
0010
0000
,
0000
0100
0000
0001
0000
1000
0000
1000
,
0000
0011
0000
0001
0100
0000
0000
1000
,
0000
0001
0000
0010
0000
0010
0000
0100
,
0000
1000
0000
0010
0000
0001
0000
0010
,
0000
1000
0000
0100
0000
0001
0000
0100
,
0000
1000
0000
0001
0000
0001
0000
0100
,
0000
0010
0000
1000
0000
0001
0000
0100
,
0020
0000
0000
1030
0000
0001
0000
2001
,
0000
3001
1000
0120
,
0000
0130
0000
0010
0000
0210
0000
0000
,
0301
1000
0001
1000
0000
0000
0000
0000
;

//---------------dance-single - ----------------
#NOTES:
     dance-single:
     :
     Hard:
     17:
     0.885,1.000,0.712,0.266,0.382:
0000
0000
0000
0000
,
0000
0000
0000
0000
,
0000
0000
0000
0000
,
0000
0000
0000
0000
,
0000
0000
0000
0000
,
0000
0000
0000
0000
,
0000
0000
0000
0000
,
0000
0000
0000
0000
,
0000
0000
0000
0000
,
0001
0010
0100
1000
0000
1000
0100
0010
,
0001
0000
1100
0000
0101
0000
1000
0010
,
0100
0001
0000
0001
0100
0010
1000
0000
,
0101
0000
1100
0000
0010
1000
0001
0100
,
0000
0100
0001
1000
0010
0000
0100
0010
,
1000
0001
0100
0000
0001
0100
0010
0100
,
0000
0001
1000
0000
1000
0001
0000
0001
,
0100
0000
0100
0001
0010
0100
0010
0001
,
1000
0000
1000
0001
0000
0100
0000
0100
,
0001
0000
1000
0001
0000
1000
0010
0100
,
0010
1000
0100
0010
0001
1000
0002
0000
,
0000
0000
2003
0000
,
0000
3020
0000
0000
,
0230
0000
0301
2001
,
0100
3100
1002
0010
,
0013
0000
0100
0010
0001
0000
0100
0000
0100
0000
0100
0000
0010
0000
0100
0000
,
0001
1000
0001
0100
0010
0100
0002
0000
0000
0000
0000
0000
,
0000
0000
0000
0000
0000
0000
0000
0000
1003
0000
0100
1000
0100
0000
1000
0010
,
2000
0000
0000
0000
3001
0000
0100
0001
0100
0000
0001
0010
0002
0000
0000
0000
,
1003
0000
0010
0100
0010
0000
1000
0010
2000
0000
0000
0000
3001
0000
0100
0001
,
0100
0000
0010
0100
0010
0000
0010
0000
1001
0000
0001
0010
0001
0000
0100
0001
,
0200
0000
0000
0000
0310
0000
1000
0010
1000
0000
0100
1000
0200
0000
0000
0000
,
0310
0000
0001
0010
0001
0000
1000
0001
1000
0000
1000
0000
0001
0000
1001
0000
,
1001
0000
0000
0000
0110
0000
0010
0100
0001
0000
0100
0010
1000
0000
0001
1000
,
0002
0000
0000
0000
1003
0100
1000
0100
1000
0000
0001
0000
0201
0000
0000
0000
,
0301
0100
0001
0100
0001
0000
1000
0000
1020
0000
0000
0000
1030
0100
1000
0100
,
1000
0000
0010
0000
0210
0000
0000
0000
0301
0010
0001
0010
0001
0000
1000
0000
,
0001
0000
0001
0000
1001
0000
0100
0010
0001
0000
0100
0000
0010
1000
0010
1000
,
0001
0000
1000
0100
0010
0000
0100
0010
0001
0000
1000
0001
1000
0000
0000
0001
,
0100
0000
0001
0000
0010
0000
0001
1000
0001
0000
0000
1000
0100
0000
1000
0000
,
0010
0000
1000
0001
1000
0000
0000
0010
0100
0000
0010
0000
1001
0000
0000
0000
,
1100
0000
0000
0000
0001
0000
0100
0000
0001
1000
0001
1000
0001
0000
1000
0010
,
0100
0000
0010
0000
1000
0000
0100
0000
1000
0001
1000
0100
1000
0000
0001
0000
,
0100
0000
0010
0000
0100
0000
0001
0010
0100
0000
0010
0000
0001
0000
0100
0000
,
0001
1000
0001
0100
0001
0000
0110
0000
0010
0000
0100
0000
1001
0000
0001
1000
,
0100
0000
0010
0000
0001
0000
0100
0000
1001
0000
1000
0001
0100
0000
0001
0000
,
0010
0000
0100
0000
1001
0000
0001
1000
0100
0000
1000
0000
0010
0000
1000
0000
,
0001
0000
1000
0000
0001
0000
1000
0000
0100
0000
1000
0000
0001
0000
0010
0000
0100
0000
0010
0000
0000
0001
0000
0000
,
0001
0000
1001
0000
0010
1000
0100
0000
,
0110
0000
1001
0000
1000
0010
0010
0000
,
1001
0000
0100
0001
1000
0000
0110
0000
,
1001
0000
0100
0010
0010
0000
0110
0000
,
0001
0100
0010
0000
1100
0000
0101
0000
,
1000
0100
0100
0000
0011
0000
1001
0000
,
1001
0000
1001
0000
1001
0000
0010
0100
,
0100
0000
0101
0000
0001
0100
0010
0000
,
1100
0000
0101
0000
1000
0010
0010
0000
,
1001
0000
1000
0100
0010
0000
1100
0000
,
0011
0000
0100
0001
0001
0000
0110
0000
,
0001
0100
0010
0000
0110
0000
1010
0000
,
0010
1000
1000
0000
1001
0000
1100
0000
,
1100
1100
1100
0011
,
1000
0100
0010
0001
0000
1001
0000
0110
,
0000
0101
0000
0001
0100
0010
1000
0000
,
0110
0000
1001
0000
1000
0100
0010
0001
,
1000
0100
0001
0100
0000
1100
0000
0001
,
0100
0010
1000
0001
0100
1000
0200
0000
,
0000
0310
0000
0110
0000
2001
0000
0000
,
3001
1001
0120
0000
,
1030
0100
0010
0000
0010
0001
0000
0001
,
1000
0000
1000
0001
1000
0001
2000
0000
,
0000
0000
0000
0000
,
3010
0100
0001
1000
0001
1000
0001
1000
,
0001
1000
0001
1000
0001
1000
0001
1000
0001
1000
0001
1000
0010
0000
0010
0100
,
0001
0000
0010
0000
0100
0000
1000
0000
0100
0000
0100
0010
0001
0000
0010
0000
,
0001
0000
1000
0000
0010
0000
0010
1000
0100
0000
1000
0000
0010
0000
0100
0000
,
0120
0000
0000
0000
1030
0000
0000
0000
1000
0001
0000
0001
1000
0000
1000
0100
,
0010
0000
0100
0000
1000
0000
0001
0000
0100
0010
0100
0010
1000
0000
0001
0000
,
0100
0000
0010
0000
0100
0000
0100
0001
1000
0000
1000
0001
0010
0000
0010
0001
,
1000
0100
1000
0100
1000
0000
0001
0100
0002
0000
0000
0000
1003
0000
1000
0010
,
0100
0010
1000
0100
1100
0000
0110
0000
,
0011
0000
0000
0000
0101
0000
0001
0100
0010
0000
0100
0000
0001
0000
1000
0000
,
2100
0000
0000
0000
3010
0000
0000
0000
0102
0000
0000
0000
1003
0000
1000
0010
,
0100
0000
0010
0100
0001
0000
1000
0000
0001
0000
0001
0010
0100
0000
0010
0100
,
1000
0000
0100
0000
1000
0000
1000
0010
1000
0000
0001
0010
0001
0000
1000
0000
,
0001
0000
0100
0001
1000
0000
1000
0010
0100
0000
0100
0001
0020
0000
0000
0000
,
0000
0032
0000
0000
2003
0000
0000
0000
,
0000
0000
3010
0000
0000
0110
0000
0000
,
0101
0000
1000
0100
0010
0001
0000
1100
,
0000
0101
0000
0110
0000
0000
1010
0000
,
0001
0100
0010
1000
0000
0110
0000
1001
,
0000
1100
0000
0000
0011
0000
1000
0100
,
0001
0100
0000
1000
0001
1000
0001
0110
,
0000
0001
0100
0010
1000
0000
1000
0001
,
0000
0001
0100
0000
0010
0100
0000
0001
,
1000
0001
0010
0100
1000
0001
0000
0100
,
0010
0000
0010
0000
1000
0100
0000
0010
,
0002
0000
0000
0103
0000
0110
0000
2010
,
0000
3100
0110
0012
,
0000
1003
0000
1001
0000
0120
0000
0130
,
0010
1000
0001
1000
0000
0000
0000
0000
;

//---------------dance-single - ----------------
#NOTES:
     dance-single:
     :
     Challenge:
     19:
     1.000,1.000,1.000,0.197,0.759:
0000
0000
0000
0000
,
0000
0000
0000
0000
,
0000
0000
0000
0000
,
0000
0000
0000
0000
,
0000
0000
0000
0000
,
0000
0000
0000
0000
,
0000
0000
0000
0000
,
0000
0000
0000
0000
,
0000
0000
0000
0000
,
1010
0000
0100
0000
0001
0000
1000
0000
0000
0000
0010
0000
0100
1000
0100
1000
,
0001
0000
0110
0000
1001
0000
0011
0100
,
1000
0000
0001
0000
0000
0000
0100
0000
0010
0100
0010
0100
0001
0000
0000
0000
,
1100
0000
0101
0000
1001
0010
0100
0001
,
0000
0000
1000
0000
0010
1000
0010
1000
0001
0000
0000
0000
0110
0000
0000
0000
,
0001
1000
0101
0000
1000
0100
0010
0001
,
0000
1000
1010
0000
0001
0011
0000
0100
,
0110
0000
0000
0000
0010
0000
0100
0000
0001
0000
0010
0000
0100
1000
0100
1000
,
0001
0000
0100
0110
0000
1001
0000
1000
,
1010
0000
0001
0011
0000
1000
1001
0000
,
0010
0000
0000
0100
0000
0000
0001
0000
0000
1000
0000
0000
0001
0000
0000
1000
0000
0000
0001
0000
0000
0000
0010
0000
,
0100
0000
1000
0100
0000
0010
0001
0000
0001
0100
0000
0010
,
1000
0000
1000
0100
0000
0010
0100
0000
1000
0010
0000
0010
,
0100
0000
0000
0000
0000
0000
0000
0000
0001
0000
0000
0000
0100
0000
0000
0000
0000
0000
0000
0000
0010
0000
0000
0000
0100
0000
0000
0001
0000
0000
1000
0000
0000
0001
0000
0000
2000
0000
0000
0000
0000
0000
0000
0000
0100
0000
0000
0000
,
0010
0000
0100
3010
0000
0001
0200
0000
0010
1000
0000
0010
,
1300
0000
0010
0100
1001
0000
0010
0000
0110
0000
0100
0000
0101
0000
1000
0001
,
1000
0001
1000
0010
0100
0010
2000
0000
0000
0000
0000
0000
,
0000
0000
0000
0000
0000
0000
0000
0000
3001
0100
0001
0100
0001
0000
0010
0000
,
0012
0000
0000
0000
1003
0100
1000
0100
1000
0000
0010
0000
2010
0000
0000
0000
,
3010
0100
0010
0100
0010
0000
0100
0000
0201
0000
0000
0000
0301
1000
0001
1000
,
0001
0000
1000
0001
1001
0000
1001
0000
0010
0100
0001
0100
0010
0000
0100
0000
,
0102
0000
0000
0000
1003
0100
0010
0100
1000
0000
0010
0000
2010
0000
0000
0000
,
3001
0010
0100
0010
0001
0000
1000
0001
1001
0000
1001
0000
0010
0000
0110
0000
,
0110
0000
0100
0010
1001
0000
0001
0100
0010
0000
1000
0100
0010
0000
0001
1000
,
0010
0000
0100
0000
0001
0010
0100
1000
0001
0000
0010
0001
0020
0000
0000
0000
,
0031
0100
0010
1000
0001
0000
1000
0100
2000
0000
0000
0000
3010
0100
0001
1000
,
0010
0000
0100
0001
2000
0000
0000
0000
3100
0010
0001
1000
0100
0000
1000
0010
,
0110
0000
0110
0000
1001
0000
0001
0100
0010
0000
1000
0100
0010
0001
0010
0001
,
0010
0100
0010
0100
0010
0000
0100
0010
1001
0000
0001
1000
1001
0000
0001
1000
,
0100
0000
1000
0000
0010
0000
1000
0001
1010
0000
0010
1000
0100
0000
0010
0000
,
0001
0000
0010
1000
0011
0000
0001
0100
0010
0000
0100
0000
1001
0000
0000
0000
,
0101
0000
1000
0000
0100
0000
0010
0000
0100
1000
0100
1000
0001
0000
0100
0001
,
0100
0000
0100
0010
0100
0000
0100
0000
1000
0100
0001
0100
1000
0000
0001
0000
,
0100
0000
1000
0000
0010
0000
0010
0001
0010
0000
0010
1000
0010
0000
0010
0000
,
0001
0010
1000
0010
0001
0000
1000
0000
0100
0000
0001
0000
1001
0000
0001
1000
,
0010
0000
0100
0000
0010
1000
0010
0000
1001
0000
1000
0001
0010
0000
0100
0000
,
0010
0001
0010
0000
1001
0000
0001
1000
0010
0000
0100
0000
0010
1000
0100
0000
,
1000
0000
1000
0000
1000
0000
0001
0000
0001
0000
0001
0000
0010
0000
0010
0000
0010
0000
0100
0000
0000
0110
0000
0000
,
0110
0000
0000
0000
1001
0000
0000
0000
0001
1000
0001
1000
0001
0000
0000
0000
,
1000
0100
0010
0000
0100
1100
1100
0000
,
0011
0000
0000
0000
0100
0001
0100
0001
0100
0000
0000
0000
0001
0000
0100
0000
,
0010
1000
0100
0110
0110
0000
1001
0000
,
0010
1000
0010
1000
0010
0000
0000
0000
1000
0000
0100
0000
0010
0000
0000
0000
,
0100
1100
1100
0000
1001
0000
0011
0000
,
1001
0000
1010
0000
1100
0000
0100
1010
,
0011
0000
0000
0000
1100
0000
0000
0000
0001
0010
0001
0010
0100
0000
0000
0000
,
0010
0001
1000
0001
0100
0101
1100
0000
,
1001
0000
0000
0000
1000
0100
1000
0100
0010
0000
0000
0000
0100
0000
1000
0000
,
0001
1000
0010
0110
0101
0000
1100
0000
,
0010
0001
0010
0001
1000
0000
0000
0000
0010
0000
0100
0000
0001
0000
0010
0000
,
0100
0000
0011
0000
1010
0000
0000
0000
1001
0000
0000
0000
0001
1000
0001
1000
,
0001
1000
0001
1000
0001
1000
0001
1000
0001
0000
1000
0000
0001
0000
0100
0000
,
1000
0100
0001
0010
0010
0110
0000
1001
,
0000
1000
0100
0001
0100
1000
0010
0010
,
0110
0000
0000
0000
1001
0000
0000
0000
0001
0100
0001
0100
0001
0000
1000
0000
,
0100
0000
0100
0000
0010
0000
0110
0000
0000
0000
1100
0000
0000
0000
1000
0100
,
1000
0100
1000
0000
0001
0000
0100
0000
0100
0000
0010
0000
0120
0000
0000
0000
,
0000
1030
0000
1001
0000
2100
0000
0000
,
3001
1001
0012
0000
,
1003
0100
0010
0000
0010
0001
0000
0001
,
1000
0000
0000
0000
1000
0000
0001
1000
0001
1000
0001
1000
0020
0000
0000
0000
,
0000
0000
0000
0000
,
0130
0000
0001
0000
1000
0001
1000
0001
1000
0001
1000
0001
1000
0001
1000
0001
,
1000
0100
1000
0100
0001
0100
0001
0100
1000
0010
0001
0010
1010
0000
0001
0100
,
0010
0000
0101
0000
0011
0000
0101
0000
1001
0000
0100
0010
0001
0000
1100
0000
,
1010
0000
1100
0000
0011
0000
0100
0001
1000
0000
0110
0000
1001
0000
0110
0000
,
0010
0000
0100
0000
0001
0000
1000
0000
0001
0010
0000
0010
1001
0000
1000
0100
,
0010
0000
1100
0000
1010
0000
1100
0000
0001
0100
1000
0100
0001
0000
1000
0000
,
0100
0000
0010
0000
0110
0000
1000
0010
0001
0000
1000
0100
0001
0000
1000
0010
,
0001
0010
0001
0010
0001
0000
0010
1000
0002
0000
0000
0000
1003
0000
0100
1000
,
0010
0101
0011
0101
0011
1000
1001
1000
,
1100
0000
0010
0000
0110
0000
0010
1000
0100
0000
0010
0000
0001
0000
1000
0000
,
0201
0000
0010
0000
0000
0310
0000
0000
1010
0000
0000
0000
1100
0000
0000
0011
,
0000
0000
0101
0000
1010
0000
0101
0000
0011
0000
0000
1100
0000
0000
1001
0000
,
0110
0000
1001
0000
0101
0000
0000
1100
0000
0000
0011
0000
0110
0000
1100
0000
,
0001
0000
1000
0001
0100
0000
0001
1000
0001
1000
0001
1000
0020
0000
0000
0000
,
0000
0230
0000
0000
0302
0000
0000
0000
,
0000
0000
0000
0000
0000
0000
0000
0000
1003
0100
1000
0100
1000
0100
1000
0100
1000
0000
0000
0000
0110
0000
0000
0000
0001
0000
0000
0000
0100
0000
0000
0000
,
1010
0000
0000
0000
0001
0010
0001
0010
0100
0000
1000
0000
0000
0000
0110
0000
,
0000
1001
0000
1100
0010
0001
0101
0000
,
0010
0100
0010
0100
0001
0000
1000
0000
0000
0000
1010
0000
0000
0000
0101
0000
,
0000
0000
1001
0000
0010
0000
0100
0000
0011
0000
0000
0000
1000
0100
1000
0100
,
0010
0000
0001
0000
0000
0000
0010
0000
0100
0000
1000
0001
1000
0001
1001
0000
,
0000
0001
0100
0010
1000
0000
0010
1010
,
0000
0100
0101
0000
1000
1100
0000
0001
,
0010
0000
0100
0010
0100
0010
0001
0000
1000
0000
0001
0000
0000
0000
0100
0000
,
0110
0000
0110
0000
1000
1001
0000
0001
,
2001
0100
0001
3010
0000
0110
0000
0102
,
1000
0100
0013
0000
0011
0000
0120
0001
,
1000
0000
0130
0000
0000
0000
1100
0000
0000
0000
0011
0000
1000
0010
1000
0000
,
0100
0001
0100
1000
0000
0000
0000
0000
;

//---------------dance-double - ----------------
#NOTES:
     dance-double:
     :
     Easy:
     11:
     0.505,0.639,0.446,0.214,0.000: // measure 1
00000000
00000000
00000000
00000000
,  // measure 2
00000000
00000000
00000000
00000000
,  // measure 3
00000000
00000000
00000000
00000000
,  // measure 4
00000000
00000000
00000000
00000000
,  // measure 5
00000000
00000000
00000000
00000000
,  // measure 6
00000000
00000000
00000000
00000000
,  // measure 7
00000000
00000000
00000000
00000000
,  // measure 8
00000000
00000000
00000000
00000000
,  // measure 9
00000000
00000000
00000000
00000000
,  // measure 10
10000000
00000000
00000000
01100000
00000000
00000000
00010000
00000000
,  // measure 11
01000000
00001000
00001000
00010000
,  // measure 12
00000000
00001100
00000000
00000000
00010000
00000000
00000100
00000000
,  // measure 13
00000010
00000000
00000010
00000000
00000100
00000000
00000000
00011000
,  // measure 14
00000000
00001000
01000000
00100000
,  // measure 15
00100000
10000000
01000000
00010000
,  // measure 16
01000000
00100000
00001000
00010000
,  // measure 17
00000100
00000010
00000010
00000010
,  // measure 18
00000001
00000100
00001000
00000100
,  // measure 19
00010000
00001000
00100000
01000000
,  // measure 20
00010000
10000000
01000000
00022000
,  // measure 21
00000000
00000000
00000000
00000000
,  // measure 22
00000000
00000000
00000000
00000000
,  // measure 23
00000000
00033000
00000010
00000020
,  // measure 24
00000000
00000030
00000200
00000000
,  // measure 25
00000300
00001001
00000010
00000100
,  // measure 26
00010000
00001000
00022000
00000000
,  // measure 27
00000000
00033000
00100000
00001000
,  // measure 28
00011000
00000010
00001000
00011000
,  // measure 29
00000100
00010000
00011000
00100000
,  // measure 30
00001000
00000000
00010000
00001000
01000000
00000000
00010000
00000000
,  // measure 31
10010000
01000000
00100000
00101000
,  // measure 32
00010000
00000000
00000100
00000000
00001000
00001000
00000000
00000010
,  // measure 33
00000010
00000100
00000001
00000010
,  // measure 34
00010100
00101000
00010000
00021000
,  // measure 35
00030010
00001000
00012000
01003000
,  // measure 36
00010000
00021000
00030100
00001000
,  // measure 37
00000100
00010000
00001000
00000000
00100000
00000000
01000000
00000000
,  // measure 38
00101000
00000000
00010000
00000000
00001000
00010000
00001000
00000000
,  // measure 39
00000100
00000100
00011000
01000000
,  // measure 40
01000000
00101000
00010000
00011000
,  // measure 41
00010100
00000000
00001000
00000100
00000010
00000000
00000010
00000000
,  // measure 42
00000010
00000001
00000100
00000000
00000010
00001000
00000100
00000000
,  // measure 43
00010000
00000000
00010100
00000000
00001000
01000000
00100000
00000000
,  // measure 44
01100000
00000000
00000000
10010000
00000000
00000000
01001000
00000000
,  // measure 45
00100000
00100000
00010100
00001000
,  // measure 46
00001000
00101000
00010000
00010000
,  // measure 47
00001000
00001000
00001000
00010000
,  // measure 48
00000100
00000010
00000100
00010000
,  // measure 49
00001000
00001000
01000000
00100000
,  // measure 50
01000000
00010000
00010000
10000000
,  // measure 51
01000000
00100000
00001000
00001000
,  // measure 52
00010000
00000100
00001000
00000010
,  // measure 53
00000100
00000001
00000001
00001000
,  // measure 54
00001000
00001000
00001000
00000100
,  // measure 55
00010000
00010000
00001000
01000000
,  // measure 56
00100000
01000000
00010000
10000000
,  // measure 57
10000000
01000000
00100000
01000000
,  // measure 58
10000000
01000000
00100000
00100000
,  // measure 59
00001000
00010000
00000100
00001000
,  // measure 60
00000010
00000100
00000100
00000001
,  // measure 61
00000001
00000001
00000001
00001001
,  // measure 62
00000000
00000000
00001100
00000000
00000000
00010000
00000000
00010000
,  // measure 63
00000000
00101000
00000000
00000000
00000000
01000000
00000000
00000000
,  // measure 64
00100000
00100000
10000000
01000000
,  // measure 65
00010000
00000000
00000000
00011000
00000000
00011000
00000000
00001000
,  // measure 66
00000000
00000010
00000000
00000001
00000000
00000010
00002000
00000000
,  // measure 67
00000000
00003100
00000000
00010000
00000000
00012000
00000000
00000000
,  // measure 68
00103000
00001000
00021000
00000000
,  // measure 69
00030100
00000000
00010000
00000000
00000000
00010000
00000000
00000000
,  // measure 70
00001000
00000000
00000000
00001000
00000000
00000000
00022000
00000000
,  // measure 71
00000000
00000000
00000000
00000000
,  // measure 72
00033000
00200000
00000000
00000000
,  // measure 73
00000000
00000000
00300000
00010000
,  // measure 74
00010000
01000000
00100000
00000000
01000000
00000000
01000000
00001000
,  // measure 75
00010000
00000000
00001000
00000000
00000100
00000010
00010000
00000000
,  // measure 76
00000200
00010300
00101000
01010000
,  // measure 77
00010000
01000000
00100000
00000000
10000000
01000000
00100000
00000000
,  // measure 78
00001000
00000000
00010000
00000000
00000100
00010000
00001000
00000000
,  // measure 79
00100000
00000000
00001000
00010000
00002000
00000000
00003100
00000000
,  // measure 80
00000010
00000100
00000001
00000000
00000011
00000000
00000110
00000000
,  // measure 81
00001100
00000000
00010010
00000000
00010000
00000100
00001000
00000000
,  // measure 82
02000000
03100000
01100000
00010000
,  // measure 83
00010000
00010000
00000100
00000100
,  // measure 84
00000100
00001000
00001000
00001000
,  // measure 85
00000010
00010000
00001000
00012000
,  // measure 86
00000000
02003000
00000000
00000000
03200000
00000000
00000000
00000000
,  // measure 87
00000000
00000000
00301000
00000000
00000000
00011000
00000000
00000000
,  // measure 88
01001000
00000000
00000000
00001000
00000000
00010000
00000000
00001000
,  // measure 89
00000000
00001000
00000000
00011000
00000000
00000000
00010100
00000000
,  // measure 90
00000000
00010000
00000000
00000010
00000000
00000100
00000000
00000100
,  // measure 91
00000000
00001001
00000000
00000000
00000011
00000000
00000000
00000001
,  // measure 92
00000000
00000010
00000000
00000100
00000000
00000100
00000000
00010000
,  // measure 93
00000000
00000100
00000000
00010000
00000000
00001000
00000000
00100000
,  // measure 94
00000000
00001000
00000000
01000000
00000000
01000000
00000000
01000000
,  // measure 95
00000000
00100000
00000000
00100000
00000000
00100000
00000000
10000000
,  // measure 96
00000000
10000000
00000000
10000000
00000000
00010000
00000000
01000000
,  // measure 97
00020000
00000000
00000000
00130000
00000000
00001000
00000000
00021000
,  // measure 98
00000000
00030100
00000010
00002010
,  // measure 99
00000000
00003001
00000000
00000100
00000000
00000120
00000000
00000000
,  // measure 100
00010030
00000100
00010000
00001000
00000000
00000000
00000000
00000000
;

//---------------dance-double - ----------------
#NOTES:
     dance-double:
     :
     Medium:
     13:
     0.621,0.767,0.412,0.163,0.086: // measure 1
00000000
00000000
00000000
00000000
,  // measure 2
00000000
00000000
00000000
00000000
,  // measure 3
00000000
00000000
00000000
00000000
,  // measure 4
00000000
00000000
00000000
00000000
,  // measure 5
00000000
00000000
00000000
00000000
,  // measure 6
00000000
00000000
00000000
00000000
,  // measure 7
00000000
00000000
00000000
00000000
,  // measure 8
00000000
00000000
00000000
00000000
,  // measure 9
00000000
00000000
00000000
00000000
,  // measure 10
00010000
00000000
00000000
01100000
00000000
00010000
00000000
00010000
,  // measure 11
01000000
00001000
00001000
00011000
,  // measure 12
00000000
00000100
00000000
00010000
00000000
00010000
00000100
00000000
,  // measure 13
00000010
00000000
00000010
00000000
00000110
00000000
00000000
00000001
,  // measure 14
00000000
00000100
00000000
00000100
00000010
00000000
00011000
00000000
,  // measure 15
00011000
00000100
00010000
00001000
,  // measure 16
00100000
00001000
01000000
00010000
,  // measure 17
00100000
00001000
00010000
00000100
,  // measure 18
00010000
00001000
00001000
00010000
,  // measure 19
00010000
00000010
00000100
00000001
,  // measure 20
00000010
00000100
00010000
00002000
,  // measure 21
00000000
00000000
00203000
00000000
,  // measure 22
00000000
00320000
00000000
00000000
,  // measure 23
02030000
00000000
03100000
02100000
,  // measure 24
00001000
03001000
00200000
00010000
,  // measure 25
00310000
00010010
00000110
00010100
,  // measure 26
00000100
00010000
00001000
00010000
00000010
00000100
00002000
00000000
00000000
00000000
00000000
00000000
,  // measure 27
00000000
00000000
00003000
00000000
00000100
00000010
00010000
00001000
,  // measure 28
00010000
00000000
00000100
00010000
00001000
00100000
00010000
00000000
,  // measure 29
01000000
00001000
00010000
00001000
00100000
00000000
01000000
00100000
,  // measure 30
00001000
00010000
00001000
00001000
00000100
00000010
00010000
00000100
,  // measure 31
00001000
00000000
00000010
00000100
00000001
00000010
00000001
00000000
,  // measure 32
00001000
00000010
00000100
00000010
00010000
00000100
00010000
00001000
,  // measure 33
00001000
00011000
00100000
00001000
,  // measure 34
00010000
00000000
00001000
00000100
00010000
00001000
00100000
00000000
,  // measure 35
01000000
00100000
10000000
01000000
00100000
00000000
00001000
00010000
,  // measure 36
00000100
00001000
00000010
00000000
00000100
00000001
00001000
00000010
,  // measure 37
00010000
00010000
00000100
00000010
00000100
00010000
00001000
00100000
,  // measure 38
00001000
00000000
01000000
00000000
00100000
00000000
00010000
00000000
00100000
00000000
10000000
00000000
01000000
00000000
00000000
01000000
,  // measure 39
00010000
00000000
01000000
00000000
00100000
00000000
00000000
00100000
00001000
00000000
00000000
00001000
00010000
00000000
00000100
00000000
,  // measure 40
00001000
00000000
00000000
00001000
00000010
00000000
00000000
00000010
00000100
00000000
00000010
00000000
00000110
00000000
00000000
00000000
,  // measure 41
00001001
00000000
00000000
00000001
00001000
00000000
00000100
00000000
00010000
00000000
00001000
00000000
00100000
00000000
00001000
00000000
,  // measure 42
01000000
00100000
01000000
00001000
00010000
00001000
00010000
00000000
,  // measure 43
00000100
00000000
00010000
00000100
00001000
00000010
00000100
00000001
,  // measure 44
00000010
00000001
00001000
00000000
00000001
00000000
00001001
00000000
,  // measure 45
00000010
00000100
00010000
00000000
00010100
00000000
00100000
00001000
,  // measure 46
00010000
00000000
01001000
00000000
00100000
00010000
10000000
00000000
,  // measure 47
00010000
00000000
10000000
00000000
00010000
00000000
10000000
00000000
01000000
00000000
10000000
00000000
00010000
00000000
01000000
00000000
00010000
00000000
10000000
00000000
00000000
00100000
00000000
00000000
,  // measure 48
10000000
01000000
01000000
00010000
,  // measure 49
01000000
00000000
00001000
00000000
00100000
00001000
00100000
00000000
,  // measure 50
00001000
00010000
00010000
00000100
,  // measure 51
00000010
00000000
00000100
00010000
00001000
00000000
00010000
00000000
,  // measure 52
00000010
00000010
00000100
00000001
,  // measure 53
00001000
00000001
00001000
00000000
00000001
00000000
00001001
00000000
,  // measure 54
00001001
00000000
00001001
00000000
00001001
00000000
00000010
00000100
,  // measure 55
00010000
00001000
00100000
00010000
,  // measure 56
01000000
00000000
00100000
00000000
01000000
00001000
00100000
00000000
,  // measure 57
00001000
00010000
00000100
00010000
,  // measure 58
00000010
00000000
00000100
00000001
00000100
00000000
00000010
00000000
,  // measure 59
00010000
00000100
00010000
00001000
,  // measure 60
00100000
00001000
00100000
00000000
00001000
00000000
01100000
00000000
,  // measure 61
01100000
01100000
01100000
10000000
,  // measure 62
00000000
00000000
00010000
01000000
00000000
00001000
00000000
00001000
,  // measure 63
00000000
00100000
00000000
00000000
00000000
00001000
00000100
00000000
,  // measure 64
00000010
00000010
00001000
00000100
,  // measure 65
00000001
00000000
00000100
00010000
00000000
00010000
00000000
00001000
,  // measure 66
00000000
00100000
00000000
01000000
00000000
00100000
00002000
00000000
,  // measure 67
00000000
00013000
00000000
00011000
00000000
00002000
00000000
00000000
,  // measure 68
00013000
00011000
00020000
00000000
,  // measure 69
00000000
01030000
00100000
00000000
00100000
00001000
00000000
00001000
,  // measure 70
01000000
00000000
01000000
00001000
00000000
00001000
00020000
00000000
,  // measure 71
00000000
00000000
00000000
00000000
,  // measure 72
00031000
00000000
00010000
00000100
00010000
00000100
00010000
00000010
,  // measure 73
00010000
00000010
00010000
00000010
00000100
00000001
00000010
00000100
,  // measure 74
00010000
00000100
00010000
00000010
00010000
00000100
00010000
01000000
,  // measure 75
10000000
01000000
10000000
00100000
00010000
00100000
10000000
01000000
,  // measure 76
00020000
01030000
01100000
01001000
,  // measure 77
00100000
01000000
00001000
00000000
00100000
00001000
00010000
00000000
,  // measure 78
00000100
00000000
00010000
00000000
00001000
01000000
00001000
00000000
,  // measure 79
00100000
00001000
00100000
00000000
00011000
00000000
00010100
00000000
,  // measure 80
00010000
00000100
00000010
00000000
00000011
00000000
00000110
00000000
,  // measure 81
00001100
00000000
00011000
00000000
00001000
00100000
00001000
00000000
,  // measure 82
01000000
00000000
00000000
00000000
01100000
00000000
00000000
00000000
01001000
00000000
00000000
00000000
00101000
00000000
00000000
00001000
,  // measure 83
00000000
00000000
00010000
00000000
00000000
00001000
00000000
00000000
01001000
00000000
00000000
00010000
00000000
00000000
00001000
00000000
,  // measure 84
00000100
00000000
00000000
00000000
00000110
00000000
00000000
00000001
00000000
00000000
00000010
00000000
00000100
00000000
00000000
00000000
,  // measure 85
00010100
00001000
00010000
00000000
00100000
10000000
00020000
00000000
,  // measure 86
00000000
20030000
00000000
00000000
30200000
00000000
00000000
00000000
,  // measure 87
00000000
00000000
01300000
00000000
00000000
01001000
00000000
00000000
,  // measure 88
00011000
00000000
00000000
00010000
00000000
00000100
00000000
00000010
,  // measure 89
00000000
00000010
00000000
00000101
00000000
00000000
00000011
00000000
,  // measure 90
00000000
00000001
00000000
00000100
00000000
00010000
00000000
00010000
,  // measure 91
00000000
00010100
00000000
00000000
00101000
00000000
00000000
10000000
,  // measure 92
00000000
01000000
00000000
00010000
00000000
00010000
00000000
00001000
,  // measure 93
00000000
00100000
00000000
00001000
00000000
01000000
00000000
00001000
,  // measure 94
00000000
00010000
00000000
00000100
00000000
00001000
00000000
00000010
,  // measure 95
00000000
00000100
00000000
00000001
00000000
00001000
00000000
00001000
,  // measure 96
00000000
00001000
00000000
00000001
00000000
00000100
00000000
00000100
,  // measure 97
00000020
00000000
00000000
00010030
00000000
00011000
00000000
02000000
,  // measure 98
00000000
03001000
00011000
00000200
,  // measure 99
00000000
00010300
00000000
00011000
00000000
00200000
00000000
00000000
,  // measure 100
00301000
00010000
00001000
00010000
00000000
00000000
00000000
00000000
;

//---------------dance-double - ----------------
#NOTES:
     dance-double:
     :
     Hard:
     17:
     0.886,1.000,0.617,0.257,0.420: // measure 1
00000000
00000000
00000000
00000000
,  // measure 2
00000000
00000000
00000000
00000000
,  // measure 3
00000000
00000000
00000000
00000000
,  // measure 4
00000000
00000000
00000000
00000000
,  // measure 5
00000000
00000000
00000000
00000000
,  // measure 6
00000000
00000000
00000000
00000000
,  // measure 7
00000000
00000000
00000000
00000000
,  // measure 8
00000000
00000000
00000000
00000000
,  // measure 9
00000000
00000000
00000000
00000000
,  // measure 10
00100000
10000000
00010000
01000000
00000000
01000000
00001000
00100000
,  // measure 11
00010000
00000000
01010000
00000000
00011000
00000000
00010000
00000100
,  // measure 12
00000010
00000100
00000000
00001000
00000010
00000100
00000001
00000000
,  // measure 13
00000110
00000000
00001001
00000000
00000001
00000010
00000100
00001000
,  // measure 14
00000000
00010000
00100000
01000000
10000000
00000000
01100000
00000000
,  // measure 15
10010000
00000000
01010000
00000000
00010000
00100000
00001000
00010000
,  // measure 16
00000000
00010000
00000100
00000000
00000010
00000100
00000000
00010000
,  // measure 17
00000010
00000000
00000100
00000001
00001000
00000100
00010000
00001000
,  // measure 18
00100000
00000000
00100000
00010000
00000000
01000000
00000000
00100000
,  // measure 19
01000000
00000000
00010000
10000000
00000000
01000000
00100000
00000000
,  // measure 20
00010000
00000000
00001000
00000100
00000010
00001000
00000002
00000000
,  // measure 21
00001000
00001003
00000020
00000100
,  // measure 22
00000130
00020000
00000100
00030100
,  // measure 23
00200000
00000000
00000000
00000000
00001000
00000000
00000000
00000000
00301000
00000000
00001000
01000000
00002000
00000000
00000000
00000000
,  // measure 24
01000000
01003000
01200000
10000000
,  // measure 25
10300000
00000000
01000000
00100000
10010000
00000000
00100000
00000000
01100000
00000000
01000000
00000000
01001000
00000000
00001000
00000000
,  // measure 26
00100000
00001000
00010000
00000100
00010000
00001000
00020000
00000000
00000000
00000000
00000000
00000000
,  // measure 27
00000000
00000000
00000000
00000000
00000000
00000000
00000000
00000000
00030100
00000000
00001000
00000100
00001000
00000000
00000001
00000100
,  // measure 28
00000002
00000000
00000000
00000000
00000013
00000000
00000001
00000010
00000001
00000000
00001000
00000010
00002000
00000000
00000000
00000000
,  // measure 29
00003100
00000000
00010000
00000100
00010000
00000000
00001000
00100000
00002000
00000000
00000000
00000000
01003000
00000000
00100000
01000000
,  // measure 30
00100000
00000000
10000000
00010000
10000000
00000000
10000000
00000000
00010000
00000000
01000000
00001000
01000000
00000000
00001000
00100000
,  // measure 31
00002000
00000000
00000000
00000000
00013000
00000000
00000100
00010000
00000100
00000000
00001000
00000010
00002000
00000000
00000000
00000000
,  // measure 32
00003001
00000000
00000100
00000001
00000100
00000000
00000010
00000000
00000100
00000000
00000100
00000000
00000001
00000000
00001001
00000000
,  // measure 33
00001001
00000000
00000000
00000000
00000110
00000000
00000010
00000100
00001000
00000000
00100000
00001000
01000000
00000000
00010000
10000000
,  // measure 34
02000000
00000000
00000000
00000000
03100000
01000000
00100000
01000000
00100000
00000000
01000000
00010000
02000000
00000000
00000000
00000000
,  // measure 35
03001000
00100000
00001000
00100000
00001000
00000000
00010000
00001000
00020000
00000000
00000000
00000000
00030100
00010000
00000100
00010000
,  // measure 36
00000100
00000000
00000010
00000100
00000020
00000000
00000000
00000000
00000031
00000100
00000001
00000100
00000001
00000000
00001000
00000001
,  // measure 37
00001000
00000000
00001000
00000000
00001001
00000000
00000010
00000100
00001000
00000000
00000100
00000010
00000001
00001000
00000001
00001000
,  // measure 38
00000001
00000000
00001000
00000010
00000100
00000000
00000010
00010000
00001000
00000000
00000000
00001000
01000000
00000000
00001000
00000000
,  // measure 39
00100000
00000000
00010000
10000000
00010000
00000000
00000000
10000000
01000000
00000000
10000000
00000000
00100000
00000000
01000000
00010000
,  // measure 40
01000000
00000000
00000000
00001000
00010000
00000000
00000100
00010000
00000100
00000000
00000010
00000000
00000110
00000000
00000000
00000000
,  // measure 41
00001001
00000000
00000000
00000000
00000001
00000000
00000100
00000000
00000010
00001000
00000010
00001000
00000001
00000000
00000010
00000100
,  // measure 42
00001000
00000000
00000100
00010000
00001000
00000000
00100000
00001000
01000000
00100000
01000000
00100000
01000000
00000000
00100000
00000000
,  // measure 43
10000000
00000000
00010000
00000000
10000000
00000000
01000000
10000000
01000000
00000000
00100000
01000000
00100000
00000000
00010000
01000000
,  // measure 44
00001000
00010000
00001000
00010000
00001000
00000000
00000110
00000000
00000001
00000000
00000100
00000000
00001001
00000000
00000001
00001000
,  // measure 45
00000001
00000000
00001000
00000000
00000100
00000000
00010000
00000000
00011000
00000000
00001000
00010000
00001000
00000000
01000000
00000000
,  // measure 46
00001000
00000000
00010000
00000000
01100000
00000000
00100000
01000000
10000000
00000000
00100000
00000000
01000000
00000000
00010000
00000000
,  // measure 47
10000000
00000000
00010000
00000000
10000000
00000000
00010000
00000000
01000000
00000000
00001000
00000000
00100000
00000000
00001000
00000000
00010000
00000000
00001000
00000000
00000000
01000000
00000000
00000000
,  // measure 48
00100000
00000000
10100000
00000000
01000000
00010000
10000000
00000000
,  // measure 49
01000000
00000000
00100000
00000000
01000000
10000000
00010000
00000000
,  // measure 50
10010000
00000000
01000000
00001000
00010000
00000000
00000100
00000000
,  // measure 51
00010000
00000000
00000010
00000100
00001001
00000000
00000001
00000000
,  // measure 52
00000010
00000100
00010000
00000000
00000100
00000000
00010000
00000000
,  // measure 53
00001000
00100000
00001000
00000000
00011000
00000000
01100000
00000000
,  // measure 54
01100000
00000000
01100000
00000000
01100000
00000000
10000000
00010000
,  // measure 55
00010000
00000000
10010000
00000000
10000000
00010000
01000000
00000000
,  // measure 56
00001000
00000000
00010000
00000000
00001000
00000010
00000010
00000000
,  // measure 57
00000110
00000000
00000001
00000010
00000100
00000000
00001000
00000000
,  // measure 58
00000100
00000000
00010000
00000010
00001000
00000000
00010100
00000000
,  // measure 59
00000100
00010000
00001000
00000000
00100000
00000000
00001000
00000000
,  // measure 60
01000000
00010000
10000000
00000000
10010000
00000000
01001000
00000000
,  // measure 61
00101000
00011000
00010100
00000110
,  // measure 62
00000001
00000010
00000100
00001000
00000000
00000101
00000000
00001100
,  // measure 63
00000000
00010010
00000000
00010000
00000100
00010000
00001000
00000000
,  // measure 64
01001000
00000000
01100000
00000000
00100000
10000000
01000000
00010000
,  // measure 65
01000000
10000000
00100000
00010000
00000000
01100000
00000000
00010000
,  // measure 66
01000000
00001000
00010000
00000100
00000001
00000100
00002000
00000000
,  // measure 67
00000000
00003001
00000000
00001001
00000000
00010020
00000000
00000000
,  // measure 68
00000130
00001100
00102000
00000000
,  // measure 69
00000000
01003000
00100000
10000000
00100000
01000000
00000000
01000000
,  // measure 70
00010000
00000000
00010000
10000000
00010000
10000000
02100000
00000000
,  // measure 71
00000000
00000000
00000000
00000000
,  // measure 72
03010000
01000000
00001000
00010000
00001000
00010000
00001000
00010000
,  // measure 73
00001000
00010000
00001000
00010000
00001000
00010000
00001000
00010000
00001000
00010000
00001000
00010000
00000010
00000000
00000010
00000100
,  // measure 74
00000001
00000000
00000010
00000000
00000100
00000000
00010000
00000000
00001000
00000000
00100000
00001000
00010000
00000000
01000000
00000000
,  // measure 75
00100000
00000000
00010000
00000000
01000000
00000000
00100000
10000000
01000000
00000000
10000000
00000000
00010000
00000000
01000000
00000000
,  // measure 76
00200000
00000000
00000000
00000000
01300000
00000000
00000000
00000000
00001000
00010000
00000000
00010000
00001000
00000000
00100000
00001000
,  // measure 77
00010000
00000000
00000100
00000000
00000010
00000000
00000100
00000000
00010000
00000100
00010000
00000100
00010000
00000000
00000100
00000000
,  // measure 78
00000010
00000000
00000001
00000000
00000100
00000000
00001000
00000100
00000001
00000000
00000001
00000100
00001000
00000000
00001000
00000100
,  // measure 79
00000010
00010000
00000010
00010000
00000010
00000000
00010000
00001000
00020000
00000000
00000000
00000000
00030100
00000000
00100000
00001000
,  // measure 80
00010000
10000000
01000000
00010000
11000000
00000000
01100000
00000000
,  // measure 81
00101000
00000000
00000000
00000000
00011000
00000000
00010000
00000100
00001000
00000000
00000100
00000000
00000001
00000000
00000100
00000000
,  // measure 82
00000210
00000000
00000000
00000000
00000301
00000000
00000000
00000000
00001010
00000000
00000000
00000000
00000110
00000000
00000010
00001000
,  // measure 83
00000001
00000000
00001000
00000000
00000100
00000000
00000010
00000000
00001100
00000000
00010000
00000100
00001000
00000000
01000000
00000000
,  // measure 84
00100000
00000000
00001000
00000000
00110000
00000000
10000000
00010000
01000000
00000000
00100000
00000000
01000000
00000000
00001000
00000000
,  // measure 85
00100000
00001000
00010000
00001000
00100000
00001000
01000000
00010000
10000000
01000000
00100000
00010000
02000000
00000000
00000000
00000000
,  // measure 86
00000000
03002000
00000000
00000000
00023000
00000000
00000000
00000000
,  // measure 87
00000000
00000000
00031000
00000000
00000000
00000110
00000000
00000001
,  // measure 88
00000100
00000000
00000001
00001000
00000100
00001000
00000000
00010100
,  // measure 89
00000000
00011000
00000000
00101000
00000000
00100000
00010000
00000000
,  // measure 90
01000000
00001000
00010000
00001000
00000000
01001000
00000000
01100000
,  // measure 91
00000000
10100000
00000000
10000000
00010000
00000000
10000000
01000000
,  // measure 92
00100000
00010000
00000000
01100000
00000000
00001000
01000000
00010000
,  // measure 93
00000000
01000000
00001000
00010000
00001000
00000000
00000100
00000010
,  // measure 94
00000000
00001000
00000001
00000000
00000100
00010000
00000000
00000100
,  // measure 95
00000010
00000000
00010000
00000100
00100000
00001000
00000000
00001000
,  // measure 96
01000000
00000000
01000000
00000000
00100000
10000000
00000000
01000000
,  // measure 97
00020000
00000000
00000000
00031000
00000000
00000101
00000000
00012000
,  // measure 98
00000000
01003000
01100000
21000000
,  // measure 99
00000000
30010000
00000000
01010000
00000000
00201000
00000000
00000000
,  // measure 100
00301000
00000100
00000010
00010000
00000000
00000000
00000000
00000000
;

//---------------dance-double - ----------------
#NOTES:
     dance-double:
     :
     Challenge:
     19:
     1.000,1.000,1.000,0.163,0.926: // measure 1
00000000
00000000
00000000
00000000
,  // measure 2
00000000
00000000
00000000
00000000
,  // measure 3
00000000
00000000
00000000
00000000
,  // measure 4
00000000
00000000
00000000
00000000
,  // measure 5
00000000
00000000
00000000
00000000
,  // measure 6
00000000
00000000
00000000
00000000
,  // measure 7
00000000
00000000
00000000
00000000
,  // measure 8
00000000
00000000
00000000
00000000
,  // measure 9
00000000
00000000
00000000
00000000
,  // measure 10
01100000
00000000
10000000
00000000
00010000
00000000
01000000
00000000
00000000
00000000
00001000
00000000
00100000
00001000
00100000
00001000
,  // measure 11
00010000
00000000
00010100
00000000
00011000
00000000
00001100
00000010
,  // measure 12
00000001
00000000
00001000
00000000
00000000
00000000
00000001
00000000
00000100
00000010
00000100
00000010
00010000
00000000
00000000
00000000
,  // measure 13
00010100
00000000
00011000
00000000
00110000
01000000
10000000
00100000
,  // measure 14
00000000
00000000
01000000
00000000
00010000
10000000
00010000
10000000
01000000
00000000
00000000
00000000
00100000
00000000
00001000
00000000
,  // measure 15
00010000
00001000
00000100
00000000
00000010
00010000
00000100
00001000
,  // measure 16
00000000
00010000
00011000
00000000
00000010
00000110
00000000
00000001
,  // measure 17
00000101
00000000
00000000
00000000
00001000
00000000
00000100
00000000
00000010
00000100
00000010
00000100
00010000
00000000
00000000
00000000
,  // measure 18
00101000
00000000
00011000
00011000
00000000
01001000
00000000
01100000
,  // measure 19
01100000
00000000
10010000
10010000
00000000
11000000
11000000
00000000
,  // measure 20
00100000
00000000
00000000
00001000
00000000
00000000
00010000
00000000
00000000
00001000
00000000
00000000
00000100
00000000
00000000
00000010
00000000
00000000
00001000
00000000
00000100
00000000
00001000
00000000
,  // measure 21
00000001
00000100
00000001
00001000
00000010
00001000
00000001
00001000
00000001
00000010
00000001
00000010
,  // measure 22
00000100
00000010
00000100
00010000
00000100
00001000
00100000
00010000
00100000
10000000
01000000
00010000
,  // measure 23
01000000
00000000
00000000
00000000
10000000
00000000
00000000
00000000
00010000
00000000
00000000
00000000
01000000
00000000
00000000
00000000
00100000
00000000
00000000
00000000
01000000
00000000
00000000
00000000
00010000
00000000
00000000
00100000
00000000
00000000
00001000
00000000
00000000
00010000
00000000
00000000
00002000
00000000
00000000
00000000
00000000
00000000
00000000
00000000
01000000
00000000
00000000
00000000
,  // measure 24
00010000
00000000
01000000
00010000
00000000
00103000
02000000
00000000
10000000
00010000
00000000
10000000
,  // measure 25
03010000
00000000
01000000
00100000
10010000
00000000
01000000
00000000
01010000
00000000
00100000
00000000
00101000
00000000
00001000
00000000
,  // measure 26
00000100
00001000
00000100
00000001
00000010
00001000
00000220
00000000
00000000
00000000
00000000
00000000
,  // measure 27
00000000
00000000
00000000
00000000
00000330
00000000
00000000
00000000
00001000
00000100
00001000
00000001
00001000
00000000
00000010
00000100
,  // measure 28
00000002
00000000
00000000
00000000
00000013
00000001
00000010
00000100
00000010
00000000
00000001
00001000
00000020
00000000
00000000
00000000
,  // measure 29
00000130
00000010
00010000
00000100
00010000
00000000
00001000
00010000
00002000
00000000
00000000
00000000
00103000
00001000
01000000
00010000
,  // measure 30
10000000
00000000
01000000
00100000
10010000
00000000
10010000
00000000
10000000
01000000
00010000
01000000
10000000
00000000
00010000
01000000
,  // measure 31
00002000
00000000
00000000
00000000
00013000
00000100
00000010
00000100
00001000
00000000
00000001
00000100
00002000
00000000
00000000
00000000
,  // measure 32
00003100
00000001
00000010
00000100
00001000
00000000
00000010
00000100
00000110
00000000
00000110
00000000
00000001
00000000
00001001
00000000
,  // measure 33
00001001
00000000
00000100
00000010
00001001
00000000
00000010
00000100
00010000
00000000
00001000
00100000
00010000
00000000
01000000
00010000
,  // measure 34
20000000
00000000
00000000
00000000
30100000
10000000
00010000
01000000
00001000
00000000
01000000
00001000
00020000
00000000
00000000
00000000
,  // measure 35
00030010
00001000
00000001
00000100
00000010
00000000
00010000
00000100
00002000
00000000
00000000
00000000
00003100
00000010
00000001
00001000
,  // measure 36
00000010
00000000
00010000
00000100
00020000
00000000
00000000
00000000
00130000
00001000
01000000
00100000
10000000
00000000
01000000
00100000
,  // measure 37
10010000
00000000
10010000
00000000
11000000
00000000
00010000
00100000
01000000
00000000
00100000
00001000
00010000
00000100
00010000
00000100
,  // measure 38
00000010
00000100
00010000
00001000
00100000
00000000
00001000
00010000
00001000
00000000
00010000
00000010
00001100
00000000
00000000
00000001
,  // measure 39
00000010
00000000
00000100
00000010
00000001
00000000
00001000
00000001
00001010
00000000
00000000
00000001
00000100
00000000
00000010
00010000
,  // measure 40
00001000
00000000
01000000
00001000
00110000
00000000
00000000
00010000
01000000
00000000
00100000
10000000
10010000
00000000
00000000
00000000
,  // measure 41
01100000
00000000
00000000
00000000
00100000
00000000
01000000
00000000
00010000
10000000
00010000
10000000
00100000
00000000
00100000
01000000
,  // measure 42
00001000
00000000
00001000
00100000
00001000
00000000
00010000
00000100
00000010
00000100
00000010
00000100
00001000
00000000
00000100
00000010
,  // measure 43
00000001
00000000
00000001
00000100
00001010
00000000
00000001
00001000
00000100
00000000
00010000
00000100
00001000
00000000
01000000
00000000
,  // measure 44
00100000
01000000
00100000
01000000
10000000
00000000
01100000
00000000
00010000
00000000
01000000
00000000
00011000
00000000
00000100
00010000
,  // measure 45
00001000
00000000
00010000
00000000
00001000
00010000
00001000
00000000
00101000
00000000
00010000
00001000
00010000
00000000
00001000
00000000
,  // measure 46
01000000
00010000
01000000
00000000
01100000
00000000
00010000
01000000
00100000
00000000
01000000
00000000
00001000
00010000
00001000
00000000
,  // measure 47
00010100
00000000
00010100
00000000
00010100
00000000
00010010
00000000
00010010
00000000
00010010
00000000
00101000
00000000
00101000
00000000
00101000
00000000
01000000
00000000
00000000
01100000
00000000
00000000
,  // measure 48
01100000
00000000
00000000
00000000
10010000
00000000
00000000
00000000
10000000
01000000
10000000
01000000
10000000
00000000
00000000
00000000
,  // measure 49
01100000
00000000
10010000
00000000
01000000
01001000
01001000
00000000
,  // measure 50
00101000
00000000
00000000
00000000
00001000
00010000
00001000
00010000
00001000
00000000
00000000
00000000
00010100
00000000
00000000
00000000
,  // measure 51
00011000
00000000
00000100
00000110
00000110
00000000
00001001
00000000
,  // measure 52
00000001
00000010
00000001
00000010
00000001
00000000
00000000
00000000
00000110
00000000
00000000
00000000
00001001
00000000
00000000
00000000
,  // measure 53
00000100
00010100
00010100
00000000
00101000
00000000
10010000
00000000
,  // measure 54
10010000
00000000
10010000
00000000
10010000
00000000
01100000
10010000
,  // measure 55
10010000
00000000
00000000
00000000
11000000
00000000
00000000
00000000
00010000
00100000
01000000
10000000
00010000
00000000
00000000
00000000
,  // measure 56
01010000
00000000
00101000
00000000
00010100
00011000
00011000
00000000
,  // measure 57
00001010
00000000
00000000
00000000
00000001
00000100
00000010
00001000
00000100
00000000
00000000
00000000
00000110
00000000
00000000
00000000
,  // measure 58
00000001
00001000
00000001
00001000
00000001
00000000
00000110
00000000
00001001
00000000
00000000
00000000
00001010
00000000
00000000
00000000
,  // measure 59
00000001
00000010
00000100
00010000
00001000
00000000
00000000
00000000
01001000
00000000
00000000
00000000
00110000
00000000
00000000
00000000
,  // measure 60
11000000
00000000
01010000
00000000
10010000
00000000
00000000
00000000
00010000
10000000
00010000
10000000
00010000
10000000
00010000
10000000
,  // measure 61
00010000
10000000
00010000
10000000
00010000
10000000
00010000
10000000
00010000
10000000
00010000
10000000
00100000
00000000
01000000
00100000
,  // measure 62
01000000
01000000
10100000
10100000
00000000
00101000
00000000
00011000
,  // measure 63
00000000
00000000
00000010
00000000
00000100
00000010
00000100
00000000
00000100
00000000
00001001
00000000
00001001
00000000
00000000
00000000
,  // measure 64
00010100
00000000
00000000
00000000
00001100
00000000
00000000
00000000
00000010
00000100
00000010
00000100
00001000
00000000
00000100
00000000
,  // measure 65
00011000
00000000
00011000
00000000
00000000
00000000
00101000
00000000
00000000
00000000
00011000
00000000
00000000
00000000
00100000
01000000
,  // measure 66
00100000
01000000
10000000
00000000
00010000
00000000
01000000
00000000
00001000
00000000
00010000
00000000
00001000
00000000
00010000
00001000
,  // measure 67
00010000
01001000
00000000
00101000
00000000
00021000
00000000
00000000
,  // measure 68
00030100
00001100
00002001
00000000
,  // measure 69
00003001
00000100
00000010
00000000
00000010
00001000
00000000
00001000
,  // measure 70
00000001
00000000
00000000
00000000
00000001
00000000
00001000
00000001
00001000
00000001
00001000
00000001
00002000
00000000
00000000
00000000
,  // measure 71
00000000
00000000
00000000
00000000
,  // measure 72
01003000
00000000
00100000
00000000
00001000
00010000
00001000
00010000
00001000
01000000
00001000
01000000
00010000
00100000
00010000
00100000
,  // measure 73
01000000
10000000
01000000
10000000
00100000
01000000
00100000
01000000
00001000
00010000
00001000
00010000
00010100
00000000
00000100
00000010
,  // measure 74
00000001
00000000
00000011
00000000
00000101
00000000
00001010
00000000
00001001
00000000
00000001
00001000
00000100
00000000
00010010
00000000
,  // measure 75
00010100
00000000
00101000
00000000
00011000
00000000
00001000
01000000
00100000
00000000
01100000
00000000
10010000
00000000
01010000
00000000
,  // measure 76
01100000
00000000
00001000
00000000
01000000
00000000
00010000
00000000
00100000
00001000
00000000
00001000
00011000
00000000
00000100
00000010
,  // measure 77
00000001
00000000
00001100
00000000
00001010
00000000
00001100
00000000
00000001
00000100
00000001
00000100
00000010
00000000
00010000
00000100
,  // measure 78
00001000
00000000
00000100
00010000
00001000
00000000
00100000
00001000
00010000
00000000
00001000
01000000
00100000
00000000
01000000
00010000
,  // measure 79
10000000
01000000
10000000
01000000
00010000
00000000
01000000
10000000
00010000
00000000
01000000
00100000
10010000
00000000
10000000
01000000
,  // measure 80
00100000
01001000
00101000
00011000
00010100
00000100
00000110
00000010
,  // measure 81
00000011
00000000
00000001
00000000
00001001
00000000
00000001
00001000
00000100
00000000
00001100
00000000
00010010
00000000
00011000
00000000
,  // measure 82
01010000
00000000
00010000
00000000
10000000
00010000
00000000
00010000
10000000
00000000
01000000
00000000
10010000
00000000
01000000
00010000
,  // measure 83
01000000
00000000
10000000
00100000
10000000
00000000
00010000
00000000
10010000
00000000
01000000
00001000
00010000
00000000
00001000
00010000
,  // measure 84
00000100
00000000
00000010
00000000
00001001
00000000
00000100
00000001
00000100
00000000
00000010
00001000
00000010
00000000
00000001
00000100
,  // measure 85
00001000
00000100
00001000
00000100
00000001
00000010
00001000
00000100
00010000
00001000
00100000
10000000
00020000
00000000
00000000
00000000
,  // measure 86
00000000
20030000
00000000
00000000
30200000
00000000
00000000
00000000
,  // measure 87
00000000
00000000
00000000
00000000
00000000
00000000
00000000
00000000
01300000
00100000
01000000
00100000
01000000
00100000
01000000
00100000
01000000
00000000
00000000
00000000
10100000
00000000
00000000
00000000
01000000
00000000
00000000
00000000
00010000
00000000
00000000
00000000
,  // measure 88
00101000
00000000
00000000
00000000
00010000
00000000
00000100
00010000
00001000
00010000
00001000
00000000
00000000
00000000
00001100
00000000
,  // measure 89
00000000
00001001
00000000
00000011
00000100
00001000
00010010
00000000
,  // measure 90
00000100
00000000
00010000
00001000
00010000
00001000
00010000
00000000
00000000
00000000
01001000
00000000
00000000
00000000
00110000
00000000
,  // measure 91
00000000
00000000
01100000
00000000
00010000
00000000
10000000
00000000
10010000
00000000
00000000
00000000
10000000
00000000
01000000
00010000
,  // measure 92
01000000
00010000
01000000
00000000
00000000
00000000
10100000
00000000
00000000
00000000
00010000
10000000
00010000
00000000
10000000
00000000
,  // measure 93
00100000
10000000
01000000
00010000
00100000
00001000
00000100
00001000
,  // measure 94
00000000
00000011
00001010
00000000
00010100
00011000
00000000
00101000
,  // measure 95
00100000
00000000
01000000
00100000
01000000
00100000
01000000
00000000
00100000
00000000
10010000
00000000
00000000
00000000
01010000
00000000
,  // measure 96
01010000
00000000
00011000
00000000
00010010
00010010
00000000
00000110
,  // measure 97
00001001
00000100
00001000
00010100
00000000
00101000
00000000
01100000
,  // measure 98
10000000
01000000
10010000
00000000
01100000
00000000
01001000
00100000
,  // measure 99
00001000
00010000
00000000
00011000
00000000
00000110
00000001
00001000
,  // measure 100
00000001
00001000
00000001
00000000
00000100
00000000
00010000
00000000
00000000
00000000
00000000
00000000
00000000
00000000
00000000
00000000
;
