#TITLE:NEO GENERATOR SEVEN;
#SUBTITLE:;
#ARTIST:L.E.D.-G;
#TITLETRANSLIT:;
#SUBTITLETRANSLIT:;
#ARTISTTRANSLIT:;
#GENRE:;
#CREDIT:;
#BANNER:NEO GENERATOR SEVEN.png;
#BACKGROUND:NEO GENERATOR SEVEN-bg.png;
#LYRICSPATH:;
#CDTITLE:./CDTITLES/BEATMANIA IIDX.PNG;
#MUSIC:NEO GENERATOR SEVEN.ogg;
#OFFSET:0;
#SAMPLESTART:85.714;
#SAMPLELENGTH:15.000;
#SELECTABLE:YES;
#BPMS:0.000=182.000
,162.000=91.000
,178.000=182.000
;
#STOPS:68.000=2.307692,
84.000=0.329670,
96.000=0.659341,
226.000=3.626374,
291.000=0.329670
;
#BGCHANGES:;
#KEYSOUNDS:;
#ATTACKS:;

//---------------dance-single - ----------------
#NOTES:
     dance-single:
     :
     Beginner:
     4:
     0.109200,0.196386,0.040660,0.000000,0.000000,94.000000,89.000000,5.000000,0.000000,0.000000,0.000000,0.109200,0.196386,0.040660,0.000000,0.000000,94.000000,89.000000,5.000000,0.000000,0.000000,0.000000:
0000
0000
0000
0000
,
0000
0000
0000
0000
,
0000
0000
0000
0000
,
0000
0000
0000
0000
,
0000
0000
0000
0000
,
0000
0000
0000
0000
,
0000
0000
0000
0000
,
0000
0000
0000
0000
,
0000
0000
0000
0000
,
0010
0000
0000
0000
,
0010
0000
0000
0000
,
0100
0000
0000
0000
,
0100
0000
0000
0000
,
0001
0000
0000
0000
,
1000
0000
0000
0000
,
0001
0000
0001
0000
,
1000
0000
1000
0000
,
0000
0010
0000
0000
,
0000
0010
0000
0000
,
0000
0100
0000
0000
,
0000
0100
0000
0000
,
0000
0000
0001
0000
,
0000
0000
1000
0000
,
0000
0001
0001
0001
,
0001
0000
1000
0000
,
0000
0000
0010
0000
,
0000
0000
0100
0000
,
0000
0000
0001
0000
,
0000
0000
1000
0000
,
0000
0000
0100
0000
,
0000
0000
0010
0000
,
0000
0000
0001
0000
,
0000
0000
0000
0010
,
0000
0000
0100
0000
,
0000
0000
1000
0000
,
0000
0000
0001
0000
,
0000
0000
1000
0000
,
0000
0000
0001
0000
,
0000
0000
1000
0000
,
1000
0000
1000
0000
,
1000
0000
1000
0000
,
0000
0000
0010
0000
,
0000
0000
0100
0000
,
0000
0000
0001
0000
,
0000
0000
0010
0000
,
0000
0000
0110
0000
,
0000
0000
1000
0000
,
0000
0000
1001
0000
,
0000
0000
0010
0000
,
0000
0000
0110
0000
,
0000
0000
0001
0000
,
0000
0000
1001
0000
,
0000
0000
1000
0000
,
0000
0000
0001
0000
,
0000
0000
0100
0000
,
0000
0000
0010
0010
,
0010
0010
0010
0000
,
0000
0100
0000
0100
,
0000
0000
0000
0000
,
0000
0001
0000
0001
,
0000
0000
0000
0000
,
0000
1000
0000
1000
,
0000
0000
0000
0000
,
0000
0010
0000
0010
,
0000
0000
0000
0100
,
0000
0100
0000
0100
,
0000
0000
0000
0001
,
0000
0001
0000
0001
,
0000
0000
0000
1000
,
0000
0000
0000
0010
,
0000
0000
0000
0100
,
0000
0001
0000
1000
,
0000
0100
0000
0000
,
0000
0010
0000
0000
,
0001
0000
0000
1000
,
0000
0000
0001
0000
,
0001
0000
1000
0000
,
0000
0000
0010
0000
,
0000
0000
0100
0000
,
0000
0000
0001
0000
,
1000
0000
1001
0000
;

//---------------dance-single - ----------------
#NOTES:
     dance-single:
     :
     Easy:
     8:
     0.364775,0.535081,0.349673,0.113847,0.008132,314.000000,271.000000,43.000000,14.000000,0.000000,0.000000,0.364775,0.535081,0.349673,0.113847,0.008132,314.000000,271.000000,43.000000,14.000000,0.000000,0.000000:
0000
0000
0000
0000
,
0000
0000
0000
0000
,
0000
0000
0000
0000
,
0000
0000
0000
0000
,
0000
0000
0000
0000
,
0000
0000
0000
0000
,
0000
0000
0000
0000
,
0000
0000
0000
0000
,
0000
0000
0000
0000
,
0010
0010
0010
0010
,
0100
0100
0100
0100
,
0001
0001
0001
0001
,
1000
1000
2000
3000
,
0001
0010
0100
1000
,
1001
0100
0010
0001
,
1001
0010
0110
1000
,
1001
0110
1100
0101
,
2000
3001
0010
0001
,
0001
1000
0010
1000
,
1000
0001
0010
0100
,
0100
1000
0010
0100
,
0100
0010
0010
0010
,
0100
0001
0001
0001
,
1000
1001
0001
1001
,
0010
0100
0010
1000
,
0100
0001
0100
1000
,
0010
0100
0001
0010
,
1000
0010
0001
0100
,
0010
1001
1000
0100
,
0001
0100
1000
0010
,
0100
0001
0001
0010
,
1000
0010
0001
0100
,
0010
0100
0020
1000
,
1000
1030
0001
0010
,
0100
1000
0010
0100
,
0100
0100
0001
1000
,
0100
0110
0001
1000
,
0001
0001
0001
0001
0000
1000
1000
0000
,
0010
0100
0001
1001
,
1000
1001
0110
1100
,
0101
1001
0020
1030
,
2000
3100
0200
0301
,
0002
0013
0020
0031
,
0002
0103
0200
1300
,
2000
3010
0110
0000
,
0000
0000
0100
0100
0000
0100
0000
0000
,
0000
0000
1010
0000
,
0000
0000
0010
0010
0000
0010
0000
0000
,
0000
0000
0011
0000
,
0000
0000
1000
1000
0000
1000
0000
0000
,
0000
0000
1100
0000
,
0000
0000
0001
0001
0000
0001
0000
0100
,
0100
0100
0000
0010
0010
0000
1000
0000
,
0100
0001
0110
0001
,
0100
1000
0110
0001
,
0110
1000
0110
1001
,
1100
0101
2001
3010
,
1000
0010
1010
0100
,
0100
0001
0010
0100
,
0010
0001
0011
0001
,
0010
0100
0100
1000
,
0001
0000
1000
1000
1000
1000
0000
0010
,
0010
0100
0100
0001
,
0000
1001
0000
1000
,
0000
1001
0000
0010
,
0100
0001
0101
0001
,
0010
1100
0101
1000
,
0010
0100
0101
1000
,
0010
1010
0011
0020
,
0000
0000
0000
0000
,
0000
0000
0000
0000
0130
0100
0100
0000
,
0000
1001
0000
0110
,
0000
1000
0001
0010
,
0001
0010
0010
1000
,
0100
0001
0100
1000
,
0010
0010
0001
0100
,
1000
1001
0001
0010
,
0100
1000
0001
0000
1000
0000
0010
0000
,
0100
0001
1000
0000
0001
0000
0010
0000
,
0001
0000
0100
0000
1000
0000
0000
0000
0110
0000
0000
0001
0000
0000
1000
0000
,
0000
0001
0000
0000
1000
0000
0001
0000
2000
0000
0000
0000
0000
0000
0000
0000
,
0000
0000
0000
0000
,
0000
3000
0000
0000
;

//---------------dance-single - ----------------
#NOTES:
     dance-single:
     :
     Medium:
     12:
     0.526252,0.601966,0.284618,0.203298,0.109781,453.000000,418.000000,35.000000,25.000000,0.000000,0.000000,0.526252,0.601966,0.284618,0.203298,0.109781,453.000000,418.000000,35.000000,25.000000,0.000000,0.000000:
0000
0000
0000
0000
,
0000
0000
0000
0000
,
0000
0000
0000
0000
,
0000
0000
0000
0000
,
0000
0000
0000
0000
,
0000
0000
0000
0000
,
0000
0000
0000
0000
,
0000
0000
0000
0000
,
0000
0000
0000
0000
,
0110
0100
0100
0100
,
0010
0010
1000
0001
,
1001
1000
1000
1000
,
0100
0010
0002
0003
,
1000
0100
1000
0100
1000
0000
1000
0000
,
0001
0100
0001
0100
0001
0000
0001
0000
,
1010
0001
0011
1000
,
0001
0100
0010
1000
0100
0000
0110
0000
,
2001
0000
3001
0010
0001
0000
1000
1000
,
1000
0000
1000
0010
1000
0000
0001
0001
,
1000
0000
0001
0010
0001
1000
0001
0010
,
0010
0000
0100
0010
0001
1000
0010
0100
,
0001
0000
1000
0010
1000
1000
1000
1000
,
0000
0010
0100
0000
0001
0000
1000
0100
,
0010
0010
0010
0000
0001
0001
0001
0000
,
1001
0000
0010
0010
0100
0001
0100
0000
,
0010
1000
0010
0000
1000
0100
0010
0100
,
1000
0000
1000
0000
0001
0010
0001
0000
,
1000
0010
1000
0000
0010
0100
0001
1000
,
0100
0000
0110
0000
0001
0010
0100
0000
,
1000
0010
0100
0000
0010
1000
0100
1000
,
0001
0000
1000
1000
0001
0100
0010
0000
,
1000
0100
0010
0000
0001
0010
1000
0010
,
0001
0000
1000
1000
0001
0000
0100
0100
,
0010
0000
0110
0000
0010
1000
0100
1000
,
0010
0000
0100
0000
0001
0010
0100
0000
,
0010
0001
1000
0000
0001
0100
0010
0100
,
0001
0000
0100
0000
0010
1000
0001
0001
,
1000
1000
0001
0001
0000
1000
1000
1000
,
0100
0000
0000
0010
0000
0000
0001
0000
1000
0000
1000
0000
0010
0000
0010
0000
,
0001
0001
0010
0010
1000
0100
0001
0100
,
1000
0000
0000
0001
0000
0000
1000
0000
0002
0000
0013
0000
0020
0000
0031
0000
,
2000
3010
0020
1030
0002
0103
0200
1300
,
2000
3100
0200
0301
0002
0013
0020
0130
,
2000
3010
0020
0130
0200
0301
0002
1003
,
2000
3100
0002
0103
1001
0000
0010
0000
,
0010
0000
0100
0100
0000
0210
0000
0000
,
0001
1300
1001
0010
,
0010
0000
0100
0100
0000
2001
0000
0000
,
0010
3001
0110
0001
,
0001
0000
1000
1000
0000
0012
0000
0000
,
1000
0103
0110
1000
,
1000
0000
0001
0001
0000
1100
0000
0001
,
1000
0001
0000
1000
1001
0000
0010
0000
,
0100
0001
1001
0010
,
0100
0000
1000
0000
0001
0001
0010
0010
,
1000
1000
0010
0010
0001
0100
1000
0100
,
0001
0000
1000
0000
0001
0000
1000
0000
1002
0000
0000
0000
1003
0000
0000
0010
,
0000
0000
1000
0000
1000
0000
0000
0100
0000
0000
0010
0000
0001
0000
0000
0100
,
0000
0000
0010
0000
0100
0000
0000
0110
0000
0000
0001
0000
1000
0000
0000
0010
,
0000
0000
1000
0000
1000
0000
0000
0001
0000
0000
0100
0000
0001
0000
0000
0010
,
0000
0000
0100
0000
0010
0000
0000
0001
0000
0000
1000
0000
0001
0000
1000
0000
,
0001
0001
0001
1000
0001
1000
0000
0010
,
0010
0000
0010
0000
0100
0000
0000
0110
0000
0000
0001
0000
0100
0000
0000
0101
,
0000
0000
0010
0000
1000
0000
0000
1010
0000
0000
1000
0000
0100
0000
0000
0011
,
0000
0000
0100
0000
1000
0000
0000
1001
0000
0000
0010
0000
0100
0000
0000
0001
,
0000
0000
1000
0000
0010
0000
0000
1000
0000
0000
0100
0000
1000
0000
0000
0100
,
0000
0000
0010
0000
0100
0000
0000
0011
0000
0000
1000
0000
0001
0000
0000
1000
,
0000
0000
0001
0000
0100
0000
0000
0010
0000
0000
1000
0000
0100
0000
0000
1000
,
0000
0000
0001
0000
0100
0000
0000
1010
0000
0000
0100
0000
0002
0000
0000
0000
,
0000
0000
0000
0000
,
0000
0000
0000
0000
0000
0000
0000
0000
1003
0000
1000
0000
1000
0000
0000
1001
,
0000
0000
0001
0000
0100
0000
0000
1001
0000
0000
1000
0000
0001
0000
0001
0000
,
0010
0010
1000
1000
0010
0010
0002
0000
,
1003
0100
1100
0001
,
0010
0000
0001
0001
1000
0000
0010
0100
,
0001
1000
0001
0000
1000
0100
0001
0100
,
1000
0000
0011
0000
1000
0100
1000
1000
,
0001
0001
1000
0000
0001
0100
0001
0001
,
1000
1000
0001
0001
0010
0100
1000
1000
,
0100
0000
0100
0000
0001
0000
0100
0000
1001
0000
0000
0010
0000
0000
1001
0000
,
0000
0100
0000
0000
1001
0000
0001
0000
2000
0000
0000
0000
0000
0000
0000
0000
,
0000
0000
0000
0000
,
0000
3000
0000
0000
;

//---------------dance-single - ----------------
#NOTES:
     dance-single:
     :
     Hard:
     16:
     0.771372,0.969835,0.626159,0.170771,0.430992,664.000000,587.000000,77.000000,21.000000,0.000000,0.000000,0.771372,0.969835,0.626159,0.170771,0.430992,664.000000,587.000000,77.000000,21.000000,0.000000,0.000000:
// measure 0
0000
0000
0000
0000
,  // measure 1
0000
0000
0000
0000
,  // measure 2
0000
0000
0000
0000
,  // measure 3
0000
0000
0000
0000
,  // measure 4
0000
0000
0000
0000
,  // measure 5
0000
0000
0000
0000
,  // measure 6
0000
0000
0000
0000
,  // measure 7
0000
0000
0000
0000
,  // measure 8
0000
0000
0000
0000
,  // measure 9
1001
0000
0110
0000
1000
0100
0001
0000
,  // measure 10
0100
1000
0010
0100
0001
0010
0100
0000
,  // measure 11
0011
0000
1100
0000
0001
0100
1000
0000
,  // measure 12
0100
0010
1000
0100
1001
0100
0010
0000
,  // measure 13
1001
1000
1000
1000
0100
0010
0100
1000
,  // measure 14
1001
0001
0001
0001
0100
0010
0100
0001
,  // measure 15
1010
0000
0001
0100
0001
0000
1000
0000
0001
0000
0010
0001
0010
0000
0001
0000
,  // measure 16
1000
0000
0100
0010
0001
0000
0100
0010
1000
0000
0001
1000
0100
0000
1000
0001
,  // measure 17
2000
0000
0000
0000
3001
0000
1000
0000
0010
1000
0010
1000
0010
0000
1000
0000
,  // measure 18
0100
0000
0000
0000
1000
0000
0100
0000
0010
0000
0001
1000
0001
0000
0100
0000
,  // measure 19
0001
0001
1000
0001
0010
0001
0100
0001
,  // measure 20
0001
0000
0010
0000
0001
0000
1000
0100
1000
0000
0001
0100
0001
0000
1000
0000
,  // measure 21
1001
0000
0000
0000
0010
0100
0010
0100
0010
0000
1000
0000
1100
0000
1100
0000
,  // measure 22
0000
0001
0001
0010
0100
0010
0001
1000
,  // measure 23
1001
0000
0010
0000
1010
0000
0001
0000
0101
0000
1000
0000
1100
0000
0100
0010
,  // measure 24
0001
0000
1000
1000
0010
1000
0100
0000
,  // measure 25
0010
0001
0100
0000
0010
1000
0100
0001
,  // measure 26
0100
1000
0010
0100
0001
0010
0100
0000
,  // measure 27
0010
0001
0100
0000
0001
0100
0010
1000
,  // measure 28
0001
0000
1000
0001
0100
0000
0000
0000
0010
0000
0010
0000
1000
0000
0000
0000
,  // measure 29
0100
0001
0010
0000
0100
0100
0010
0100
,  // measure 30
1000
0000
0010
0100
0000
0100
0001
0000
0100
0000
0100
0000
0010
0000
0000
0000
,  // measure 31
1000
0000
0100
0000
0010
0000
0000
0000
0001
0000
0100
0000
0010
1000
0010
1000
,  // measure 32
0001
0000
1000
0001
0100
0000
0001
1000
0200
0000
0000
0000
0310
0000
0010
0000
,  // measure 33
0001
0100
0010
0000
1000
0100
0001
0100
,  // measure 34
1000
0010
0100
0100
0010
0010
1000
0000
,  // measure 35
0001
0010
0100
0000
0010
0001
0100
1000
,  // measure 36
0100
0000
0001
0000
0010
0000
0100
0000
0010
0001
0010
0001
1000
0000
0010
1000
,  // measure 37
0010
0100
0101
0101
0000
1100
1100
0010
,  // measure 38
1001
0000
0000
1001
0000
0000
0001
1000
0100
0000
0100
0000
0101
0000
0100
0000
,  // measure 39
1010
0000
0010
0000
0011
0000
0010
0000
1001
0000
0100
0010
0001
0000
1000
0001
,  // measure 40
1000
0001
0000
1000
0001
0000
0100
0010
2001
0000
3100
0000
0200
0000
0301
0000
,  // measure 41
0002
0103
0200
1300
0020
0031
0002
0013
,  // measure 42
0020
1030
2000
3100
0210
0301
2000
3010
,  // measure 43
0120
1030
0002
0013
0210
0310
0102
0103
,  // measure 44
2100
0000
3100
0000
1020
0000
1030
0000
1001
0000
0000
0010
0100
0000
0010
0000
,  // measure 45
1000
0000
0110
0110
0000
1001
0000
0001
,  // measure 46
0010
0000
0000
0010
0100
0000
0010
0000
0011
0000
0000
1000
0100
0000
1000
0000
,  // measure 47
0010
0000
0110
0110
0000
1100
0000
0100
,  // measure 48
1000
0000
0000
1000
0010
0000
1000
0000
1010
0000
0000
0010
0100
0000
0001
0000
,  // measure 49
0010
0000
0011
0011
0000
0110
0000
0010
,  // measure 50
0001
0000
0000
0001
1000
0000
0001
0000
0110
0000
0000
0010
1000
0000
0010
0000
,  // measure 51
0100
0000
0110
0110
0000
1001
0000
0101
,  // measure 52
0010
0000
1100
0000
0000
0000
1000
0000
1001
0000
0000
0001
0100
0000
0001
0000
,  // measure 53
0010
0000
0000
0010
0001
0000
1000
0000
0100
0000
0000
0100
1000
0000
0010
0000
,  // measure 54
0100
0000
0001
1000
0100
0000
1000
0001
1000
0000
0001
0000
1001
0000
0001
0000
,  // measure 55
0011
0000
1000
0000
1100
0000
0001
0000
1000
0100
1000
0100
0001
0010
0001
0010
,  // measure 56
1000
0100
0010
0001
1000
0100
0001
0010
2000
0000
0000
0000
3010
0000
0000
0010
,  // measure 57
0100
0000
0001
0000
0100
0000
0000
0100
0001
0000
0010
0000
0001
0000
0000
0001
,  // measure 58
0010
0000
0100
0000
1000
0000
0000
1000
0010
0000
1000
0000
0001
0000
0001
0000
,  // measure 59
1000
0000
0010
0000
1000
0000
0000
1000
0100
0000
1000
0000
0010
0000
0000
0010
,  // measure 60
0100
0000
0001
0000
0100
0000
0000
0100
0001
0000
0100
0000
0001
1000
0001
1000
,  // measure 61
0001
0000
1000
0100
1000
0000
0001
0000
0011
0000
0011
0000
0000
0000
1000
0000
,  // measure 62
0100
0000
1000
0000
1100
0000
0000
0101
0000
0000
1000
0000
1010
0000
0000
0101
,  // measure 63
0000
0000
1000
0001
1000
0100
0000
0011
0000
0000
0001
0010
0100
0000
0000
0011
,  // measure 64
0000
0000
1000
0100
0010
0000
0000
1100
0000
0000
0001
1000
0001
0000
0000
1000
,  // measure 65
0100
0000
1000
0000
0010
0000
0000
0100
0001
0000
0010
0000
0001
0000
0000
1000
,  // measure 66
0100
0000
1000
0000
0110
0000
0000
0110
0000
0000
1001
0000
1010
0000
0000
0001
,  // measure 67
0100
0000
0001
0000
0010
0000
0000
0100
1000
0000
0010
0000
0001
0000
0000
0010
,  // measure 68
1000
0000
0100
0000
0001
0100
0000
1000
0100
0000
1000
0000
1001
0000
0010
1000
,  // measure 69
0010
0000
1000
0000
0001
0000
0100
0001
0100
0000
0001
0000
0010
0000
0001
0010
,  // measure 70
0001
0000
0100
0000
1000
0000
0100
0001
0100
0000
0100
0000
1100
0000
0000
0011
,  // measure 71
0000
0000
1001
0000
0101
0000
0000
1100
0000
0000
1001
0000
0001
0010
0001
0010
,  // measure 72
1000
0100
1000
0100
0001
0010
1000
0100
0001
0010
0100
1000
0002
0000
0000
0000
,  // measure 73
1003
0000
0000
0000
0001
0000
0000
0000
0010
0000
0001
0000
0100
0000
0010
1000
,  // measure 74
0010
0000
1000
0000
0100
0000
0100
0000
1000
0000
0010
0000
0100
0000
0001
0010
,  // measure 75
0001
0000
1000
0000
0100
0000
0010
0000
0100
0000
0100
1000
0001
0000
0001
1000
,  // measure 76
0010
0000
0010
1000
0100
0000
0000
0000
1000
0000
0010
0000
0100
0000
0001
0010
,  // measure 77
0001
0000
0100
0000
0010
0000
0100
0000
0001
0000
0010
0000
0100
0000
1000
0010
,  // measure 78
1000
0000
0100
0000
0010
0000
0100
0000
1000
0000
0001
0000
0100
0000
0010
1000
,  // measure 79
0001
0000
0100
0000
0001
0000
0010
0000
1001
0000
0010
0100
0000
0000
1001
0000
,  // measure 80
0100
0000
0000
0010
0000
0000
0000
0000
0000
0000
0000
0000
1001
0000
0000
0000
0000
0000
0001
0000
1000
0000
0001
0000
2000
0000
0000
0000
0000
0000
0000
0000
0000
0000
0000
0000
0000
0000
0000
0000
0000
0000
0000
0000
0000
0000
0000
0000
,  // measure 81
0000
0000
0000
0000
,  // measure 82
0000
3000
0000
0000
;
