#TITLE:Initiation;
#SUBTITLE:;
#ARTIST:BEMANI Sound Team "謎の勢力";
#TITLETRANSLIT:;
#SUBTITLETRANSLIT:;
#ARTISTTRANSLIT:NAZO NO SEIRYOKU;
#GENRE:;
#CREDIT:;
#MENUCOLOR:;
#METERTYPE:DDR;
#BANNER:Initiation.png;
#BACKGROUND:Initiation-bg.png;
#LYRICSPATH:;
#CDTITLE:./CDTITLES/BEATMANIA IIDX.PNG;
#MUSIC:Initiation.ogg;
#OFFSET:0.000;
#SAMPLESTART:99.000;
#SAMPLELENGTH:15.000;
#SELECTABLE:YES;
#LISTSORT:;
#BPMS:0.000=160.000,200.000=80.000,232.000=160.000;
#STOPS:;
#BGCHANGES:0.000=Initiation.avi=1.000=0=0=0,
99999=-nosongbg-=1.000=0=0=0 // don't automatically add -songbackground-
;
#ATTACKS:;

//---------------dance-single - ----------------
#NOTES:
     dance-single:
     :
     Beginner:
     4:
     0.154,0.287,0.023,0.181,0.000: // measure 1
0000
0000
0000
0000
,  // measure 2
0000
0000
0000
0000
,  // measure 3
0000
0000
0000
0000
,  // measure 4
0000
0000
0000
0000
,  // measure 5
0000
0000
0000
0000
,  // measure 6
0010
0000
0010
0000
,  // measure 7
0010
0000
0000
0000
,  // measure 8
0100
0000
0100
0000
,  // measure 9
0100
0000
0100
0000
,  // measure 10
0000
0000
0000
0000
,  // measure 11
0010
0000
0010
0000
,  // measure 12
0010
0000
0000
0000
,  // measure 13
1000
0000
1000
0000
,  // measure 14
1000
0000
0000
0000
,  // measure 15
0001
0000
0001
0000
,  // measure 16
0001
0000
0000
0000
,  // measure 17
0100
0000
0100
0000
,  // measure 18
0100
0000
0000
0000
,  // measure 19
0010
0000
1000
0000
,  // measure 20
0001
0000
0100
0000
,  // measure 21
0010
0000
1000
0000
,  // measure 22
0001
0000
0100
0000
,  // measure 23
0010
0000
0000
0000
,  // measure 24
0100
0000
0000
0000
,  // measure 25
0001
0000
0001
0000
,  // measure 26
0001
0001
0001
0001
,  // measure 27
0001
0000
0000
0000
,  // measure 28
0010
0000
0000
0000
,  // measure 29
0100
0000
0000
0000
,  // measure 30
1000
0000
0000
0000
,  // measure 31
0100
0100
0100
0100
,  // measure 32
0100
0100
0100
0100
,  // measure 33
0100
0000
0000
0000
,  // measure 34
0000
0000
0000
0000
,  // measure 35
0010
0000
0000
0000
,  // measure 36
0010
0000
0000
0000
,  // measure 37
1000
0000
0000
0000
,  // measure 38
1000
0000
0000
0000
,  // measure 39
0001
0000
0000
0000
,  // measure 40
0001
0000
0000
0000
,  // measure 41
0100
0000
0000
0000
,  // measure 42
0100
0000
0000
0000
,  // measure 43
0010
0010
0010
0000
,  // measure 44
0010
0000
0010
0000
,  // measure 45
1000
1000
1000
0000
,  // measure 46
1000
0000
1000
0000
,  // measure 47
0001
0001
0001
0000
,  // measure 48
0001
0000
0001
0000
,  // measure 49
0100
0100
0100
0000
,  // measure 50
0100
0000
0100
0000
,  // measure 51
0020
0000
0000
0030
,  // measure 52
2000
0000
0000
3000
,  // measure 53
0002
0000
0000
0003
,  // measure 54
0200
0000
0000
0300
,  // measure 55
0002
0000
0000
0003
,  // measure 56
2000
0000
0000
3000
,  // measure 57
0020
0000
0200
0330
,  // measure 58
0220
0000
0000
0330
,  // measure 59
1001
0000
1000
0000
,  // measure 60
2000
0000
0000
3000
,  // measure 61
0001
0000
0001
0000
,  // measure 62
0002
0000
0000
0003
,  // measure 63
0020
0000
0030
0010
,  // measure 64
0020
0000
0030
0010
,  // measure 65
0200
0000
0000
0300
,  // measure 66
0200
0300
0200
0300
,  // measure 67
0010
0010
0010
0000
,  // measure 68
1000
0000
0001
0000
,  // measure 69
1000
1000
1000
0000
,  // measure 70
0001
0000
0100
0000
,  // measure 71
0002
0000
0003
0001
,  // measure 72
0002
0000
0003
1000
,  // measure 73
2000
0000
0000
3000
,  // measure 74
0020
0000
0200
0330
,  // measure 75
2002
0000
0000
0000
,  // measure 76
0000
0000
0000
0000
,  // measure 77
3003
0000
0000
0000
;

//---------------dance-single - ----------------
#NOTES:
     dance-single:
     :
     Easy:
     7:
     0.390,0.516,0.340,0.242,0.008: // measure 1
0000
0000
0000
0000
,  // measure 2
0000
0000
0000
0000
,  // measure 3
0000
0000
0000
0000
,  // measure 4
0000
0000
0000
0000
,  // measure 5
0000
0000
0000
0000
,  // measure 6
0001
0001
0100
0100
,  // measure 7
1000
1000
0010
0010
,  // measure 8
0001
0100
1001
0000
,  // measure 9
0110
0000
1000
0001
,  // measure 10
2001
0000
0000
3010
,  // measure 11
0100
0001
0100
0101
,  // measure 12
0001
0010
0001
0011
,  // measure 13
1000
0100
1000
1100
,  // measure 14
1000
0010
0100
0110
,  // measure 15
0001
1000
0001
1001
,  // measure 16
1000
0100
0010
0011
,  // measure 17
0001
0010
0100
1100
,  // measure 18
1000
0001
0100
0110
,  // measure 19
0010
1000
0001
0100
,  // measure 20
0010
1000
0001
0001
,  // measure 21
0010
1000
0001
0100
,  // measure 22
0010
1000
0001
1000
,  // measure 23
1001
0010
0100
1000
,  // measure 24
1001
0100
0010
0001
,  // measure 25
1001
1000
1001
0001
,  // measure 26
0110
0000
0110
0000
0100
0100
0100
0100
,  // measure 27
0010
0000
0000
0000
0010
0000
0000
0000
1000
0000
0000
1000
0000
0000
0000
0000
,  // measure 28
0001
0000
1000
0000
0001
1000
0001
0000
,  // measure 29
0010
0000
0000
0000
0010
0000
0000
0000
0001
0000
0000
0001
0000
0000
0000
0000
,  // measure 30
1000
0000
0001
0100
0001
0000
0010
0000
,  // measure 31
1100
0100
0100
0100
,  // measure 32
0001
0001
0100
1000
,  // measure 33
0010
0010
0100
0010
,  // measure 34
0210
0000
0000
0301
,  // measure 35
1000
0010
1000
1010
,  // measure 36
0001
0100
0001
0101
,  // measure 37
1000
0100
1000
1100
,  // measure 38
0001
0010
0100
0110
,  // measure 39
1001
0010
0100
0001
,  // measure 40
1001
0010
0100
1000
,  // measure 41
1100
0010
0001
0100
,  // measure 42
0101
0010
1000
0001
,  // measure 43
1001
0001
0100
0100
,  // measure 44
1000
1000
0010
0010
,  // measure 45
1000
1000
0100
0100
,  // measure 46
0001
0001
0010
0010
,  // measure 47
2001
0010
0010
0100
,  // measure 48
0001
0010
0010
0100
,  // measure 49
0001
0010
0001
3010
,  // measure 50
0001
0000
0001
0000
1000
0001
1000
0001
,  // measure 51
0200
0000
0320
1030
,  // measure 52
0002
0010
0100
1003
,  // measure 53
2000
0100
0010
3001
,  // measure 54
0020
0001
2000
3030
,  // measure 55
0200
0000
1000
0310
,  // measure 56
2000
0010
0001
3100
,  // measure 57
0210
0000
0000
0301
2001
0000
0000
3010
,  // measure 58
0102
0000
0000
0000
2003
0000
3002
1003
,  // measure 59
0001
0010
0001
0010
0000
0010
0001
0000
,  // measure 60
2000
0100
0001
3010
,  // measure 61
1000
0010
1000
0010
0000
0010
1000
0000
,  // measure 62
0002
0010
1000
0103
,  // measure 63
0210
0001
1000
0301
,  // measure 64
0120
1000
0001
1030
,  // measure 65
2100
3001
0102
1003
,  // measure 66
0210
0000
0301
0000
0120
0000
1030
0001
,  // measure 67
1000
0001
0100
0010
0000
1000
0001
0000
,  // measure 68
0020
1000
0100
0031
,  // measure 69
0001
1000
0010
0100
0000
0001
1000
0000
,  // measure 70
0200
0001
1000
0310
,  // measure 71
2010
0100
0001
3010
,  // measure 72
0102
1000
0010
1003
,  // measure 73
0210
0301
0120
1030
,  // measure 74
1001
0000
0110
0000
0001
1000
0001
1000
,  // measure 75
0220
0000
0000
0000
,  // measure 76
0000
0000
0000
0000
,  // measure 77
0330
0000
0000
0000
;

//---------------dance-single - ----------------
#NOTES:
     dance-single:
     :
     Medium:
     12:
     0.535,0.631,0.400,0.302,0.083: // measure 1
0000
0000
0000
0000
,  // measure 2
0000
0000
0000
0000
,  // measure 3
0000
0000
0000
0000
,  // measure 4
0000
0000
0000
0000
,  // measure 5
0000
0000
0000
0000
,  // measure 6
0010
0000
0000
1000
0000
0000
0001
0000
0100
0000
0000
0100
0000
0000
0001
0000
,  // measure 7
0010
0000
0000
0100
0000
0000
1000
0000
0001
0000
0000
0100
0000
0000
0001
0000
,  // measure 8
1000
0000
0000
0000
0000
0000
0000
0000
0000
0001
0000
0000
0000
0000
0000
0000
0000
0000
1000
0000
0000
0000
0000
0000
1001
0000
0000
0000
0000
0000
0000
0000
0010
0000
0000
0000
0000
0000
0000
0000
0010
0000
0000
0000
0000
0000
0000
0000
,  // measure 9
1001
0000
0100
0000
0100
0000
0001
1000
0001
1000
0001
1000
,  // measure 10
0002
0000
0000
1003
,  // measure 11
0001
0010
0100
0000
0010
0001
1001
0000
,  // measure 12
1000
0010
0100
0000
0010
1000
1001
0000
,  // measure 13
1000
0100
0010
0000
0100
1000
1100
0000
,  // measure 14
0001
0010
0100
0000
0010
0001
0011
0000
,  // measure 15
1000
0010
0100
0000
0010
1000
1001
0000
,  // measure 16
0001
0010
0100
0000
0010
0001
1001
0000
,  // measure 17
0001
0100
0010
0000
0100
0001
0101
0000
,  // measure 18
1000
0100
0010
0000
0100
1000
1100
0000
,  // measure 19
0001
0010
0001
0001
1000
0010
1000
1000
,  // measure 20
0001
0010
0001
0001
1000
0100
0010
0001
,  // measure 21
1000
0010
0100
0100
0001
0010
0100
0100
,  // measure 22
1000
0010
0100
0100
0010
1000
0001
0100
,  // measure 23
1001
0010
0100
0100
1000
0010
1000
0001
,  // measure 24
1001
0010
0100
0100
1000
0010
1000
0001
,  // measure 25
1000
0100
0001
0100
1000
0010
0001
0010
,  // measure 26
1000
1000
0001
0001
0100
0010
0100
0001
,  // measure 27
1001
0000
0000
0000
1000
0000
0000
0000
0001
0000
0000
0001
0000
0000
1000
0000
,  // measure 28
0001
0000
0000
0010
0000
0000
0100
0000
1000
0000
0000
0100
0000
0000
0010
0000
,  // measure 29
0100
0000
0000
0000
0100
0000
0000
0000
1000
0000
0000
1000
0000
0000
0010
0000
,  // measure 30
0100
0000
0000
0001
0000
0000
0001
0000
0100
0000
0000
0000
0010
0000
0000
0000
,  // measure 31
0110
0000
0110
0000
0001
1000
0001
0000
,  // measure 32
1000
0000
0100
0000
0010
0000
0100
0000
1000
0000
0000
0001
0000
0000
0100
0000
,  // measure 33
0010
0000
0000
0000
0110
0000
0000
0000
0010
0000
0000
0100
0000
0000
0102
0000
,  // measure 34
0000
0000
0000
1003
,  // measure 35
0001
0010
0100
0100
1000
0010
0110
0000
,  // measure 36
1000
0010
0100
0100
0001
0010
0110
0000
,  // measure 37
0001
1000
0100
0100
1000
0001
0011
0000
,  // measure 38
0001
1000
0010
0010
1000
0001
0101
0000
,  // measure 39
0001
0100
0010
0010
1000
0100
0011
0000
,  // measure 40
1000
0001
0100
0100
0001
0010
1100
0000
,  // measure 41
0010
0001
1000
1000
0001
0100
1001
0000
,  // measure 42
0010
0001
1000
1000
0100
1000
1001
0010
,  // measure 43
0100
0000
0100
0000
0001
1000
0001
0000
,  // measure 44
0010
0000
0010
0000
0001
1000
0001
0000
,  // measure 45
1000
0000
1000
0000
0001
0010
0100
0000
,  // measure 46
0001
0000
0001
0000
1000
0010
0100
0010
,  // measure 47
2001
0100
0001
0001
,  // measure 48
0010
0100
0001
3001
,  // measure 49
0010
0001
1000
0000
0010
1000
0001
0000
,  // measure 50
0001
0010
0100
1000
0001
0001
1000
1000
,  // measure 51
0210
0302
0023
0130
,  // measure 52
2000
3020
0230
0301
,  // measure 53
2000
3100
0002
0103
,  // measure 54
2000
0010
0002
3003
,  // measure 55
2020
3030
0012
1003
,  // measure 56
0002
0100
1000
0013
,  // measure 57
0210
0000
0000
0301
2001
0000
0000
3001
,  // measure 58
0022
0000
0000
0000
0033
0000
0000
0000
2200
0000
3300
0000
0102
0000
1003
0010
,  // measure 59
1000
0100
0010
0100
1000
0010
0100
0001
,  // measure 60
1002
0010
1000
0103
,  // measure 61
0001
0010
0100
1000
0001
0100
0010
1000
,  // measure 62
0210
0000
0001
0000
1000
0000
0310
1000
,  // measure 63
2010
0000
3010
0000
1000
0100
0010
0000
,  // measure 64
0012
0000
0013
0000
0001
0010
0100
0000
,  // measure 65
0210
0301
0120
1030
,  // measure 66
2100
0000
3010
0000
0102
0000
0013
1000
,  // measure 67
1001
0010
0100
0001
1000
0100
0010
0100
,  // measure 68
2100
0000
3001
0000
0001
0100
0001
0000
,  // measure 69
1001
0100
0010
1000
0001
0010
0100
1000
,  // measure 70
0012
0000
1000
0000
0100
0000
0013
0001
,  // measure 71
1002
0000
0013
0000
1000
0100
0010
0000
,  // measure 72
2001
0000
3010
0000
0001
0100
0010
0000
,  // measure 73
0210
0301
0120
1030
,  // measure 74
0101
0000
0000
0000
1100
0000
0000
0000
0001
0000
0010
0000
0100
1000
0100
0000
,  // measure 75
2002
0000
0000
0000
,  // measure 76
0000
0000
0000
0000
,  // measure 77
3003
0000
0000
0000
;

//---------------dance-single - ----------------
#NOTES:
     dance-single:
     :
     Hard:
     16:
     0.782,0.832,0.475,0.392,0.592: // measure 1
0000
0000
0000
0000
,  // measure 2
0000
0000
0000
0000
,  // measure 3
0000
0000
0000
0000
,  // measure 4
0000
0000
0000
0000
,  // measure 5
0000
0000
0000
0000
,  // measure 6
0010
0000
0000
0010
1000
0000
0001
0000
0100
0000
0000
0100
0001
1000
0001
0000
,  // measure 7
0010
0000
0000
0010
0001
0000
1000
0000
0010
0000
0000
1000
0001
1000
0100
0000
,  // measure 8
0010
0000
0000
0000
0000
0000
0000
0000
0000
0010
0000
0000
0100
0000
0000
0000
0000
0000
1000
0000
0000
0000
0000
0000
0010
0000
0000
0000
0000
0000
0000
0000
0110
0000
0000
0000
0000
0000
0000
0000
0010
0000
0000
0000
1000
0000
0000
0000
,  // measure 9
0010
0000
1001
0000
0010
0001
1000
0100
0001
1000
0010
0001
,  // measure 10
2000
0000
0000
3001
,  // measure 11
1000
0001
1100
0001
1000
0001
0011
1000
,  // measure 12
0001
1000
1010
0001
0100
0001
0101
0001
,  // measure 13
0010
0100
0110
0010
0001
1000
1001
1000
,  // measure 14
0010
0100
0110
0010
1000
0001
1100
0100
,  // measure 15
0110
0100
1001
0001
1000
0010
0101
0001
,  // measure 16
1000
0001
0011
1000
0100
0010
0110
0100
,  // measure 17
1000
0010
0101
0010
1000
0001
0011
0001
,  // measure 18
0100
1000
1100
1000
0010
0001
0110
0100
,  // measure 19
1010
0000
0010
0000
1000
0010
1000
0010
0100
0000
0100
0000
0001
0010
0001
0010
,  // measure 20
0100
0000
0100
0000
0010
0001
0010
0001
1000
0000
1000
0000
0010
1000
0001
0000
,  // measure 21
1000
0000
0100
0000
0010
0100
0010
0100
1000
0000
0100
0000
1000
0010
1000
0010
,  // measure 22
0100
0000
0001
0000
0010
0001
0010
0001
1000
0000
0001
0000
0100
0001
0010
0000
,  // measure 23
1001
0000
0010
0000
1000
0100
0010
0100
1000
0000
0100
0000
1000
0001
0100
0000
,  // measure 24
1001
0000
0010
0000
0001
0100
0010
0100
0001
0000
0100
0000
0001
1000
0010
0000
,  // measure 25
1000
0001
0100
0000
0001
1000
0010
0000
1000
0100
0010
0000
0001
0010
0100
0000
,  // measure 26
0010
0001
0100
0000
0010
1000
0100
0000
0010
0001
0000
1000
0001
1000
0001
1000
,  // measure 27
0010
0000
0000
0000
0110
0000
0000
0010
1000
0010
0000
0010
0000
0010
1000
0000
,  // measure 28
0000
0001
0100
0000
0100
0000
0100
0000
0001
0000
0000
1000
0000
0001
0010
0000
,  // measure 29
0001
0000
0000
0000
0101
0000
0000
0100
0001
0100
0000
0100
0000
0100
0010
0000
,  // measure 30
0000
1000
0100
0000
0010
0000
0100
0000
1000
0000
0000
0001
0000
1000
0001
0000
,  // measure 31
1100
0000
0000
0000
1100
0000
0000
0010
0001
0010
0000
0001
0000
0001
1000
0000
,  // measure 32
0001
0100
0001
0000
0100
0000
0100
0000
0010
1000
0010
1000
0000
1000
0001
0000
,  // measure 33
1001
0000
0000
0000
0110
0000
0000
0100
0010
0100
0000
0010
0000
0010
0200
0000
,  // measure 34
0000
0000
0000
0310
,  // measure 35
1001
0000
0010
0000
1000
0100
0010
0100
1000
0000
0001
0000
0100
0001
0010
0001
,  // measure 36
0100
0000
0010
0000
1000
0001
0100
0001
1000
0000
0001
0000
0010
0001
1000
0000
,  // measure 37
0001
0000
0100
0000
0010
1000
0100
1000
0010
0000
1000
0000
0010
0100
0001
0100
,  // measure 38
0010
0000
1000
0000
0001
0010
0100
0010
0001
0000
1000
0000
0100
0010
0001
0000
,  // measure 39
1001
0000
0010
0000
0100
0001
1000
0010
1000
0000
0001
0000
1000
0001
0100
0001
,  // measure 40
1000
0000
0100
0000
0010
0001
0100
0001
0010
0000
0100
0000
1000
0010
0100
0000
,  // measure 41
0010
0000
1000
0000
0001
0100
0010
0100
0001
0000
0100
0000
0001
0010
0100
1000
,  // measure 42
0001
0000
1000
0000
0100
0010
0100
1000
0010
0000
0100
0000
0010
1000
0001
0000
,  // measure 43
1001
0000
0010
0000
1000
0001
0100
0001
2000
0000
3100
0000
0010
0001
0100
0001
,  // measure 44
0020
0000
0031
0000
1000
0001
0100
0010
0200
0000
0301
0000
1000
0010
1000
0000
,  // measure 45
0001
0000
0100
0000
0001
0010
0100
0010
0002
0000
0013
0000
0100
1000
0010
1000
,  // measure 46
0200
0000
1300
0000
0010
0100
0010
1000
0002
0000
1003
0000
0100
0010
0001
1000
,  // measure 47
0002
0010
0100
0100
0010
1000
0100
0000
,  // measure 48
0010
1000
0100
0100
0010
0100
1003
0000
,  // measure 49
0001
0010
1000
0000
0001
0100
1000
0000
0001
0010
0100
0000
0010
0001
1000
0000
,  // measure 50
0001
0100
0001
0100
1000
0100
1000
0100
0001
0010
0100
1000
0002
0000
0000
0000
,  // measure 51
2003
0000
0000
0000
0200
0300
0020
0030
,  // measure 52
3002
0000
0020
0030
0200
0300
0020
0030
,  // measure 53
2003
0000
0000
0000
0002
0003
0200
3300
,  // measure 54
0002
0000
0020
0030
0200
0300
0020
0033
,  // measure 55
2020
0000
3000
0000
2000
3000
0200
0330
,  // measure 56
0002
0000
0200
0300
2000
3000
0020
0033
,  // measure 57
0220
0000
0030
0310
0220
0000
0300
0130
,  // measure 58
2200
0000
0000
0000
0300
0000
3001
0000
1002
0000
0000
0000
2003
0000
3001
0110
,  // measure 59
0001
0100
1010
0100
0001
1000
0011
1000
,  // measure 60
0100
0000
0010
0000
0110
0000
0100
0000
1000
0001
0000
1000
0000
1000
0100
0000
,  // measure 61
1000
0001
1010
0001
1000
0001
0101
0001
,  // measure 62
0010
0000
0100
0000
0110
0000
0010
0000
0001
1000
0000
0001
0000
0001
0100
0000
,  // measure 63
2010
0001
0100
0001
0010
3001
0101
0000
,  // measure 64
0012
1000
0100
1000
0010
0103
0110
0000
,  // measure 65
2010
3100
1100
0000
0012
0103
0101
0000
,  // measure 66
0210
0001
1300
0000
0120
1000
0031
1010
,  // measure 67
0001
0000
0100
0000
0010
1000
0001
1000
0010
0000
1000
0000
0001
1000
0100
1000
,  // measure 68
0001
0000
1000
0000
0100
0010
0001
0010
0100
1000
0000
0001
0000
0001
1000
0000
,  // measure 69
1100
0000
0010
0000
0100
1000
0010
1000
0001
0000
1000
0000
0010
0100
0001
1000
,  // measure 70
0010
0000
1000
0000
0001
0010
0100
0010
0001
1000
0000
0010
0000
0010
0100
0000
,  // measure 71
2001
0000
0010
0000
0100
0000
3001
0000
0100
0000
0010
0000
1000
0001
0100
0000
,  // measure 72
1002
0000
0010
0000
0100
0000
1003
0000
0010
0000
0100
0000
0001
1000
0010
0000
,  // measure 73
0102
0010
1003
0100
2100
0010
0001
3100
,  // measure 74
0110
0000
0001
1000
1100
0000
1000
0001
0101
0000
1100
0000
0001
0010
0100
2000
,  // measure 75
0002
0000
0000
0000
,  // measure 76
0000
0000
0000
0000
,  // measure 77
3003
0000
0000
0000
;

//---------------dance-single - ----------------
#NOTES:
     dance-single:
     :
     Challenge:
     17:
     0.886,0.946,0.272,0.415,0.974: // measure 1
0000
0000
0000
0000
,  // measure 2
0000
0000
0000
0000
,  // measure 3
0000
0000
0000
0000
,  // measure 4
0000
0000
0000
0000
,  // measure 5
0000
0000
0000
0000
,  // measure 6
0001
0000
0000
0100
0001
0000
1000
0000
0001
0000
0000
0001
0010
0100
1000
0001
,  // measure 7
1000
0000
0000
0100
1000
0000
0001
0000
1000
0001
0000
0001
0010
0001
0100
0010
,  // measure 8
1000
0000
0000
0010
0000
0000
0000
0000
0000
0010
0000
0000
0100
0000
0000
0010
0000
0000
1000
0000
0000
0001
0000
0000
1000
0000
0000
0000
0000
0000
0000
0000
1001
0000
0000
0000
0000
0000
0000
0000
0001
0000
0000
0000
0010
0000
0000
0000
,  // measure 9
0100
0000
0110
0000
0010
0001
1000
0100
0001
1000
0010
0001
,  // measure 10
2000
0000
0000
0000
0000
0010
0010
3010
,  // measure 11
0100
0000
0001
0000
1000
0100
0010
0100
1000
0000
0001
0100
0010
0100
0001
0010
,  // measure 12
0100
0000
0010
0000
0001
0010
0100
0010
0001
0000
1000
0010
0100
0010
1000
0001
,  // measure 13
0100
0000
0001
0000
1000
0001
0100
0001
1000
0000
0010
1000
0001
0010
0001
1000
,  // measure 14
0001
0000
0100
0000
0010
0100
0001
0100
0010
1000
0001
0000
1000
0000
0001
0000
,  // measure 15
1001
0000
0010
0000
1000
0100
0010
0001
0100
0000
0001
0100
0010
1000
0001
0010
,  // measure 16
0001
0000
1000
0100
0010
0100
1000
0010
0100
0000
0010
1000
0001
0010
0001
1000
,  // measure 17
0010
0000
0100
0001
0010
0001
0100
0010
1000
0000
0100
1000
0010
1000
0100
0010
,  // measure 18
0001
0000
0100
0010
1000
0010
0100
0001
1000
0000
0001
0000
1000
0000
0001
0000
,  // measure 19
1001
0000
0010
0000
1000
0100
0001
0100
1000
0000
0001
0000
1000
0100
0001
0100
,  // measure 20
1000
0000
0010
0000
1000
0100
0001
0100
1000
0000
0001
0000
0100
0001
1000
0000
,  // measure 21
0001
0000
0010
0000
0001
0100
1000
0100
0001
0000
0100
0000
0001
0100
1000
0100
,  // measure 22
0001
0000
1000
0000
0001
0010
1000
0010
0001
0000
0100
0000
0010
0000
0100
0000
,  // measure 23
0110
0000
0001
0000
1000
0010
0100
0001
1000
0000
0001
0010
0100
1000
0001
0000
,  // measure 24
0110
0000
1000
0000
0001
0010
0100
1000
0001
0000
1000
0010
0100
0001
1000
0000
,  // measure 25
0001
0010
1000
0000
1000
0010
0001
0000
0001
0100
1000
0000
1000
0100
0001
0000
,  // measure 26
0001
0100
0001
0100
1000
0100
1000
0100
0001
0010
1000
0010
0001
0100
1000
0100
,  // measure 27
0001
0000
0000
0000
1001
0000
0000
0100
0010
1000
0000
0010
0000
0010
1000
0000
,  // measure 28
0000
0001
0010
0000
0001
0000
0001
0000
1000
0000
0000
0001
0000
0001
1000
0000
,  // measure 29
0100
0000
0000
0000
0110
0000
0000
0100
1000
0100
0000
0010
0000
0010
0001
0000
,  // measure 30
0000
1000
0010
0000
0100
0010
0100
0010
1000
0000
0001
0100
0001
1000
0001
0000
,  // measure 31
1001
0000
0010
0000
1000
0001
0100
0000
0001
1000
0010
1000
0001
1000
0001
0000
,  // measure 32
1000
0001
0010
0001
1000
0001
1000
0000
0001
0100
0010
0100
0000
0100
0001
0000
,  // measure 33
0100
0000
0000
0000
0110
0000
0000
0001
0010
0100
0000
1000
0000
1000
0002
0000
,  // measure 34
0000
0000
0000
0000
0000
1000
1000
1003
,  // measure 35
1001
0000
0010
0000
1000
0100
0010
0100
1000
0000
0001
0000
0100
0001
0010
0001
,  // measure 36
0100
0000
0010
0000
1000
0010
0100
0010
1000
0000
0001
0000
0010
0001
0100
0001
,  // measure 37
0010
0000
0001
0000
1000
0100
0010
0100
1000
0000
0001
0000
0100
0010
1000
0010
,  // measure 38
0100
0000
0001
0000
1000
0001
0010
0001
1000
0000
0001
0000
0100
0010
1000
0010
,  // measure 39
0100
0000
0010
0000
1000
0100
0010
0001
0100
0000
0001
1000
0001
0010
0100
1000
,  // measure 40
0001
0000
0100
0001
1000
0010
0100
0010
1000
0000
0100
0010
0100
1000
0001
0100
,  // measure 41
0010
0000
0100
0001
0010
0001
1000
0010
0100
0000
0010
1000
0001
0010
0001
1000
,  // measure 42
0100
0000
1000
0100
0010
0001
0100
0010
1000
0000
0001
0100
0010
1000
0001
0010
,  // measure 43
0002
0000
0103
0000
0001
0100
0001
0010
0002
0000
0103
0000
0001
0100
0001
0010
,  // measure 44
0002
0000
0103
0000
0001
0100
0001
0010
0002
0000
1003
0000
0001
1000
0100
0000
,  // measure 45
2000
0000
3100
0000
1000
0010
1000
0100
2000
0000
3001
0000
1000
0010
1000
0100
,  // measure 46
2000
0000
3001
0000
1000
0010
1000
0100
0010
0000
0100
0000
0110
0000
0001
0000
,  // measure 47
1002
0010
0100
0100
0010
0100
1000
0010
,  // measure 48
1000
0100
0010
0010
0100
0010
1000
0010
,  // measure 49
1003
0100
0001
0000
0001
0100
1000
0000
1000
0010
0001
0000
0001
0010
1000
0000
,  // measure 50
1000
0100
1000
0100
0001
0100
0001
0100
1000
0010
0001
0010
1000
0100
0001
0100
,  // measure 51
2000
0000
0000
0000
0200
0300
0020
0030
,  // measure 52
3002
0000
0020
0030
0200
0300
2000
3000
,  // measure 53
0203
0000
0020
0030
2000
3000
0002
0003
,  // measure 54
2300
0000
0200
0300
0020
0030
3001
0000
,  // measure 55
0220
0000
0030
0000
2000
3000
0020
0030
,  // measure 56
2300
0000
0200
0300
0020
0030
0002
3003
,  // measure 57
2002
0000
3000
0013
0220
0000
0030
0301
,  // measure 58
2200
0000
0000
0000
0300
0000
3010
0000
0202
0000
0303
0000
0210
1000
0301
1010
,  // measure 59
1001
0000
0100
0010
0001
0010
0100
1000
0001
0000
0100
0001
1000
0010
0100
0010
,  // measure 60
1000
0000
0010
0100
0001
0100
0010
1000
0100
0010
0000
0100
0000
0100
1000
0000
,  // measure 61
1100
0000
0010
1000
0001
0010
0001
1000
0010
0000
0100
0001
1000
0100
1000
0001
,  // measure 62
0010
0000
0001
0100
0010
1000
0100
0010
0001
0100
0000
0010
0000
0010
1000
0000
,  // measure 63
2001
0000
0010
0000
0100
0000
0010
0000
3001
1000
0000
1000
0001
0000
1000
0000
,  // measure 64
1002
0000
0010
0000
1000
0000
0100
0000
1003
0001
0000
0001
1000
0000
0001
0000
,  // measure 65
0210
0000
0310
1000
0100
0000
1000
0000
2001
0000
3100
0010
0001
0000
1000
0000
,  // measure 66
0210
0000
0310
0100
0001
0000
0100
0000
0120
0000
1030
0100
0010
0000
1001
0000
,  // measure 67
0110
0000
0010
1000
0100
1000
0010
1000
0001
0000
0100
0001
0010
0001
0100
0001
,  // measure 68
1000
0000
0001
0010
0100
1000
0100
0010
0001
0000
1000
0010
0100
0001
1000
0001
,  // measure 69
0010
0000
0001
0100
0010
1000
0100
0010
0100
0000
1000
0100
0010
0001
0100
0010
,  // measure 70
0100
0000
0001
0100
0010
1000
0001
0010
0001
0000
1000
0100
1000
0001
1000
0010
,  // measure 71
0210
0000
0001
0000
0010
0000
1000
0000
0301
1000
0000
1000
0100
0000
0010
0000
,  // measure 72
2100
0000
0010
0000
0001
0000
0100
0000
3010
0100
0000
0100
0001
0000
1000
0000
,  // measure 73
1002
0000
0013
0100
1000
0000
0001
0000
2001
0000
3010
0100
0001
0000
0100
0000
,  // measure 74
0210
0000
0301
1000
0020
0000
1030
0001
0010
0001
0100
1000
0100
0001
0010
1000
,  // measure 75
2002
0000
0000
0000
,  // measure 76
0000
0000
0000
0000
,  // measure 77
3003
0000
0000
0000
;
