#TITLE:彩;
#SUBTITLE:;
#ARTIST:己龍;
#TITLETRANSLIT:IRODORI;
#SUBTITLETRANSLIT:;
#ARTISTTRANSLIT:KIRYU;
#GENRE:;
#CREDIT:;
#MENUCOLOR:;
#METERTYPE:DDR;
#BANNER:IRODORI.png;
#BACKGROUND:IRODORI-bg.png;
#LYRICSPATH:;
#CDTITLE:;
#MUSIC:IRODORI.ogg;
#OFFSET:0.000;
#SAMPLESTART:51.583;
#SAMPLELENGTH:15.000;
#SELECTABLE:YES;
#LISTSORT:;
#BPMS:0.000=180.000;
#STOPS:;
#BGCHANGES:0.000=IRODORI.avi=1.000=0=0=0,
99999=-nosongbg-=1.000=0=0=0 // don't automatically add -songbackground-
;
#ATTACKS:;

//---------------dance-single - ----------------
#NOTES:
     dance-single:
     :
     Beginner:
     3:
     0.138,0.147,0.030,0.000,0.000:
0000
0000
0000
0000
,
0000
0000
0000
0000
,
0000
0000
0000
0000
,
0000
0000
0000
0000
,
0000
0000
0000
0000
,
0010
0000
0000
0000
,
0100
0000
0000
0000
,
0001
0000
0000
0000
,
1000
0000
0000
0000
,
1000
0000
1000
0000
,
1000
0000
0000
0000
,
0001
0000
0001
0000
,
0001
0000
0000
0000
,
0010
0000
0010
0000
,
0010
0000
0000
0000
,
0100
0000
0100
0000
,
0100
0000
0000
0000
,
1001
0000
0000
0000
,
0000
0000
0000
1000
,
1000
0000
0000
0000
,
0001
0000
0001
0000
,
0001
0000
0000
0000
,
0000
0000
0000
0000
,
1000
0000
0100
0000
,
0010
0000
0001
0000
,
1000
0000
0000
0000
,
1000
0000
0000
0000
,
0010
0000
0010
0000
,
0100
0000
0100
0000
,
0001
0000
0000
0000
,
1000
0000
0000
0000
,
0001
0000
0001
0000
,
0001
0000
0000
0000
,
1000
0000
1000
0000
,
1000
0000
0000
0000
,
0010
0000
0010
0000
,
0010
0000
0000
0000
,
0100
0000
0100
0000
,
0100
0000
0000
0000
,
1001
0000
0000
0000
,
0001
0000
0000
0000
,
0010
0000
0000
0000
,
0100
0000
1000
0000
,
0001
0000
0000
0000
,
1000
0000
0000
0000
,
0010
0000
0000
0000
,
0100
0000
0000
0000
,
0001
0000
1000
0000
,
0001
0000
0000
0000
,
1000
0000
0001
0000
,
1000
0000
0000
0000
,
0010
0000
0100
0000
,
0010
0000
0000
0000
,
0100
0000
0010
0000
,
0100
0000
0000
0000
,
1001
0000
0000
0000
,
0000
0000
0000
1000
,
1000
0000
0000
0000
,
0001
0000
0001
0000
,
0001
0000
0000
0000
,
0010
0000
0000
0000
,
0100
0000
0100
0000
,
0100
0000
0100
0000
,
0100
0000
0000
0000
,
1000
0000
0000
0000
,
0010
0000
0010
0000
,
0010
0000
0010
0000
,
0010
0000
0000
0000
,
0100
0000
0000
0000
,
0001
0000
0000
0000
,
1000
0000
0000
0000
,
0001
0000
1000
0000
,
0001
0000
0000
0000
,
1000
0000
0001
0000
,
1000
0000
0000
0000
;

//---------------dance-single - ----------------
#NOTES:
     dance-single:
     :
     Easy:
     6:
     0.284,0.333,0.129,0.109,0.000:
0000
0000
0000
0000
,
0000
0000
0000
0000
,
0000
0000
0000
0000
,
0000
0000
0000
0000
,
0000
0000
0000
0000
,
0010
0100
0010
0000
,
0100
0000
0100
0000
,
0001
1000
0001
0000
,
1000
0000
1000
0000
,
0001
0000
0010
0000
,
0100
0000
1000
0000
,
1000
0000
0010
0000
,
0100
0000
0001
0000
,
0001
0000
1000
0000
,
0100
0000
0010
0000
,
0100
0000
1001
0000
,
0010
0000
1001
0000
,
0110
0000
0000
0000
,
0001
0000
1000
0001
,
1001
0000
0000
0000
,
0010
0000
0100
0010
,
0110
0000
0000
0000
,
0000
0000
0000
0000
,
0010
0000
0001
0000
,
1000
1000
1000
0000
,
0010
0100
0000
0100
,
0000
0100
0000
0100
,
0100
0000
0010
0000
,
1000
0001
2000
3000
,
0002
0003
0020
0030
,
0200
0300
2000
3000
,
0001
1000
0001
1000
,
0010
0100
0010
0000
,
1000
0001
1000
0001
,
0100
0010
0100
0000
,
0001
0010
0001
0010
,
0100
1000
0100
0000
,
1000
0010
1000
0010
,
0100
0001
0100
0000
,
0001
0000
1000
0000
,
0001
0010
0001
0000
,
1000
0000
0001
0000
,
1000
0010
1000
0000
,
0001
0000
0010
0000
,
0100
1000
0100
0000
,
1000
0000
0010
0000
,
0100
0000
0001
1000
,
0001
0000
0010
0000
,
0001
1000
0001
0000
,
1000
0000
0010
0000
,
1000
0001
1000
0000
,
0001
0000
0100
0000
,
0010
1000
0001
0000
,
2000
3000
0002
0003
,
1000
0001
0100
0100
,
0010
0010
0010
0010
,
0010
0010
0010
0100
,
0001
0001
0001
0001
,
1000
0001
1000
0001
,
1000
0000
1000
0000
,
0100
0010
0220
0330
,
0010
0000
0001
0000
,
1000
0010
2000
0000
,
3001
0000
0000
0000
,
1000
0000
0001
0000
,
1000
0100
1000
0000
,
0001
0010
0200
0300
,
0010
0000
1001
0000
,
0100
0000
1001
0000
,
0001
0000
0110
0000
,
1000
0000
1001
0000
,
1000
0000
1000
1001
,
0001
0000
0010
0110
,
0100
0000
0100
0000
,
0010
0000
0000
1001
0000
0000
0000
0000
;

//---------------dance-single - ----------------
#NOTES:
     dance-single:
     :
     Medium:
     7:
     0.453,0.481,0.219,0.139,0.010:
0000
0000
0000
0000
,
0000
0000
0000
0000
,
0000
0000
0000
0000
,
0000
0000
0000
0000
,
0000
0000
0000
0000
,
0001
0000
1000
0000
0001
0000
0000
1000
,
0100
1000
0001
1000
,
0010
0000
0010
0100
0010
0000
0100
0000
,
0002
0000
2000
3003
,
0001
0010
0100
1000
,
0001
0000
0001
0200
0000
0000
0301
0000
,
1000
0100
0010
0001
,
1000
0000
0001
1000
0100
0000
1000
0000
,
0001
1000
0010
0100
,
0001
0010
0100
0010
,
1001
0000
0110
0000
,
1001
0110
2001
0000
,
3010
0000
0000
0000
,
1000
0000
0001
1001
,
0010
0000
0000
0000
,
0100
0010
0100
0110
,
1001
0000
0000
0000
,
0000
0000
0100
0100
,
0010
0000
0000
0010
0001
0000
0000
0001
,
1000
0001
0100
0010
,
0100
0100
0001
0001
,
1000
1000
0010
0010
,
1000
0000
0000
1000
0100
0000
0000
0100
,
0010
0001
2000
3001
,
2000
3100
0002
0103
,
2000
3010
0002
0013
,
1000
0000
0100
1000
0100
0000
1000
0000
,
0001
0000
0100
0001
0100
0000
0001
0000
,
0010
0000
0001
0010
0001
0000
1000
0000
,
0010
0000
1000
0010
1000
0000
0001
0000
,
1000
0000
0001
1000
0100
0000
1000
0000
,
0001
0000
1000
0001
0100
0000
0001
0000
,
1000
0000
0010
1000
0100
0000
0010
0001
,
0100
0010
0110
0000
,
0010
1000
0001
0100
,
0001
0000
0010
0001
0000
0001
1000
0000
,
0010
1000
0100
0010
,
0100
0000
1000
0001
0100
0000
0010
0000
,
1001
0010
0100
1000
,
0001
0000
0010
0000
0001
0000
1000
0010
,
0010
0000
0100
0000
0001
0000
1000
0001
,
0100
0110
0010
0100
,
1001
0010
0100
1000
,
0100
0000
1000
0010
0000
0010
1000
0000
,
0001
0100
0010
1000
,
0001
0000
0010
0100
1000
0000
0100
0000
,
1001
0010
0100
0001
,
1000
0010
0001
0010
,
2000
0000
0002
3003
,
1001
0010
0100
0100
,
0001
0010
1000
0010
,
0001
0100
1000
0110
,
1001
0100
0001
0100
,
1000
0010
0001
0010
,
1000
0001
0000
1000
0100
1000
0000
0001
,
0100
0001
0100
0000
0110
0000
0000
0000
,
0010
0010
0010
0000
1000
1000
1000
0000
,
0001
0001
0001
0000
0100
0000
0010
0000
,
1001
0000
0000
0000
,
0010
0000
0100
0000
,
1000
0100
0000
1000
0010
1000
0000
0001
,
0100
0001
1000
0000
0010
0000
0100
0000
,
1001
0000
0100
0010
0200
0000
1300
0000
,
0001
0000
0100
0010
0200
0000
0301
0000
,
1000
0000
0010
1000
0020
0000
1030
0000
,
0001
0000
0000
1000
0000
0000
0001
0000
0000
0000
0000
0000
0000
0000
0000
0000
,
1000
1100
0001
0101
,
1000
0000
0010
1000
0001
0000
1000
0000
,
0001
0010
0000
0001
1000
0100
0000
1000
,
0001
0000
0000
0100
0000
0000
0110
0000
0000
0000
0000
0000
0000
0000
0000
0000
;

//---------------dance-single - ----------------
#NOTES:
     dance-single:
     :
     Hard:
     11:
     0.628,0.628,0.447,0.278,0.119: // measure 1
0000
0000
0000
0000
,  // measure 2
0000
0000
0000
0000
,  // measure 3
0000
0000
0000
0000
,  // measure 4
0000
0000
0000
0000
,  // measure 5
0000
0000
0000
0000
,  // measure 6
0001
0100
0000
0001
0010
0001
0000
1000
,  // measure 7
0100
1000
1000
0000
0010
0100
0010
0100
,  // measure 8
0001
0000
0000
1000
0000
0000
0001
0000
0100
0000
0000
0000
1001
0000
0000
0000
,  // measure 9
0001
0010
0100
1000
0020
0000
1030
0000
,  // measure 10
0100
1100
0001
0011
,  // measure 11
0001
0000
0000
0001
0100
0000
0001
0000
2000
0000
0000
0000
3001
0000
0000
0000
,  // measure 12
1000
0010
0001
0010
,  // measure 13
1000
0000
0010
1000
0100
0000
1000
0100
,  // measure 14
0010
0011
0100
1100
,  // measure 15
0001
0000
1001
0000
0010
0000
0100
0001
,  // measure 16
1000
1100
0001
0011
,  // measure 17
1000
0100
0010
0001
1000
0000
0210
0000
,  // measure 18
0301
0000
0000
0000
,  // measure 19
1001
0000
0110
1002
,  // measure 20
0013
0000
0000
0000
,  // measure 21
1100
0011
1001
0210
,  // measure 22
0301
0000
0000
0000
,  // measure 23
0000
0000
0100
0100
,  // measure 24
0110
0000
0000
0010
1000
0000
0001
0000
0100
0000
0000
0100
0001
0000
1000
0000
,  // measure 25
0001
0000
0000
0001
0010
0000
0100
0000
1000
0000
0000
0000
1020
0000
0000
0000
,  // measure 26
1030
0100
0001
0100
,  // measure 27
1000
0010
0001
2010
,  // measure 28
3001
0000
1000
0001
0100
0000
0001
1000
,  // measure 29
0010
0110
1001
0020
,  // measure 30
2030
3100
0002
0103
,  // measure 31
2000
3010
0002
0013
,  // measure 32
1000
0000
0000
0100
1000
0000
0100
0000
0010
0000
0000
0001
0100
0000
0001
0000
,  // measure 33
0010
0000
0000
0001
1000
0000
0100
0000
1000
0000
0010
0000
0100
0000
0001
0000
,  // measure 34
1000
0000
0000
0010
1000
0000
0001
0000
0100
0000
0000
0001
0010
0000
0100
0000
,  // measure 35
1000
0000
0000
0100
0010
0000
0001
0000
1000
0000
0010
0000
0001
0000
0000
0000
,  // measure 36
1001
0000
0000
0010
0100
0000
0001
0000
1000
0000
0000
0001
0010
0000
0100
0000
,  // measure 37
1000
0000
0000
0010
1000
0000
0001
0000
1000
0000
0100
0000
0001
0000
0100
0000
,  // measure 38
1000
0000
0010
1000
0100
0000
0010
0001
,  // measure 39
1000
0210
0301
0000
,  // measure 40
1000
0000
1100
0000
1000
0100
0010
0000
,  // measure 41
0001
0000
0000
0001
0010
0000
0001
0000
0200
0000
0000
0000
0310
0000
0000
0000
,  // measure 42
1000
0010
0001
0010
,  // measure 43
1000
0000
0010
1000
0100
0000
1001
0000
,  // measure 44
0010
0000
1000
0010
0100
0000
0001
0010
,  // measure 45
0100
0000
0011
0000
0100
0000
1000
0010
,  // measure 46
0010
0000
0100
0000
1001
0000
0001
0010
,  // measure 47
0100
1000
1000
0000
0001
0100
1010
0000
,  // measure 48
0001
0010
0001
0010
0001
1000
0100
0000
,  // measure 49
1000
0000
0000
1000
0010
0000
1000
0000
0002
0000
0000
0000
0103
0000
0000
0000
,  // measure 50
0001
0010
1000
0010
,  // measure 51
0001
0000
0010
0001
0100
0000
1001
0000
,  // measure 52
1000
0100
1000
0100
1000
0010
1000
0001
,  // measure 53
0100
0110
0020
1030
,  // measure 54
2002
3003
0220
0330
,  // measure 55
0100
0000
1001
0000
0001
0010
0100
0000
,  // measure 56
1000
0100
0001
0100
1000
0100
0001
0100
,  // measure 57
1000
0100
0001
0100
1000
0000
2010
0000
,  // measure 58
3001
0010
1000
0010
0001
0010
1000
0010
,  // measure 59
0001
0011
1100
1001
,  // measure 60
1000
0000
0010
0000
0000
1000
0100
0000
1000
0000
0010
0000
0000
1000
0100
0000
,  // measure 61
1000
0010
0001
0100
1000
0000
0000
0000
,  // measure 62
0100
1000
0010
1000
0100
0001
0010
0001
,  // measure 63
0100
1000
0010
1000
0100
1000
0002
0000
,  // measure 64
1003
0000
0000
0000
,  // measure 65
0010
0000
0100
0100
,  // measure 66
0010
0001
0100
0001
0010
1000
0100
1000
,  // measure 67
0010
0100
0100
0000
1000
0001
0100
0001
,  // measure 68
1000
0000
0000
0100
1000
0000
0100
0000
0020
0000
0000
0000
0031
0000
0000
0000
,  // measure 69
0001
0000
0000
0100
0001
0000
0100
0000
0020
0000
0000
0000
1030
0000
0000
0000
,  // measure 70
1000
0000
0000
0100
1000
0000
0010
0000
2000
0000
0000
0000
3001
0000
0000
0000
,  // measure 71
0001
0000
0000
1001
0000
0000
0202
0000
0000
0000
0000
0000
0303
0000
0000
0000
,  // measure 72
0010
1010
0101
1100
,  // measure 73
0011
0000
0000
0001
0010
0000
0100
0000
2000
0000
0000
0000
3001
0000
0000
0000
,  // measure 74
1000
0100
0001
0100
1000
0010
0001
0010
,  // measure 75
1000
0000
0000
1001
0000
0000
0101
0000
0000
0000
0000
0000
0000
0000
0000
0000
;

//---------------dance-single - ----------------
#NOTES:
     dance-single:
     :
     Challenge:
     15:
     0.814,0.850,0.656,0.219,0.403: // measure 1
0000
0000
0000
0000
,  // measure 2
0000
0000
0000
0000
,  // measure 3
0000
0000
0000
0000
,  // measure 4
0000
0000
0000
0000
,  // measure 5
0000
0000
0000
0000
,  // measure 6
0001
0000
0010
0000
0000
0001
0100
0000
0001
0000
0010
0000
0000
0001
0100
0000
,  // measure 7
0010
1000
0001
1000
0100
0010
0100
1000
,  // measure 8
0010
0000
0100
0100
0100
0100
0010
0010
,  // measure 9
1000
0000
0000
0001
1000
0000
0000
1000
0001
0000
0000
1000
0001
0000
1000
0000
,  // measure 10
0001
0000
0101
0001
0010
0000
0100
1000
,  // measure 11
0010
0000
0000
0010
0100
0000
0001
0000
1000
0000
0000
0000
0001
0000
0010
0000
,  // measure 12
0100
0011
0100
1010
,  // measure 13
0110
0000
0001
1000
0100
0000
1000
0001
,  // measure 14
1010
0000
0000
0100
1000
0000
0100
0000
0010
0000
0000
0000
0001
0000
0100
0000
,  // measure 15
0010
0000
0000
0100
0001
0000
1000
0000
0001
0000
0010
0000
0010
0000
0010
0000
,  // measure 16
0100
1010
0100
0011
,  // measure 17
1001
0010
0100
1000
0200
0000
1300
0000
,  // measure 18
1001
0000
0010
1000
0010
0000
1000
0000
0001
0010
0000
0010
0001
0000
1000
0000
,  // measure 19
1001
0000
0010
0100
0001
0000
0101
0000
,  // measure 20
1100
0000
0010
0001
0010
0000
0001
0000
1000
0010
0000
0010
1000
0000
0010
0000
,  // measure 21
0100
0110
1000
1001
,  // measure 22
0020
0000
0000
0000
,  // measure 23
0100
0100
0130
0110
,  // measure 24
1010
0000
0000
0010
1000
0000
0001
0100
0001
0000
0000
0010
0001
0000
1000
0100
,  // measure 25
1000
0000
0000
0100
1000
0000
0010
0000
0100
0000
0000
0000
1001
0000
0000
0000
,  // measure 26
1000
1100
0001
0101
,  // measure 27
1000
0000
1010
0000
0001
0000
0011
0001
,  // measure 28
0010
0000
0001
1000
1100
0000
1000
0001
,  // measure 29
0100
1001
0120
1030
,  // measure 30
2100
3001
0012
1003
,  // measure 31
0210
0301
2100
3010
,  // measure 32
0100
0000
0000
0001
1000
0000
0001
0000
0010
0001
0000
0001
1000
0000
0001
0000
,  // measure 33
1000
0000
0000
0100
1000
0000
0001
0000
0100
0010
0000
0010
1000
0000
0010
0000
,  // measure 34
0100
0000
0000
0001
0010
0000
0100
0000
0010
0001
0000
0001
1000
0000
0001
0000
,  // measure 35
0010
0000
0000
0100
0010
0000
0001
0000
1000
0100
0000
0100
1000
0000
0001
0000
,  // measure 36
1001
0000
0000
0010
0100
0000
0010
0000
1000
0010
0000
0010
0100
0000
0010
0000
,  // measure 37
1000
0000
0000
0100
0010
0000
0001
0000
0100
0001
0000
0001
0010
0000
0001
0000
,  // measure 38
1000
0100
0001
0100
1000
0010
0001
0010
,  // measure 39
2000
3001
2001
3010
,  // measure 40
0100
0001
0010
0001
0100
0001
0010
0001
,  // measure 41
1000
0000
0000
1000
0100
0000
1000
0000
0001
0000
0100
0000
0010
0000
1000
0000
,  // measure 42
0100
1000
1010
0000
0100
0001
0011
0000
,  // measure 43
1001
0000
0000
0001
0100
0000
0010
0000
0100
0000
0001
0000
0011
0000
0000
0000
,  // measure 44
1001
1000
0010
1000
0100
1000
0010
1000
,  // measure 45
0100
0010
0010
0010
0001
0100
0010
0100
,  // measure 46
0100
0000
1001
0000
0100
0000
0011
0100
,  // measure 47
1000
0000
1010
0000
1010
0000
0000
0000
0001
1000
0100
1000
0001
0000
0000
0000
,  // measure 48
1100
0100
0001
0100
1000
0100
0001
0010
,  // measure 49
1000
0000
0000
1000
0001
0000
0100
0000
0020
0000
0000
0000
0130
0000
0001
0000
,  // measure 50
1000
0000
0011
0000
1000
0000
0101
0010
,  // measure 51
0100
0000
0000
0100
0010
0000
0100
0000
0001
1000
0100
1000
0001
0000
0000
0000
,  // measure 52
0101
0100
0001
0100
1000
0100
0001
0010
,  // measure 53
1000
0000
0000
0000
0011
0000
0000
0000
1000
0001
0100
0010
0100
0000
0010
1000
,  // measure 54
0002
0000
2000
3003
,  // measure 55
0110
0000
0000
0000
1001
0000
0000
0000
0100
0010
0100
0010
1000
0000
0000
0000
,  // measure 56
1010
0100
0001
0100
1000
0010
0001
0010
,  // measure 57
1000
0100
0001
0010
2000
0000
3001
0000
,  // measure 58
0011
0100
1000
0100
0001
0010
1000
0010
,  // measure 59
0001
0000
1000
0001
0100
0000
0001
1000
0010
0000
1000
0001
0010
0000
0001
1000
,  // measure 60
0100
0000
1000
0000
0100
1000
0100
0000
1000
0000
0010
0000
0100
0001
0100
0000
,  // measure 61
0001
0000
0010
0000
0100
1000
0100
1000
0002
0000
0000
0000
0000
0000
0000
0000
,  // measure 62
1003
0000
0100
0000
0010
0100
0010
0100
1000
0000
0010
0000
0100
0001
0100
0001
,  // measure 63
0010
0000
0100
1000
0001
0000
1000
0001
0100
0000
0001
1000
0020
0000
0000
0000
,  // measure 64
1030
0000
0001
0000
2000
0000
0000
3020
,  // measure 65
0000
0130
0001
1000
0001
0010
0100
0000
,  // measure 66
0010
0000
0001
0000
1000
0001
1000
0000
0010
0000
1000
0000
0001
1000
0001
0000
,  // measure 67
0100
0000
0000
0100
0010
0000
0000
0010
1000
0001
1000
0001
0100
0000
0010
0000
,  // measure 68
1001
0000
0000
0100
0001
0000
0100
0000
2010
0000
0000
0000
3010
0000
0000
0000
,  // measure 69
1100
0000
0000
0100
1000
0000
0100
0000
0012
0000
0000
0000
0013
0000
0000
0000
,  // measure 70
1001
0000
0000
0001
1000
0000
0001
0000
0210
0000
0000
0000
0310
0000
0000
0000
,  // measure 71
0101
0000
0000
1100
0000
0000
2001
0000
0020
0000
0000
0000
3030
0000
0000
0000
,  // measure 72
1100
0101
1010
0011
,  // measure 73
1001
0000
0000
0100
0010
0000
0100
0000
1001
0000
0000
0000
0110
0000
0000
0000
,  // measure 74
0010
0000
1000
0000
0001
0100
0001
0100
1000
0000
0100
0000
0001
0010
0001
0010
,  // measure 75
1000
0000
0000
0011
0000
0000
1100
0000
0000
0000
0000
0000
0000
0000
0000
0000
;
