#TITLE:INSECTICIDE;
#SUBTITLE:;
#ARTIST:Camellia;
#TITLETRANSLIT:;
#SUBTITLETRANSLIT:;
#ARTISTTRANSLIT:;
#GENRE:;
#CREDIT:;
#MENUCOLOR:;
#METERTYPE:DDR;
#BANNER:INSECTICIDE.png;
#BACKGROUND:INSECTICIDE-bg.png;
#LYRICSPATH:;
#CDTITLE:./CDTITLES/SOUND VOLTEX.PNG;
#MUSIC:INSECTICIDE.ogg;
#OFFSET:-1.206;
#SAMPLESTART:9.648;
#SAMPLELENGTH:15.000;
#SELECTABLE:YES;
#LISTSORT:;
#BPMS:0.000=99.500,16.000=199.000,223.000=99.500,230.500=199.000,359.000=99.500;
#STOPS:230.500=0.1507537688442211
;
#BGCHANGES:-2.000=INSECTICIDE.avi=1.000=1=0=0,
99999=-nosongbg-=1.000=0=0=0 // don't automatically add -songbackground-
;
#ATTACKS:;

//---------------dance-single - ----------------
#NOTES:
     dance-single:
     :
     Beginner:
     4:
     0.123,0.181,0.008,0.000,0.000: // measure 1
0000
0000
0000
0000
,  // measure 2
0000
0000
0000
0000
,  // measure 3
0000
0000
0000
0000
,  // measure 4
0000
0000
0000
0000
,  // measure 5
1000
0000
0000
0000
,  // measure 6
0001
0000
0000
0000
,  // measure 7
0100
0000
0000
0000
,  // measure 8
0010
0000
0000
0000
,  // measure 9
1000
0000
0000
0000
,  // measure 10
1000
0000
0000
0000
,  // measure 11
0001
0000
0000
0000
,  // measure 12
0001
0000
0000
0000
,  // measure 13
0100
0000
0000
0000
,  // measure 14
0100
0000
0000
0000
,  // measure 15
0010
0000
0000
0000
,  // measure 16
0010
0000
0000
0000
,  // measure 17
1000
0000
1000
0000
,  // measure 18
0001
0000
0001
0000
,  // measure 19
0010
0000
0000
0000
,  // measure 20
0100
0000
0000
0000
,  // measure 21
1000
0000
0000
0000
,  // measure 22
1000
0000
0000
0000
,  // measure 23
0001
0000
0000
0000
,  // measure 24
0001
0000
0000
0000
,  // measure 25
0100
0000
0000
0000
,  // measure 26
0100
0000
0000
0000
,  // measure 27
0010
0000
0000
0000
,  // measure 28
0010
0000
0000
0000
,  // measure 29
1000
0000
1000
0000
,  // measure 30
1000
0000
0000
0000
,  // measure 31
0001
0000
0001
0000
,  // measure 32
0001
0000
0000
0000
,  // measure 33
0100
0000
0100
0000
,  // measure 34
0100
0000
0000
0000
,  // measure 35
0010
0000
0010
0000
,  // measure 36
0010
0000
0000
0000
,  // measure 37
0000
1000
0000
1000
,  // measure 38
1000
0000
0000
0000
,  // measure 39
0000
0001
0000
0001
,  // measure 40
0001
0000
0000
0000
,  // measure 41
0000
0010
0000
0010
,  // measure 42
0010
0000
0000
0000
,  // measure 43
0000
0100
0000
0100
,  // measure 44
0100
0000
0000
0000
,  // measure 45
0010
0000
0000
0000
,  // measure 46
0010
0000
0000
0000
,  // measure 47
1000
0000
0000
0000
,  // measure 48
1000
0000
0000
0000
,  // measure 49
0001
0000
1000
0000
,  // measure 50
0000
0000
0001
0000
,  // measure 51
0000
0000
0100
0000
,  // measure 52
0000
0000
0010
0000
,  // measure 53
0000
0000
0100
0000
,  // measure 54
0000
0000
0001
0000
,  // measure 55
0000
0000
1000
0000
,  // measure 56
0000
0000
0001
0000
,  // measure 57
0000
0000
0000
0000
,  // measure 58
0000
0000
0000
1000
,  // measure 59
0000
0000
0000
0001
,  // measure 60
0000
0000
0000
0100
,  // measure 61
0000
0000
0000
0010
,  // measure 62
0000
0000
0000
1000
,  // measure 63
0000
1000
0000
0001
,  // measure 64
0000
0001
0000
0100
,  // measure 65
0000
0100
0000
0010
,  // measure 66
0000
0000
0000
0000
,  // measure 67
0100
0000
0100
0000
,  // measure 68
0100
0000
0000
0000
,  // measure 69
0001
0000
0001
0000
,  // measure 70
0001
0000
0000
0000
,  // measure 71
1000
0000
1000
0000
,  // measure 72
1000
0000
0000
0000
,  // measure 73
0010
0000
0010
0010
,  // measure 74
0000
0000
0000
1000
,  // measure 75
0000
0001
0000
1000
,  // measure 76
0000
0000
0000
0001
,  // measure 77
0000
1000
0000
0001
,  // measure 78
0000
0000
0000
0100
,  // measure 79
0000
0010
0000
0100
,  // measure 80
0000
0000
0000
1000
,  // measure 81
0000
1000
0000
1000
,  // measure 82
0000
1000
0000
0001
,  // measure 83
0000
0000
0000
0001
,  // measure 84
0000
0000
0000
1000
,  // measure 85
0000
0000
0000
1000
,  // measure 86
0000
0000
0000
0010
,  // measure 87
0000
0000
0000
0010
,  // measure 88
0000
0000
0000
0100
,  // measure 89
0000
0000
0000
0100
,  // measure 90
0000
0000
0000
1001
,  // measure 91
0000
0000
0000
0001
,  // measure 92
0000
0000
0000
0100
,  // measure 93
0000
0000
0000
0010
,  // measure 94
0000
0000
0000
0000
,  // measure 95
0000
0000
0000
0100
;

//---------------dance-single - ----------------
#NOTES:
     dance-single:
     :
     Easy:
     8:
     0.417,0.614,0.534,0.221,0.015: // measure 1
0000
0000
0000
0000
,  // measure 2
0000
0000
0000
0000
,  // measure 3
0000
0000
0000
0000
,  // measure 4
0000
0000
0000
0000
,  // measure 5
0110
0000
0000
0101
0000
0000
0000
0000
,  // measure 6
0110
0000
0000
1100
0000
0000
0000
0000
,  // measure 7
0110
0000
0000
0101
0000
0000
0000
0000
,  // measure 8
0110
0000
0000
2000
0000
0000
3001
0000
,  // measure 9
1100
0000
0000
0110
0000
0000
0000
0000
,  // measure 10
0101
0000
0000
0110
0000
0000
0000
0000
,  // measure 11
1010
0000
0000
0110
0000
0000
0000
0000
,  // measure 12
0200
0001
0001
0301
,  // measure 13
1000
0100
0010
0110
,  // measure 14
0001
0100
0010
0110
,  // measure 15
1000
0001
1000
0110
,  // measure 16
0001
0100
0020
0030
,  // measure 17
1000
1100
0001
0101
,  // measure 18
1000
1010
0001
0011
,  // measure 19
2002
0000
0000
3003
,  // measure 20
0010
0100
0100
0000
,  // measure 21
0001
0010
0100
1000
,  // measure 22
0100
0100
0020
0030
,  // measure 23
0001
0100
0010
1000
,  // measure 24
0001
0001
1000
1000
,  // measure 25
0001
0010
0100
1000
,  // measure 26
0100
0100
0020
0030
,  // measure 27
0001
0000
1001
0000
0000
0110
0000
0000
,  // measure 28
2001
0000
0000
3010
0000
0000
0001
0000
,  // measure 29
1000
0100
0010
0001
,  // measure 30
0010
0010
0200
0300
,  // measure 31
0000
0000
0110
0000
0000
1001
0000
0000
,  // measure 32
0110
0000
2002
3003
,  // measure 33
1000
0000
0000
2100
0000
0000
3001
0000
,  // measure 34
0001
0000
0000
0102
0000
0000
1003
0000
,  // measure 35
0010
0000
0220
0330
,  // measure 36
2002
0000
0000
3003
,  // measure 37
1000
0010
0000
0010
,  // measure 38
1000
0100
0010
0001
,  // measure 39
0100
0010
0000
0010
,  // measure 40
0100
0001
1000
0001
,  // measure 41
1000
0010
0000
0010
,  // measure 42
1000
0001
0100
0010
,  // measure 43
0100
0001
0000
0001
,  // measure 44
0120
0000
1030
0000
,  // measure 45
1100
0100
0010
0001
,  // measure 46
0001
0000
0000
0100
0000
0000
0001
0000
,  // measure 47
0010
0010
0010
0001
,  // measure 48
0001
0000
0000
0000
0000
1000
0000
0000
,  // measure 49
0010
0000
0100
0100
,  // measure 50
0100
0000
0010
0000
0010
0000
0000
1000
,  // measure 51
0000
0001
1000
1000
,  // measure 52
1000
0100
0010
0000
,  // measure 53
0001
0001
0000
0100
,  // measure 54
0100
0000
0010
0010
,  // measure 55
0000
1000
1000
0001
,  // measure 56
1000
0010
0100
1001
,  // measure 57
0000
0000
0000
0020
,  // measure 58
0000
0000
0000
0000
0000
0030
1000
0000
,  // measure 59
0000
1000
0000
0000
1000
0000
0001
0000
,  // measure 60
0100
0010
0000
0100
,  // measure 61
0000
0100
0000
0000
0100
0000
0010
0000
,  // measure 62
1000
0002
0003
1000
,  // measure 63
0100
1000
1100
0001
,  // measure 64
0100
0001
0101
0010
,  // measure 65
1000
0001
1001
0020
,  // measure 66
0000
0000
0130
1000
,  // measure 67
1000
0001
0001
1000
,  // measure 68
0100
0001
0100
1000
,  // measure 69
1000
0010
0010
0001
,  // measure 70
0001
0010
0010
1000
,  // measure 71
1000
0001
0001
1000
,  // measure 72
0100
0001
0010
1000
,  // measure 73
0000
0101
0000
0000
1100
0000
2100
0000
,  // measure 74
0000
3010
0000
0100
,  // measure 75
0001
1000
0001
0010
,  // measure 76
0010
0001
0001
0100
,  // measure 77
0001
1000
0010
1000
,  // measure 78
1000
0001
0001
0100
,  // measure 79
0110
0000
0000
0110
0000
0000
0010
0000
,  // measure 80
0000
1000
0000
0000
1001
0000
0100
0000
,  // measure 81
0000
0110
0000
1001
,  // measure 82
1001
2002
3003
0010
,  // measure 83
0010
0010
0010
0100
,  // measure 84
0100
0110
0110
0001
,  // measure 85
0001
0001
0001
1000
,  // measure 86
1000
1001
1001
1000
,  // measure 87
1100
1100
1100
1100
,  // measure 88
1100
1010
1010
0001
,  // measure 89
0101
0101
0101
0101
,  // measure 90
0101
0011
0011
1002
,  // measure 91
0000
0000
0000
0013
0000
0000
0000
0000
0000
0000
0000
0000
2001
0000
0000
0000
,  // measure 92
0000
0000
0000
3100
0000
0000
0000
0000
0000
0000
0000
0000
0120
0000
0000
0000
,  // measure 93
0000
0000
0000
1030
0000
0000
0000
0000
0000
0000
0000
0000
0210
0000
0000
0000
,  // measure 94
0000
0000
0000
0301
0000
0000
0000
0000
0000
0000
0020
0000
0000
0000
0000
0000
,  // measure 95
0000
0000
0000
0130
;

//---------------dance-single - ----------------
#NOTES:
     dance-single:
     :
     Hard:
     14:
     0.707,0.758,0.442,0.175,0.271: // measure 1
0000
0000
0000
0000
,  // measure 2
0000
0000
0000
0000
,  // measure 3
0000
0000
0000
0000
,  // measure 4
0000
0000
0000
0000
0010
0010
0010
0010
,  // measure 5
0110
0000
0000
0102
0000
0000
0013
0000
,  // measure 6
0110
0000
0000
2100
0000
0000
3010
0000
,  // measure 7
0110
0000
0000
0102
0000
0000
1003
0000
,  // measure 8
1100
0000
0002
1000
0000
0000
0013
0000
,  // measure 9
0110
0000
0000
2100
0000
0000
3010
0000
,  // measure 10
0110
0000
0000
0102
0000
0000
0013
0000
,  // measure 11
0110
0000
0000
0210
0000
0000
0310
0000
,  // measure 12
0002
0000
0000
0000
1000
0000
0000
0000
1000
0000
0000
0000
1003
0000
0000
0010
,  // measure 13
0100
0000
0000
0100
0001
0000
0000
0001
1000
0000
0000
1000
0001
0000
0010
0000
,  // measure 14
0001
0000
0000
0001
1000
0000
0000
1000
0100
0000
0000
0100
0010
0000
0100
0000
,  // measure 15
1000
0000
0000
1000
0010
0000
0000
0010
0100
0000
0000
0100
0001
0000
1000
0000
,  // measure 16
0001
0000
0000
0001
0010
0000
0100
0000
0010
0000
0000
0110
0000
0000
1001
0000
,  // measure 17
0010
1000
0100
1000
0010
0001
0100
0001
,  // measure 18
0010
0000
1000
0000
0100
0000
0001
0000
0100
0000
1000
0000
0010
0000
0100
0001
,  // measure 19
2000
0000
0000
0000
,  // measure 20
0001
0001
3001
0110
,  // measure 21
0001
0100
0010
1000
0001
0010
0100
0010
,  // measure 22
0000
0010
0001
0001
2000
0000
3001
0000
,  // measure 23
1000
0100
0010
0100
1000
0010
1000
0001
,  // measure 24
0000
0001
1000
1000
0010
0010
0100
0100
,  // measure 25
0010
1000
0100
1000
0010
0100
0001
0010
,  // measure 26
0000
0010
0001
0100
0010
0010
0200
0000
,  // measure 27
0301
1000
0001
0000
1000
1100
0000
0001
,  // measure 28
0011
0000
0100
0101
0000
0010
1001
0000
,  // measure 29
1000
0001
1000
1000
1000
0001
0001
0001
,  // measure 30
0000
0100
0010
0100
0001
0010
0100
0000
,  // measure 31
0010
0000
0000
0000
1001
0000
0000
0110
0000
0000
1001
0000
0000
0110
0000
0000
,  // measure 32
1100
0000
0000
0000
0000
0000
0000
0000
0000
0101
0000
0000
0000
0000
0000
0000
0000
0000
1100
0000
0000
0000
0000
0000
0001
0000
0000
0000
1000
0000
0000
0000
0001
0000
0000
0000
1000
0000
0000
0000
0000
0000
0000
0000
0000
0000
0000
0000
,  // measure 33
0101
0000
0010
1000
0000
0100
0011
0000
,  // measure 34
1100
0000
0010
0001
0000
0100
1010
0000
,  // measure 35
0110
0001
2000
0000
,  // measure 36
3001
0000
0000
0100
,  // measure 37
0110
0000
0010
0000
0000
0100
0010
0100
,  // measure 38
0001
1000
1000
1000
0001
1000
0001
0000
,  // measure 39
0100
0000
0010
0000
0000
0100
0001
0100
,  // measure 40
0001
0010
0010
0010
0001
1000
0100
0000
,  // measure 41
0010
0000
0001
0000
0000
1000
0100
0010
,  // measure 42
0100
1000
1000
1000
0001
1000
0001
0000
,  // measure 43
0100
0000
0010
0000
0000
0100
0010
0100
,  // measure 44
0001
0000
0110
0000
,  // measure 45
0001
1000
0001
1000
0001
0000
0100
0100
,  // measure 46
0000
0010
0100
0001
0100
0000
0110
0000
,  // measure 47
1000
0001
1000
0001
1000
0000
0100
0100
,  // measure 48
0010
0010
0000
0001
1000
0001
0100
0010
,  // measure 49
0100
0000
0000
0110
0000
0000
1001
0000
0010
0000
0100
0000
0010
0000
0100
0000
,  // measure 50
0010
0000
0100
0100
0000
0001
1000
0001
,  // measure 51
0010
0000
0011
0000
1000
0010
1000
0010
,  // measure 52
1000
0000
0001
0001
0100
0100
0000
0010
,  // measure 53
0010
1000
1000
0000
0001
0001
0010
0010
,  // measure 54
0100
0100
1000
0100
0010
0001
0100
0010
,  // measure 55
1000
0100
0001
0100
1000
0001
0100
0001
,  // measure 56
1000
0010
1000
0001
1000
0010
2002
0000
,  // measure 57
0000
0000
0000
0000
0000
0000
0000
0000
3003
0000
0000
0000
0100
0100
0100
0100
,  // measure 58
0100
0100
0100
0100
0100
0100
0100
0100
0100
0200
0000
0300
0010
0000
0000
0000
,  // measure 59
0000
0010
0000
0000
0010
0000
1000
0000
,  // measure 60
1100
0000
1000
0001
1000
0000
0001
0001
,  // measure 61
0001
1000
0000
0000
1001
0000
0010
0000
,  // measure 62
0100
0000
0000
0000
0002
0000
0000
0000
0103
0000
0000
0000
0001
0000
0010
0001
,  // measure 63
0010
0000
0100
0000
1000
0000
0010
0000
1000
0000
0000
0000
1000
0000
0010
1000
,  // measure 64
0010
0000
0100
0000
0001
0000
0010
0000
0001
0000
0000
0000
1000
0000
0001
1000
,  // measure 65
0001
1000
0001
0001
1000
1000
0020
0000
,  // measure 66
0100
0000
0130
0000
0110
0000
0001
0100
,  // measure 67
0001
1000
0001
0010
0000
0010
0001
1000
,  // measure 68
0100
0001
0100
1000
0010
1000
0010
0100
,  // measure 69
0001
0100
0010
1000
0010
0100
0001
0010
,  // measure 70
0100
1000
0100
0010
0001
1000
0100
1000
,  // measure 71
0100
0001
0100
0010
0000
0010
0001
0100
,  // measure 72
1000
0000
0100
0000
0001
0000
0010
0000
1000
0000
0010
0000
0001
1000
0001
1000
,  // measure 73
0001
0000
1000
0010
1000
0010
1000
0000
0001
0100
0001
0100
0001
0000
0000
0000
,  // measure 74
1000
0000
0000
0000
1000
0000
0000
0000
1000
0000
0000
1000
0001
0000
0000
0000
,  // measure 75
1000
0000
0000
1000
0100
0000
0010
0000
0100
0000
1000
0000
0010
0000
1000
0000
,  // measure 76
0001
0100
0010
0100
0001
0010
0100
0000
,  // measure 77
0010
0000
0000
0010
0001
0000
1000
0000
0100
0000
0001
0000
0100
0000
1000
0010
,  // measure 78
0100
0000
0001
0100
0010
0000
1000
0010
1000
0000
0001
1000
0001
0000
0000
0000
,  // measure 79
1001
0000
0000
0001
1000
0000
0001
0000
0100
0000
0010
0000
0100
0000
0000
0100
,  // measure 80
0010
0000
0100
0000
0000
0110
0000
0000
1001
0000
0000
0000
1100
0000
0000
0101
,  // measure 81
0000
0000
0000
0000
0000
0000
1010
0000
0000
0000
0000
0000
0101
0000
0000
0000
0000
0000
0000
0000
0000
1100
0000
0000
0000
0000
0000
0000
0000
0000
0011
0000
0000
0000
0000
0000
0001
0000
0000
0000
0010
0000
0000
0000
0001
0000
0000
0000
,  // measure 82
1000
0000
0010
0000
1000
0000
0002
0000
0000
0000
0000
0000
0000
0000
0000
0000
0000
0000
1003
0000
0000
0100
0000
0000
,  // measure 83
0100
0000
1000
0000
1000
0000
0010
1000
0010
0000
0000
0000
1000
0000
0001
0000
,  // measure 84
0001
0000
0100
0001
0100
0000
0000
0000
1100
0000
0000
0000
0001
0000
0010
0000
,  // measure 85
0010
0000
0001
0000
0001
0000
0100
0001
0100
0000
0000
0000
0010
0000
0100
0001
,  // measure 86
1000
0000
0001
1000
0010
0000
0000
0000
0110
0000
0000
0000
1000
0000
0010
1000
,  // measure 87
0010
0000
1000
0001
1000
0000
0100
1000
0100
0000
1000
0000
0100
0000
0010
0001
,  // measure 88
0010
0000
0001
0100
0001
0000
0000
0000
0110
0000
0000
0000
0001
0000
1000
0001
,  // measure 89
1000
0000
0010
0100
0010
0000
1000
0100
0010
0000
0001
0100
0010
0000
0100
0001
,  // measure 90
1000
0000
0010
1000
0001
0000
1000
0000
0001
0000
0000
0000
0210
0000
0000
0000
,  // measure 91
0000
0000
0000
0301
0000
0000
0000
0000
0000
0000
0000
0000
0120
0000
0000
0000
,  // measure 92
0000
0000
0000
1030
0000
0000
0000
0000
0000
0000
0000
0000
2001
0000
0000
0000
,  // measure 93
0000
0000
0000
3010
0000
0000
0000
0000
0000
0000
0000
0000
1002
0000
0000
0000
,  // measure 94
0000
0000
0000
0013
0000
0000
0000
0000
0000
0000
0200
0000
0000
0000
0000
0000
,  // measure 95
0000
0000
0000
0310
;

//---------------dance-single - ----------------
#NOTES:
     dance-single:
     :
     Medium:
     11:
     0.530,0.542,0.404,0.274,0.046: // measure 1
0000
0000
0000
0000
,  // measure 2
0000
0000
0000
0000
,  // measure 3
0000
0000
0000
0000
,  // measure 4
0000
0000
0000
0000
,  // measure 5
0110
0000
0000
0102
0000
0000
1003
0000
,  // measure 6
0110
0000
0000
2100
0000
0000
3001
0000
,  // measure 7
0110
0000
0000
0102
0000
0000
1003
0000
,  // measure 8
0100
0000
0010
0002
0000
0000
1003
0000
,  // measure 9
1100
0000
0000
0120
0000
0000
0031
0000
,  // measure 10
0101
0000
0000
0120
0000
0000
1030
0000
,  // measure 11
1100
0000
0000
2001
0000
0000
3010
0000
,  // measure 12
0200
0010
0010
0300
,  // measure 13
0100
0010
0100
0110
,  // measure 14
0001
1000
0001
1001
,  // measure 15
1000
0100
0010
0011
,  // measure 16
0001
0100
0220
0330
,  // measure 17
0010
1010
0100
0101
,  // measure 18
0001
0011
0100
1100
,  // measure 19
2002
0000
0000
0003
,  // measure 20
0010
0010
3010
0100
,  // measure 21
0010
0000
1000
0010
1000
0000
0001
0100
,  // measure 22
0000
0100
0001
1000
0002
0000
1003
0000
,  // measure 23
0100
0000
0010
0100
1000
0000
1000
0100
,  // measure 24
0000
0100
0010
0001
0100
0000
0100
0000
,  // measure 25
0010
0000
0100
0001
1000
0000
0010
1000
,  // measure 26
0000
1000
0001
0100
0002
0000
0013
0000
,  // measure 27
0100
0000
1100
0000
0000
0101
0000
0000
,  // measure 28
1010
0000
0000
0011
0000
0000
1001
0000
,  // measure 29
0010
1000
0010
1000
0010
0000
1000
1000
,  // measure 30
0000
0001
0001
0000
2000
0000
3001
0000
,  // measure 31
0100
0000
0110
0000
0000
1001
0000
0000
,  // measure 32
1000
0000
0000
0100
0000
0000
0010
0000
0002
0000
0000
0000
0003
0000
0000
0000
,  // measure 33
1001
0000
0000
0102
0000
0000
1003
0000
,  // measure 34
1001
0000
0000
2100
0000
0000
3001
0000
,  // measure 35
0110
0000
2001
0000
,  // measure 36
3010
0000
0100
0010
,  // measure 37
2000
0000
0001
0000
0000
3001
0100
0001
,  // measure 38
0010
0000
0010
0100
0010
0001
1000
0000
,  // measure 39
0002
0000
1000
0000
0000
1003
0010
0100
,  // measure 40
0010
0000
0010
0000
1000
0001
1000
0000
,  // measure 41
0200
0000
0010
0000
0000
0310
0001
1000
,  // measure 42
0010
0000
0010
0000
0100
0010
0100
0000
,  // measure 43
0020
0000
0100
0000
0000
0130
0001
1000
,  // measure 44
0010
0000
1001
0000
,  // measure 45
1000
0100
1000
0100
1000
0000
0001
0001
,  // measure 46
0000
1000
0000
0010
0000
0000
0100
0000
,  // measure 47
0001
0100
0001
0100
0001
0000
1000
1000
,  // measure 48
0001
0010
0000
0000
0010
0001
0100
0010
,  // measure 49
0100
0000
0000
0100
0000
0000
0100
0000
0001
0000
1000
0000
0001
0000
1000
0000
,  // measure 50
0001
0000
1000
1000
0000
0100
0000
0010
,  // measure 51
0000
0000
0001
0000
0100
0010
0100
0010
,  // measure 52
0100
0000
0010
1000
0001
1000
0000
0001
,  // measure 53
1000
0001
0010
0000
0001
1000
0001
0100
,  // measure 54
0010
0000
1000
0100
0000
0001
0100
0000
,  // measure 55
1000
0010
0000
0001
0010
0000
1000
0100
,  // measure 56
0010
0001
1000
0100
0010
0001
2000
0000
,  // measure 57
0000
0000
3000
0020
,  // measure 58
0000
0000
0000
0000
0000
0030
0100
0000
,  // measure 59
0000
0100
0000
0000
0100
0000
0001
0000
,  // measure 60
1000
0000
0220
0000
0330
0000
0010
0010
,  // measure 61
0010
0010
0000
0000
0110
0000
0001
0000
,  // measure 62
1000
0000
0020
0000
0030
0000
1000
0100
,  // measure 63
1000
0100
0001
0100
1000
0000
0001
0100
,  // measure 64
0001
0100
1000
0100
0001
0000
1000
0010
,  // measure 65
1000
0010
0001
0010
1000
0000
0010
0000
,  // measure 66
0100
0220
0330
0001
,  // measure 67
1000
0001
0110
0001
,  // measure 68
0010
0000
0100
0000
1000
0000
0100
1000
,  // measure 69
0100
0000
1000
0010
1000
0000
0100
1000
,  // measure 70
0100
0000
0010
0001
0010
0000
0001
0000
,  // measure 71
1000
0001
0110
1000
,  // measure 72
0100
0000
0010
0000
0001
0000
0010
0001
,  // measure 73
1000
0000
0001
1000
0000
0010
1000
0000
,  // measure 74
0001
0001
1000
0010
,  // measure 75
1010
0000
1000
0100
1000
0000
0010
0000
,  // measure 76
0100
0000
0001
0010
0001
0000
0010
0000
,  // measure 77
0011
0000
0001
0100
0001
0000
0100
0000
,  // measure 78
0010
0010
1000
0001
,  // measure 79
1001
0000
0000
0000
1000
0000
0000
0000
1001
0000
0000
0000
0010
0000
0000
0100
,  // measure 80
0000
0000
0100
0000
0000
0100
0000
0000
1001
0000
0000
0000
1000
0000
0000
0100
,  // measure 81
0000
0000
0000
0000
0000
0000
0001
0000
0000
0000
0000
0000
0100
0000
0000
0000
0000
0000
0000
0000
0000
1000
0000
0000
0000
0000
0000
0000
0000
0000
0010
0000
0000
0000
0000
0000
0100
0000
0000
0000
0000
0000
0000
0000
0010
0000
0000
0000
,  // measure 82
0100
0000
0100
0020
0000
0000
0000
0000
0000
1030
0000
0000
,  // measure 83
0100
1000
0100
0000
1000
0000
0010
0000
,  // measure 84
0100
0010
0100
0000
0110
0000
0001
0000
,  // measure 85
0100
0001
0100
0000
0010
0000
0100
0000
,  // measure 86
0001
0010
0001
0000
0011
0000
1000
0000
,  // measure 87
0100
1000
0010
0100
0001
0000
0010
0000
,  // measure 88
0001
0010
0100
0000
0110
0000
0010
0000
,  // measure 89
0001
1000
0010
0100
0001
0000
1000
0000
,  // measure 90
0001
0100
1000
0000
0110
0000
1002
0000
,  // measure 91
0000
0000
0000
0013
0000
0000
0000
0000
0000
0000
0000
0000
2001
0000
0000
0000
,  // measure 92
0000
0000
0000
3100
0000
0000
0000
0000
0000
0000
0000
0000
0120
0000
0000
0000
,  // measure 93
0000
0000
0000
1030
0000
0000
0000
0000
0000
0000
0000
0000
0210
0000
0000
0000
,  // measure 94
0000
0000
0000
0301
0000
0000
0000
0000
0000
0000
0020
0000
0000
0000
0000
0000
,  // measure 95
0000
0000
0000
0130
;

//---------------dance-single - ----------------
#NOTES:
     dance-single:
     :
     Challenge:
     18:
     1.000,1.000,0.602,0.358,1.000: // measure 1
0000
0000
0000
0000
,  // measure 2
0000
0000
0000
0000
,  // measure 3
0000
0000
0000
0000
,  // measure 4
0000
0000
0000
0000
0000
0000
0000
0000
0000
0000
0000
0000
0000
0000
0000
0000
0010
0000
1000
0100
1000
0000
0001
0000
0010
0000
0100
0000
1000
0000
0000
0000
,  // measure 5
1001
0000
0010
1000
0010
0000
0101
0000
0010
0000
1000
0000
2002
0000
3003
0000
,  // measure 6
1100
0000
0001
0010
0001
0000
1010
0000
0001
0000
0010
0000
0220
0000
0330
0000
,  // measure 7
1001
0000
0100
0001
0100
0000
1010
0000
0001
0000
1000
0000
2200
0000
3300
0000
,  // measure 8
0011
0000
1000
0100
0010
0000
0210
0000
0001
0000
1300
0000
0220
0000
0330
0000
,  // measure 9
1001
0000
0100
0010
1000
0000
1001
0000
0010
0000
0100
0000
2200
0000
3300
0000
,  // measure 10
1010
0000
1000
0010
0100
0000
0011
0000
0100
0000
1000
0000
2002
0000
3003
0000
,  // measure 11
0101
0000
0010
1000
0100
0000
0011
0000
1000
0000
0001
0000
0220
0000
0330
0000
,  // measure 12
2001
0000
0000
0000
0100
0000
0000
0000
0100
0000
0000
0000
3100
0000
0000
0010
,  // measure 13
0001
0000
1000
0000
0010
1000
0010
1000
0100
0000
0010
0100
1000
0000
0010
0100
,  // measure 14
0001
0000
1000
0000
0010
0100
0010
0100
0001
0000
1000
0001
0100
0000
0001
1000
,  // measure 15
0010
0000
1000
0000
0100
1000
0100
1000
0001
0000
0100
0001
1000
0000
0001
0100
,  // measure 16
0010
0000
0100
0001
1000
0000
0001
1000
0100
0000
0000
1100
0000
0000
0101
0000
,  // measure 17
1000
0010
1000
0010
0100
0001
0100
0000
0001
0010
0001
0010
0100
1000
0100
0000
,  // measure 18
1000
0001
1000
0001
0100
0010
0100
0000
0001
0010
0100
1000
0001
0010
0100
1000
,  // measure 19
0002
0000
0000
0000
,  // measure 20
1003
0000
0000
0000
0100
0000
1000
0000
0001
0000
0100
0001
0100
0000
0001
1000
,  // measure 21
0001
0000
0010
0001
0010
0001
0010
0000
0001
0000
1000
0100
1000
0000
0001
0000
,  // measure 22
0100
0010
0100
0010
0100
0010
0100
0001
0200
0000
0000
0000
0302
0000
0000
0000
,  // measure 23
1003
0000
0100
1000
0100
1000
0100
0000
0010
0000
0001
1000
0001
0000
1000
0000
,  // measure 24
0010
1000
0010
1000
0010
0000
0100
0001
0100
0000
0100
0000
0010
1000
0100
1000
,  // measure 25
0010
0000
1000
0001
1000
0001
1000
0000
0001
0000
0100
0010
0100
0000
0001
0000
,  // measure 26
1000
0000
0001
0010
0001
0010
0001
0000
1000
0000
0100
0000
0210
0000
0000
0000
,  // measure 27
0301
1000
0001
1000
0010
0000
1000
0001
1000
0001
0100
0000
0010
1000
0001
1000
,  // measure 28
0010
0000
1000
0100
0010
0100
1000
0000
0001
0010
0100
0010
0001
0000
1000
0000
,  // measure 29
0001
0000
0010
0001
1000
0001
0010
0000
0100
0000
1000
0001
0100
0000
0100
0000
,  // measure 30
0010
0000
1000
0100
0010
0100
1000
0000
0001
0000
0100
0001
0100
0010
0100
0000
,  // measure 31
0010
0000
1000
0001
0100
0000
0000
1001
0000
0000
1100
0000
0000
0101
0000
0000
,  // measure 32
1010
0000
0000
0000
0000
0000
0000
0000
0000
1001
0000
0000
0000
0000
0000
0000
0000
0000
0011
0000
0000
0000
0000
0000
0010
0000
0000
0000
0100
0000
0000
0000
0001
0000
0000
0000
1000
0000
0000
0000
0000
0000
0000
0000
0000
0000
0000
0000
,  // measure 33
1100
0000
0001
0010
0100
0010
0001
0000
0100
0000
0001
0000
1001
0000
0000
0000
,  // measure 34
0101
0000
1000
0010
0100
0010
1000
0000
0100
0000
0001
0000
1001
0000
0000
0000
,  // measure 35
0010
1000
0001
1000
0010
0000
0100
0000
0001
1000
0100
1000
0001
0000
1000
0000
,  // measure 36
1002
0000
0000
0000
0000
0000
0000
0000
1003
0010
0100
0010
1000
0000
0001
0010
,  // measure 37
0200
0000
0000
0000
0010
0000
0000
0000
0301
0000
1000
0100
1000
0000
0001
0000
,  // measure 38
1000
0010
0100
0010
1000
0000
0010
0100
0001
0000
0100
0000
2010
0000
0000
0000
,  // measure 39
3002
0000
0000
0000
0010
0000
0000
0000
0103
0000
0010
1000
0010
0000
1000
0000
,  // measure 40
0001
0000
0010
0100
1000
0000
0001
0100
0010
1000
0010
1000
0002
0000
0000
0000
,  // measure 41
2003
0000
0000
0000
0100
0000
0000
0000
3010
0000
1000
0001
1000
0000
0001
0000
,  // measure 42
0100
0010
0100
0010
1000
0000
0001
0010
0100
1000
0002
0000
2003
0000
3002
0000
,  // measure 43
0203
0000
0000
0000
0010
0000
0000
0000
1300
0000
0001
0010
0001
0000
1000
0000
,  // measure 44
2001
0000
0000
0000
3100
0000
0100
0000
0200
0000
0000
0000
0310
0001
1000
0001
,  // measure 45
0010
0000
0001
0010
0001
0000
1000
0010
1000
0000
0001
0000
0100
0000
0100
0000
,  // measure 46
0110
0000
1000
0001
1000
0000
0001
0000
0100
0000
0010
0000
1001
0000
0000
0000
,  // measure 47
1100
0000
1000
0100
1000
0000
0001
0010
0001
0000
1000
0001
1000
0000
0001
0000
,  // measure 48
0001
0000
0100
0000
0020
0000
0000
0000
1030
0000
0001
0010
0001
0000
1000
0010
,  // measure 49
0100
0000
0000
0110
0000
0000
1001
0000
1000
0000
0100
0010
0001
0000
0100
0010
,  // measure 50
1000
0000
0010
0000
0010
0000
0100
0000
0010
1000
0010
1000
0100
0000
0010
0001
,  // measure 51
0010
0001
1000
0000
0001
0000
0100
0000
0001
0000
0010
0001
0010
0000
0100
1000
,  // measure 52
0100
0000
0010
0000
0001
1000
0001
0000
0100
0001
0100
0000
0010
1000
0001
0000
,  // measure 53
1000
0100
1000
0000
0001
0010
0001
0000
0100
0001
1000
0000
0010
0000
0010
0000
,  // measure 54
0100
0000
0100
0010
1000
0000
0001
0000
0001
0000
1000
0100
0010
0000
0100
0000
,  // measure 55
0100
0000
1000
0010
0100
0000
0001
0000
0001
0000
0010
0001
0100
0001
0100
0001
,  // measure 56
1000
0010
1000
0010
0100
0001
1000
0001
0010
0100
1000
0001
2000
0000
0000
0000
,  // measure 57
0000
0000
0000
0000
0000
0000
0000
0000
0000
0000
0000
0000
0010
0100
0100
0100
,  // measure 58
0100
0100
0100
0100
0100
0100
0100
0100
0100
0100
0200
3300
1010
0000
0100
0000
,  // measure 59
0001
0000
1000
0100
1000
0000
0001
0000
0010
0000
0100
0010
0001
0000
0100
0010
,  // measure 60
1000
0000
0010
1000
0001
0000
0100
0000
0010
0000
1000
0000
1001
0000
1001
0000
,  // measure 61
1001
0000
0010
0000
0100
0000
0001
0010
0001
0000
1000
0001
0100
0000
0001
1000
,  // measure 62
0010
0000
1000
0100
0010
0000
0100
0000
1000
0000
0001
0000
0101
0000
0001
0100
,  // measure 63
0001
0000
0100
0001
0010
0000
0100
0000
2100
0000
3100
0010
0001
0000
0100
0001
,  // measure 64
0100
0000
0001
0010
0100
0000
0010
0000
0012
0000
1003
0010
0100
0010
0100
0010
,  // measure 65
1000
0001
1000
0001
1000
0100
1000
0100
0010
0001
0010
0001
2000
0000
0000
0000
,  // measure 66
0001
0000
0001
0000
3010
0000
0000
0000
1001
0000
0000
0000
0110
0000
0010
1000
,  // measure 67
0010
0000
0100
0001
1000
0000
0001
0000
0010
0000
0001
0100
0001
0000
1000
0100
,  // measure 68
1000
0000
0001
0010
0200
0000
0010
0000
0301
0000
1000
0010
0100
0000
0010
1000
,  // measure 69
0010
0000
0100
0001
0100
0000
0001
0000
1000
0000
0100
0010
0100
0000
1000
0100
,  // measure 70
0010
0000
0001
1000
0010
0000
0100
0000
0001
1000
0001
1000
0010
0000
1000
0100
,  // measure 71
1000
0000
0001
0010
0001
0000
1000
0000
0010
0000
0100
0001
1000
0000
0001
0010
,  // measure 72
0100
0000
1000
0100
0010
0000
0001
0010
0001
0000
1000
0010
0100
0010
0100
0010
,  // measure 73
1000
0000
0001
0010
0001
0010
0001
0000
1000
0010
1000
0010
1000
0000
0001
0000
,  // measure 74
0101
0000
1100
0000
0102
0000
1003
0010
,  // measure 75
1010
0000
0010
1000
0100
0000
0010
0000
0011
0000
0001
0010
0100
0000
1000
0010
,  // measure 76
0100
0000
0010
1000
0001
0000
1000
0001
0100
0000
0001
1000
0010
0000
0100
0001
,  // measure 77
0100
0000
0001
0010
0100
0000
0010
0100
1000
0000
0010
1000
0001
0000
0100
0001
,  // measure 78
0100
0000
0010
1000
0010
0000
1000
0100
0010
0000
0100
1000
0001
0000
0000
0000
,  // measure 79
1001
0000
0010
1000
0001
0000
0100
0001
0100
0000
0001
0010
0001
0000
1000
0100
,  // measure 80
0010
0000
0110
0000
0000
1100
0000
0000
0101
0000
0000
0000
1010
0000
0000
0011
,  // measure 81
0000
0000
0000
0000
0000
0000
1100
0000
0000
0000
0000
0000
0101
0000
0000
0000
0000
0000
0000
0000
0000
1100
0000
0000
0000
0000
0000
0000
0000
0000
1001
0000
0000
0000
0000
0000
0001
0000
0000
0000
0010
0000
0000
0000
1000
0000
0000
0000
,  // measure 82
0001
0000
0000
0000
0100
0000
0000
0000
1000
0000
0000
0000
0002
0000
0000
0000
0000
0000
0000
0000
0000
0000
0000
0000
0000
0000
0000
0000
0000
0000
0000
0000
0000
0000
0000
0000
1003
0000
0000
0100
0000
0000
1000
0000
0000
0100
0000
0000
,  // measure 83
1000
0100
0001
0100
1000
0100
1000
0100
1000
0100
0001
0100
1000
0010
1000
0010
,  // measure 84
1000
0010
0001
0010
1000
0000
0000
0000
1010
0000
0000
0000
0001
0010
0001
0010
,  // measure 85
0001
0010
1000
0010
0001
0010
0001
0010
0001
0010
1000
0010
0001
0100
0001
0100
,  // measure 86
0001
0100
1000
0100
0001
0000
0000
0000
1001
0000
0000
0000
0100
0001
0100
0001
,  // measure 87
0100
0001
0010
0001
0100
0001
0100
0001
0100
0001
0010
0001
0100
1000
0100
1000
,  // measure 88
0100
1000
0010
1000
0100
0000
0000
0000
1100
0000
0000
0000
0010
1000
0010
1000
,  // measure 89
0010
1000
0100
1000
0010
1000
0010
1000
0010
1000
0100
1000
0010
0001
0010
0001
,  // measure 90
0010
0001
0100
0001
0010
0000
0000
0000
0110
0000
0000
0000
1001
0010
0100
2000
,  // measure 91
0000
0000
0010
0000
0000
0000
3100
1000
0001
0000
0100
0000
0000
0000
0011
0000
0000
0000
0101
0000
0000
0000
0000
0000
1001
0000
0010
0000
0100
0000
0002
0000
,  // measure 92
0000
0000
0010
0000
0000
0000
1003
0100
0010
0000
0100
0000
1000
0000
0001
0100
0010
0000
0100
0000
0001
0000
0000
0000
0110
0000
0001
0000
0010
0000
2000
0000
,  // measure 93
0000
0000
0010
0000
0000
0000
3001
0010
0100
0000
0010
0000
0000
0000
1001
0000
0000
0000
0110
0000
0000
0000
0000
0000
0110
0000
1000
0000
0010
0000
0002
0000
,  // measure 94
0000
0000
0010
0000
0000
0000
1003
0010
0100
0000
0020
0000
0000
0000
1030
0100
0010
0000
0001
0000
2000
0000
0000
0000
0000
0000
0000
0000
0000
0000
0000
0000
,  // measure 95
0000
0000
0000
3001
;
