#TITLE:EMERALDAS;
#SUBTITLE:;
#ARTIST:BEMANI Sound Team "HuΣeR vs dj Hellix";
#TITLETRANSLIT:;
#SUBTITLETRANSLIT:;
#ARTISTTRANSLIT:HuΣeR vs dj Hellix;
#GENRE:;
#CREDIT:;
#MUSIC:EMERALDAS.ogg;
#BANNER:EMERALDAS.png;
#BACKGROUND:EMERALDAS-bg.png;
#CDTITLE:./CDTITLES/BEATMANIA IIDX.PNG;
#SAMPLESTART:36.818;
#SAMPLELENGTH:15.000;
#SELECTABLE:YES;
#OFFSET:0.000;
#BPMS:0.000=176.000
,140.000=88.000
,156.000=176.000
,292.000=88.000
;
#STOPS:;
#MENUCOLOR:;
#METERTYPE:DDR;
#LISTSORT:;
#BGCHANGES:0.000=EMERALDAS.avi=1.000=0=0=0=StretchNoLoop====,
99999.000=-nosongbg-=1.000=0=0=0=StretchNoLoop====
;
#FGCHANGES:;

//--------------- dance-single - t7r ----------------
#NOTES:
     dance-single:
     t7r:
     Beginner:
     4:
     0.14,0.23,0.026,0.096,0:
0000
0000
0000
0000
,
0000
0000
0000
0000
,
0000
0000
0000
0000
,
0000
0000
0000
0000
,
0000
0000
0000
0000
,
0000
0000
0000
0000
,
0000
0000
0000
0000
,
0000
0000
0000
0000
,
0000
0000
0000
0000
,
0010
0000
0000
0000
,
0010
0000
0000
0000
,
0100
0000
0000
0000
,
0100
0000
0000
0000
,
0001
0000
0000
0000
,
0001
0000
0000
0000
,
1000
0000
0000
0000
,
1000
0000
0000
0000
,
2002
0000
0000
0000
,
0000
0000
0000
3003
,
1000
0000
0000
0000
,
0001
0001
0001
0000
,
1000
0000
0000
0000
,
0010
0010
0010
0000
,
0100
0000
0000
0000
,
0010
0010
0010
0000
,
0000
0100
0000
0100
,
0000
0100
0100
0000
,
0000
0000
0001
0000
,
0000
0000
0001
0000
,
0000
0000
1000
0000
,
0000
0000
1000
0000
,
0000
0000
0010
0000
,
0000
0000
0010
0010
,
0010
0000
0100
0000
,
0100
0000
0100
0000
,
0010
0000
0000
0000
,
1000
0000
0000
0000
,
0001
0000
0000
0000
,
0010
0010
0010
0010
,
0010
0000
0000
0000
,
0100
0000
0000
0000
,
1000
0000
0000
0000
,
0010
0000
0000
0000
,
0100
0000
0000
0000
,
0001
0000
0000
0000
,
1000
1000
1000
0000
,
0001
0001
0001
0000
,
2000
0000
0000
0000
,
0000
0000
0000
3000
,
0002
0000
0000
0000
,
0000
0000
0000
0003
,
0200
0000
0000
0000
,
0000
0000
0000
0300
,
0020
0000
0000
0000
,
0000
0000
0000
0030
,
2002
0000
0000
0000
,
0000
0000
0000
3003
,
1000
0000
0000
0000
,
0001
0001
0001
0001
,
0001
0000
0000
0000
,
0010
0000
0000
0000
,
0100
0000
0000
0000
,
1000
1000
1000
1000
,
1000
0000
0000
0000
,
0010
0000
0000
0000
,
0100
0000
0100
0000
,
0001
0000
0001
0000
,
1000
0000
1000
0000
,
0010
0000
0010
0000
,
1000
0000
0100
0000
,
0010
0000
0001
0000
,
1001
0000
0000
0000
,
1000
1000
1000
1000
,
0001
0000
1000
0000
,
0010
0000
0200
0000
,
0300
0000
0000
0000
;

//--------------- dance-single - t7r ----------------
#NOTES:
     dance-single:
     t7r:
     Easy:
     10:
     0.497,0.59,0.516,0.42,0.057:
0000
0000
0000
0000
,
0000
0000
0000
0000
,
0000
0000
0000
0000
,
0000
0000
0000
0000
,
0000
0000
0000
0000
,
0000
0000
0000
0000
,
0000
0000
0000
0000
,
0000
0000
0000
0000
,
0000
0000
0000
0000
,
0100
0000
0100
0010
2000
0000
3000
0000
,
0100
0000
0100
0010
0002
0000
0003
0000
,
1000
0000
1000
0001
0200
0000
0300
0000
,
0001
0000
0001
1000
0020
0000
1030
0000
,
0001
0000
0100
0001
0100
0000
1010
0000
,
1000
0000
0100
1000
0100
0000
0011
0000
,
1000
0000
1000
0001
1000
0000
0001
0000
,
0100
0110
1001
0110
,
0020
0000
0000
0000
,
0200
0000
0000
0330
,
0002
0000
1003
0000
,
0001
0010
0011
0000
,
0002
0000
1003
0000
,
2000
3002
2003
3002
,
2003
0000
3100
0000
,
0010
0001
1001
0010
,
0100
0110
1001
0110
,
1010
0000
1010
0000
0001
1000
0001
0000
,
0001
0010
0000
1000
0000
0010
0000
0001
,
0000
0100
0000
1000
0000
0100
0000
0001
,
1000
0100
0000
0010
0000
1000
0000
0010
,
0002
0203
2300
3200
,
0301
0100
0000
0001
0000
0010
0000
1000
,
0000
0010
0000
0001
0000
0100
0000
0010
,
0100
0110
1001
0110
,
1010
0000
1010
0000
0001
1000
0001
0000
,
2000
0000
0000
0000
0000
3001
0010
0200
0000
0000
0000
0000
0310
0000
0000
0000
,
0002
0000
0000
0000
0000
1003
0010
0200
0000
0000
0000
0000
0310
0000
0000
0000
,
2000
0000
0000
0000
0000
3001
1000
0020
0000
0000
0000
0000
1030
0000
0000
0000
,
0001
0010
0000
0010
0001
0000
1000
0010
0000
0010
1000
0000
1001
0000
0000
0000
,
0101
0000
1010
0000
0001
0010
0100
2000
,
0000
0010
0100
3001
,
1100
0000
0011
0000
1000
0100
0010
0002
,
0000
0010
0100
1003
,
0110
0000
1001
0000
0010
0100
0001
2000
,
0000
0100
0001
3010
,
0100
0010
0100
1001
,
1010
0110
0022
0033
,
2000
0000
0000
3000
1000
0000
1000
0000
,
0002
0000
0000
1003
0010
0000
0010
0000
,
1000
0100
1000
0000
0001
0100
0001
0000
,
1000
0010
0100
0001
2000
0000
3100
0000
,
0001
0010
0100
0000
0010
0000
0011
0000
,
1000
0010
0100
0000
0010
0000
1010
0000
,
0100
1000
1000
0000
0100
0001
0001
0000
,
0100
1000
0001
0000
0010
0000
0110
0000
,
2001
0000
0000
0000
,
0002
0000
0000
3003
,
0100
1000
1000
1000
1000
0000
0000
0001
,
0001
0001
0001
0001
0001
0000
0001
0000
,
1000
1001
0110
1001
,
1010
0101
1100
0011
,
0010
1000
1000
1000
1000
0000
0000
0010
,
0001
0001
0001
1000
0001
0000
1001
0000
,
0010
0110
1001
1100
,
0012
1000
0100
1003
,
2010
3001
0100
1000
,
0012
0000
1003
0000
0100
0000
0010
0100
,
0002
0000
1003
0000
0100
2000
0010
3000
,
0002
0010
1000
0103
,
1000
0000
0000
0000
1001
0000
0000
0000
1100
0000
0000
2002
0000
3003
0000
0000
,
0011
1001
2010
3001
,
0100
0110
1001
0110
,
0100
0000
0100
0000
0010
0100
0001
0000
,
1000
0010
2000
0000
3001
0010
0002
0000
,
1003
0000
0010
0100
0002
0000
0000
0000
2000
0000
0000
0000
0000
0000
0000
0000
,
3003
0000
0000
0000
;

//--------------- dance-single - t7r ----------------
#NOTES:
     dance-single:
     t7r:
     Medium:
     12:
     0.638,0.754,0.437,0.437,0.17:
0000
0000
0000
0000
,
0000
0000
0000
0000
,
0000
0000
0000
0000
,
0000
0000
0000
0000
,
0000
0000
0000
0000
,
0000
0000
0000
0000
,
0000
0000
0000
0000
,
0000
0000
0000
0000
,
0000
0000
0000
0000
,
1001
0000
0001
0100
0010
0000
0100
0100
,
0001
0000
1000
0100
0010
0000
0100
0100
,
1000
0000
0010
1000
0001
0000
1000
1000
,
0001
0000
0010
0001
1000
0001
0100
0000
,
0010
1000
0010
1000
0001
0100
0001
0100
,
0001
0010
0001
0010
0100
1000
0001
0000
,
1000
0100
1000
0100
0010
0001
0010
0001
,
1000
1001
0110
1001
,
0020
0000
0000
0000
,
0200
0000
0330
0110
,
0100
0001
0001
0001
1000
0000
0001
1000
,
0001
0000
0000
0010
0000
0000
0010
0000
0001
0000
0000
1000
0000
0000
0001
0000
,
1000
0100
0100
0100
1000
0000
0001
0100
,
0002
0003
2002
3003
0200
0300
0220
0330
,
0010
1000
1000
1000
0001
0000
1000
0001
,
0100
0000
0000
0010
0000
0000
0100
0000
0001
0000
0000
1000
0000
0000
0001
0000
,
1000
1001
0110
1001
,
1010
0000
0101
0000
1000
0100
0010
0100
,
1000
0100
0010
0001
1000
1000
0010
0010
,
1000
0000
0000
0100
0000
0000
1000
0000
0001
0000
0100
0000
0001
0000
1000
0000
,
0100
0100
0010
0010
0001
1000
0010
0100
,
0020
0030
0220
0330
2000
3000
2002
3003
,
0001
0010
0100
1000
0001
0001
0010
0010
,
0001
0000
0000
1000
0000
0000
0001
0000
0100
0000
0000
0010
0000
0000
1000
0000
,
0001
1001
0110
1001
,
1010
0000
0101
0000
1000
0100
0010
0000
,
0002
0000
0103
0000
0010
1000
0010
0200
0000
0000
0001
0000
1000
0000
0301
0000
,
2000
0000
3100
0000
0010
0001
0010
0200
0000
0000
0010
0000
0001
0000
1300
0000
,
0020
0000
0130
0000
0001
0100
0001
2000
0000
0000
0100
0000
0010
0000
3001
0000
,
1000
0100
0000
0001
0100
0000
1000
0010
0000
0001
0010
0000
2001
0000
3010
0000
,
0100
0000
0110
0000
0010
1000
0010
0200
,
0000
0001
0010
1300
,
0010
0000
0110
0000
1000
0100
0010
0002
,
0000
0000
0010
0000
1000
0000
0103
0001
,
1000
0000
1100
0000
0001
0010
1000
0020
,
0000
0001
0100
1030
,
0100
1000
0100
1000
0001
0010
0001
0010
,
0001
1001
0220
0330
,
0200
0000
0000
0300
0100
0000
0100
0000
,
0001
0100
0001
0010
0002
0000
1003
0000
,
0001
0010
0100
1000
0001
0010
0100
1000
,
0001
0100
1000
0200
0000
0301
1000
0000
,
1000
0100
1000
0100
0001
0100
0001
0100
,
1000
0010
1000
0010
0001
0010
0110
0000
,
0100
0001
1000
0010
0100
1000
0100
0001
,
0100
0010
0010
2000
0010
0000
3100
0000
,
0210
0000
0000
0000
,
0020
0000
0330
0110
,
1000
0001
0001
0001
0010
0001
0001
1000
,
0001
0100
1000
0100
0001
0010
1000
0010
,
0001
0000
1000
0000
0001
0100
0000
0000
0001
0000
1000
0000
0001
0010
0000
0000
,
0001
0000
1000
0000
0001
0100
0000
0100
0010
0000
1000
0000
0001
1000
0001
0000
,
1000
0100
0100
0100
1000
0000
0001
0100
,
0010
0000
1000
0100
0000
1000
0100
0000
0010
0000
0001
0100
0000
0001
0100
0000
,
0010
0101
1100
0011
,
2010
0001
0100
3001
,
1000
0100
0010
0001
1000
0020
1000
0030
,
0002
0000
0103
0000
2000
0000
3100
0100
,
0020
0000
0130
1000
0010
2000
0001
3000
,
0200
0000
1300
0010
0001
0010
1000
0100
,
1000
0000
0000
0000
0011
0000
0000
0000
1001
0000
0000
0202
0000
0303
0000
0000
,
1010
1001
1020
1030
,
0200
0310
0110
1001
,
1000
0100
0000
0000
0001
0100
0000
0000
1000
0010
0000
0000
0001
0010
0000
0000
,
1000
0000
0100
0010
0002
0000
0000
0000
0103
0000
0010
1000
0002
0000
0000
0000
,
0013
0000
0100
1000
0020
0000
0000
0000
0200
0000
0000
0000
0000
0000
0000
0000
,
0330
0000
0000
0000
;

//--------------- dance-single - t7r ----------------
#NOTES:
     dance-single:
     t7r:
     Hard:
     17:
     0.881,1,0.42,0.498,0.787:
0000
0000
0000
0000
,
0000
0000
0000
0000
,
0000
0000
0000
0000
,
0000
0000
0000
0000
,
0000
0000
0000
0000
,
0000
0000
0000
0000
,
0000
0000
0000
0000
,
0000
0000
0000
0000
,
0000
0000
0000
0000
,
0001
0000
0100
0000
0001
0010
0001
0010
0001
0000
1000
0001
0100
0000
0001
0000
,
1000
0000
0100
0000
1000
0010
1000
0010
1000
0000
0001
1000
0100
0000
1000
0000
,
0001
0000
0010
0000
0001
0100
0001
0100
0001
0000
1000
0001
0010
0000
0001
0000
,
1000
0000
0100
0000
1000
0010
1000
0010
1000
0000
0001
1000
0001
0000
0000
0000
,
1000
0100
1000
0100
0010
0001
1000
0000
0001
0100
0001
0100
0010
1000
0001
0000
,
1000
0010
1000
0010
0100
0001
1000
0000
0001
0010
0100
1000
0001
0000
0000
0000
,
1000
0100
1000
0100
0010
0001
0010
0001
1000
0010
1000
0010
0100
0001
0100
0001
,
1000
0100
0010
0000
0001
0100
0010
0000
1000
0100
0010
0001
1000
0000
0000
0000
,
0210
0000
0000
0000
,
0002
0000
0000
0000
0000
0000
0000
0000
0303
0000
0100
0010
1000
0000
0000
0000
,
0001
0000
0010
0000
0001
0100
0001
0100
0001
0000
1000
0001
1000
0000
0001
1000
,
0100
0000
1000
0100
0000
0001
0100
0000
1000
0000
0001
0010
0000
1000
0010
0000
,
0001
0000
0100
0000
0001
0010
0001
0010
0001
0000
1000
0001
1000
0000
0001
0000
,
2000
3100
0002
0103
2000
3010
0002
0013
,
1000
0000
0010
0000
1000
0100
1000
0100
1000
0000
0001
1000
0001
0000
1000
0001
,
0010
0000
0001
0010
0000
1000
0010
0000
0001
0000
1000
0000
0100
0000
0001
0000
,
0100
0110
0001
1001
,
0001
0100
0010
0000
1000
0100
0010
0000
0001
0100
0010
1000
0001
0000
0000
0000
,
1000
0000
0010
0000
1000
0100
0010
0100
1000
0000
0001
0100
0001
0000
1000
0010
,
0100
0000
0010
1000
0000
0010
0001
0000
0010
0000
0100
0001
0000
0100
1000
0000
,
0100
0000
0001
0000
2000
0000
3200
0000
1300
0000
0001
0010
0000
1000
0010
0000
,
0002
0103
2000
3100
0002
0013
2000
3010
,
0001
0000
0100
0000
0001
0010
0100
0010
0001
0000
1000
0100
1000
0000
0001
0100
,
0010
0000
0100
0001
0000
0100
1000
0000
0100
0000
0010
1000
0000
0010
0100
0001
,
0010
0110
1000
1001
,
1000
0010
0100
0000
0001
0010
0100
0000
1000
0010
0100
0001
1000
0000
0000
0000
,
0001
0100
0020
0000
1030
0100
0010
0002
0000
0000
0103
0000
0010
1000
0100
0000
,
1000
0000
0010
0000
0200
0000
0000
0000
0301
0000
0010
0000
0100
0000
2000
0000
0000
0000
3100
0000
0001
0000
0100
0000
1000
0001
1000
0000
0010
0000
0000
0000
,
1000
0001
0200
0000
0301
1000
0010
0200
0000
0301
0010
0100
1000
0010
0100
0000
,
0001
0010
1000
0001
0100
1000
0001
0010
1000
0001
0100
0010
0001
0000
1001
0000
,
1100
0000
2001
0000
3010
1000
0100
2000
,
0010
0000
0001
0001
0000
0100
3100
1000
,
0010
0000
1002
0000
0103
0001
0010
0002
,
0100
0000
1000
1000
0000
0010
0013
0001
,
0100
0000
0120
0000
0130
0001
0010
0200
,
1000
0000
0001
0001
0000
0310
0100
0010
,
0001
0000
0000
0000
1000
0100
0010
0000
0001
0100
0010
0000
1000
0000
0000
0000
,
0001
0010
0100
0000
1000
0010
0100
0000
0002
0000
0000
0000
1003
0000
0000
0000
,
2010
0000
0010
0010
,
3010
0000
1000
0100
1000
0000
0001
0000
0020
0000
0000
0000
0000
0000
0031
1000
,
0001
0100
1000
0100
0001
0010
1000
0010
,
0001
0100
0010
1000
0001
0000
1001
0000
,
1000
0100
1000
0100
1000
0100
1000
0000
0001
0100
0001
0100
0001
0100
0001
0000
,
1000
0010
1000
0010
0100
0001
1000
0000
0001
0010
0100
1000
0001
0000
0000
0000
,
1000
0100
1000
0100
1000
0100
1000
0100
0010
0001
0010
0001
0010
0001
0010
0001
,
1000
0010
0100
0000
0001
0010
0100
0000
1000
0010
0100
0001
1000
0000
0000
0000
,
0002
0000
0000
0000
,
2000
0000
0000
0000
0000
0000
0000
0000
3003
0000
1000
0001
0010
0000
0000
0000
,
0001
0010
0001
0010
0100
0010
0100
0010
0001
0000
1000
0000
1001
0000
0001
1000
,
0001
0010
0001
0010
0001
0010
0001
0010
0100
1000
0100
1000
0100
1000
0100
1000
,
0010
0000
0100
0010
0100
0100
0001
0100
0100
1000
0100
0100
,
0010
0000
0000
0000
0100
0000
0000
0000
0100
0000
0000
0000
0001
0000
0000
0000
0100
0000
0000
0000
0100
0000
0000
0000
1000
0000
0000
0000
0100
0000
0000
0000
0100
0000
0000
0000
0001
0000
0000
0010
0000
0000
0100
0000
0000
1000
0000
0000
,
0001
0000
0010
0000
0001
0100
0001
0100
0001
0000
1000
0100
1000
0000
0001
0010
,
0001
0000
1000
0100
0000
0001
0100
0000
1000
0000
0001
0000
0100
0000
1000
0000
,
0100
0110
0010
1010
,
0010
1000
0100
0000
0010
0001
0100
0000
0010
1000
0100
0010
0001
0000
0000
0000
,
2100
0000
0000
0000
3001
0000
1000
0100
1000
0000
0002
0010
0000
0000
0003
0000
,
1002
0000
0103
0001
0021
0000
0130
1000
,
2100
0000
0000
0000
3001
0000
0100
0001
0100
0000
0020
0100
0000
0000
0000
0000
,
2030
0000
0000
0000
3001
0000
1000
0010
1000
0010
0100
0010
0100
0010
0100
0001
,
1000
0000
0000
0000
0101
0000
0000
0000
1100
0000
0000
2002
0000
0000
3003
0000
,
0110
0101
2010
3001
,
0110
0000
1000
0100
0001
1000
0100
0001
,
1000
0100
0010
0000
0001
0100
0010
0000
1000
0100
0010
0001
1000
0000
0001
0000
,
2000
0000
3010
0100
0001
0000
1000
1000
0002
0000
0013
0100
1000
0000
0001
0001
,
0200
0000
0310
0100
0001
0000
1000
1000
0002
0000
0000
0000
0000
0000
0000
0000
,
0003
0000
0000
0000
;

//--------------- dance-single - t7r ----------------
#NOTES:
     dance-single:
     t7r:
     Challenge:
     19:
     0,0,0,0,0:
0000
0000
0000
0000
,
0000
0000
0000
0000
,
0000
0000
0000
0000
,
0000
0000
0000
0000
,
0000
0000
0000
0000
,
0000
0000
0000
0000
,
0000
0000
0000
0000
,
0000
0000
0000
0000
,
0000
0000
0000
0000
,
1000
0000
0100
0000
0001
0100
1000
0100
0001
0000
0100
0010
0110
0000
1001
0000
,
0001
0000
0100
0000
1000
0100
0001
0100
1000
0000
0100
0010
0110
0000
1001
0000
,
1000
0000
0010
0000
0001
0010
1000
0010
0001
0000
0010
0100
0110
0000
1001
0000
,
0001
0000
0010
0000
1000
0010
0001
0010
0100
0010
0001
1000
1001
0000
0000
0000
,
1000
0100
1000
0100
0001
0100
0001
0100
1000
0010
1000
0010
0001
0010
0001
0010
,
1000
0100
0001
0100
0010
0001
1000
0010
0100
0001
1000
0001
1001
0000
0000
0000
,
0001
0100
0001
0100
1000
0100
1000
0100
0001
0010
0001
0010
1000
0010
1000
0010
,
0001
0100
0100
1000
0001
0100
0100
0010
0001
0100
1000
0100
0001
0000
0000
0000
,
0210
0010
0010
0010
0301
1000
1000
0001
,
2000
0000
0001
0000
0001
0000
0001
0000
3010
0000
0100
0010
1001
0000
0000
0000
,
1100
0000
0101
0000
1000
0100
0010
0100
1000
0000
0100
0001
0000
0100
1000
0100
,
0010
0000
0001
0100
0000
1000
0100
0010
1000
0000
0001
0010
0000
1000
0010
0100
,
1100
0000
0011
0000
1000
0010
0001
0010
1000
0000
0010
0100
0001
0000
1000
0100
,
2200
3300
MMMM
0000
0202
0303
MMMM
0000
2020
3030
MMMM
0000
0022
0033
MMMM
0000
,
0101
0000
1100
0000
0001
0010
1000
0010
0001
0000
0100
1000
0100
0000
0010
0100
,
0001
0000
1000
0010
0000
0001
0010
0100
0001
0000
1000
0100
0000
0001
0100
0010
,
0002
0000
0000
0003
1001
0000
1010
0000
0110
0000
0101
0000
0011
0000
1001
0000
,
0001
0100
0100
1000
0001
0100
0100
0010
0001
0100
1000
0100
0001
0000
0000
0000
,
0110
0000
1001
0000
0001
0100
0010
0001
0010
0000
1000
0100
0001
0000
1000
0100
,
0001
0000
1000
0100
0000
0100
0010
0000
0011
0000
0001
0000
1001
0000
1000
0000
,
1100
0000
0100
0000
2000
0000
3020
0000
0031
0000
0010
0100
0001
0000
1000
0000
,
2002
3003
MMMM
0000
2200
3300
MMMM
0000
0022
0033
MMMM
0000
0220
0330
MMMM
0000
,
1001
0000
0110
0000
1000
0100
0010
1000
0010
0000
0001
0100
1000
0000
0001
0100
,
1000
0000
0100
0001
0000
0100
1000
0100
0010
0000
1000
0010
0000
0001
0010
0100
,
0002
0000
0000
0003
1010
0000
0110
0000
0101
0000
0011
0000
1001
0000
0110
0000
,
1000
0100
0100
0001
1000
0100
0100
0010
1000
0100
0001
0100
1000
0000
0000
0000
,
1001
0010
2010
0000
3001
0010
0110
0012
0000
1003
0100
0001
0101
0110
0011
0001
,
1001
0000
0010
0000
0120
0000
0000
0000
0130
0000
0001
0000
0101
0000
0110
0000
1000
0000
0100
0000
0001
0000
0100
0000
1000
0010
0001
0010
1000
0000
0001
0000
,
1001
0100
0102
0000
1003
0001
1001
1200
0000
0310
1010
0011
0110
0010
0001
0100
,
0101
0000
0101
0000
1000
0000
0011
0000
0011
0000
0000
0000
1010
0000
1010
0000
0001
0000
1100
0000
1100
0000
0001
0000
1000
0100
0010
0001
1000
0000
0000
0000
,
0110
0100
0101
0001
1001
0010
1100
0010
,
1002
0000
0010
0010
0100
1000
1000
0100
,
0013
0010
0011
0001
0101
0010
1001
0100
,
2000
0000
0010
0010
0000
0001
3001
0010
,
0110
0100
0101
0001
1001
0100
0110
0001
,
0120
0000
1000
1000
0000
0100
0130
0010
,
0100
0000
0000
0000
0001
0100
0100
1000
0001
0100
0100
0010
1000
0000
0001
0000
,
1000
0100
0100
0001
1000
0100
0100
0010
1010
0000
0000
0000
0011
0000
0000
0000
,
1002
0000
0000
0003
0001
0000
0001
0000
,
2000
0000
3001
0010
0100
0000
0010
0000
2002
0000
0000
0000
3003
0000
0010
1000
,
0010
0000
1000
0100
0001
0000
0001
0100
1000
0000
1000
0010
0001
0000
0001
0010
,
0110
0000
0001
0000
0010
0000
1000
0000
0010
0100
1000
0001
1001
0000
0000
0000
,
1000
0100
1000
0100
0001
0100
0001
0100
1000
0010
1000
0010
0001
0010
0001
0010
,
1000
0100
0100
0001
1000
0100
0100
0010
1000
0100
0001
0100
1100
0000
0000
0000
,
0001
0100
0001
0100
1000
0100
1000
0100
0001
0010
0001
0010
1000
0010
1000
0010
,
0001
0100
0100
1000
0001
0100
0100
0010
0001
0010
1000
0010
0001
1000
0001
1000
,
2001
0000
0000
0010
0000
0000
0001
0000
0000
0010
0000
0000
0100
0000
0000
0010
,
0000
0000
0001
0000
0000
0100
0000
0000
3001
0000
0100
0010
1001
0000
0000
0000
,
0101
0000
1100
0000
0001
0100
0100
1000
0100
0000
0110
0000
1001
0000
1000
0100
,
0100
0001
1000
0100
0100
0010
1000
0100
0100
0001
1000
0100
0100
0010
0100
0000
,
1002
0000
0103
0011
0100
0100
1010
0100
0100
0011
0100
0100
,
1001
0000
0000
0000
0010
0000
0000
0000
0100
0000
0000
0000
1001
0000
0000
0000
0100
0000
0000
0000
0010
0000
0000
0000
0110
0000
0000
0000
0001
0000
0000
0000
1000
0000
0000
0000
1001
0000
0000
0010
0000
0000
0100
0000
0000
1000
0000
0000
,
1010
0000
0011
0000
1000
0100
0100
0001
0100
0000
0110
0000
1001
0000
0001
0100
,
0001
0000
0100
0010
0000
0001
0010
0100
1000
0000
0100
0001
0000
1000
0100
0010
,
0012
0000
0000
0003
1001
0000
0101
0000
0110
0000
1010
0000
1100
0000
1001
0000
,
1000
0100
0100
0010
1000
0100
0100
0001
1000
0100
0001
0100
1000
0000
0000
0000
,
2010
0000
0001
0000
3100
0000
0001
0010
0001
0000
0201
0000
1000
0000
0310
0000
,
0120
1000
0001
0130
2100
3010
1100
0110
,
0012
0000
1000
0000
0103
0000
1000
0010
0100
0000
0120
0000
1000
0000
0031
0000
,
2100
0000
3001
0000
1000
0010
1000
0010
0001
0010
0001
0010
1000
0100
0001
0100
,
1000
0000
0100
0010
0012
0000
0103
0010
1010
0000
0100
0102
0000
0000
1003
0000
,
1100
0000
0010
0100
2100
0000
3010
0000
0102
0000
0013
0000
1000
0000
0001
1000
,
2100
3010
1001
1100
0110
0011
1001
0110
,
0001
0100
0100
1000
0001
0010
0010
0100
0010
0001
0100
1000
0110
0000
0000
0000
,
1000
0100
0001
0010
1000
0100
0110
0011
0001
0100
1000
0010
0001
0100
0110
1010
,
2100
0001
0010
0100
0001
0010
0001
0001
0020
0000
0000
0000
0000
0000
0000
0000
,
3030
0000
0000
0000
;

//--------------- dance-double - t7r ----------------
#NOTES:
     dance-double:
     t7r:
     Easy:
     10:
     0.533,0.623,0.498,0.437,0.066:
00000000
00000000
00000000
00000000
,
00000000
00000000
00000000
00000000
,
00000000
00000000
00000000
00000000
,
00000000
00000000
00000000
00000000
,
00000000
00000000
00000000
00000000
,
00000000
00000000
00000000
00000000
,
00000000
00000000
00000000
00000000
,
00000000
00000000
00000000
00000000
,
00000000
00000000
00000000
00000000
,
00011000
00000000
00100000
00001000
00100000
00000000
00100000
00000000
,
01000000
00000000
00100000
01000000
10000000
00000000
10000000
00000000
,
00100000
00000000
01000000
00001000
00010000
00000000
00010000
00000000
,
00000100
00000000
00001000
00000010
00000100
00000000
00001001
00000000
,
00000001
00000010
00000001
00000000
00001000
00000001
00001000
00000000
,
00000010
00010000
00001000
00000000
00100000
00001000
00010000
00000000
,
00001000
01000000
00100000
00000000
01000000
00000000
00010000
00000000
,
10000000
10010000
01100000
01001000
,
00202000
00000000
00000000
00300000
,
00020000
00000000
00033000
00011000
,
00001100
00000000
00000010
00000100
00001000
00000000
00000000
00000000
,
00000100
00000000
00000000
00000100
00000000
00000000
00000100
00000000
00000010
00000000
00000000
00000000
00000001
00000000
00000000
00000000
,
00001000
00000000
00000010
00010000
00001000
00000000
00000000
00000000
,
00200000
00302000
02003000
03200000
,
10300000
00000000
00010000
01000000
00010000
00000000
00000000
00000000
,
00100000
00000000
00000000
00100000
00000000
00000000
00100000
00000000
00001000
00000000
00000000
00000000
00010000
00000000
00000000
00000000
,
00001000
00011000
00010000
00010100
,
00001010
00001010
00000110
00001001
,
00000011
00000000
00000001
00000010
00000100
00000000
00001000
00000100
,
00010000
00000000
00000000
00001000
00000000
00000000
00100000
00000000
00010000
00000000
00000000
00000000
01000000
00000000
00000000
00000000
,
00100000
00000000
10000000
00010000
01000000
00000000
00010000
00100000
,
00002000
00003200
00000320
00002030
,
00003100
00000000
00000010
00000001
00001000
00000000
00000100
00010000
,
00001000
00000000
00000000
00010000
00000000
00000000
01000000
00000000
00100000
00000000
00000000
00000000
00010000
00000000
00000000
00000000
,
10000000
10010000
00100000
01100000
,
01010000
00101000
00011000
00010100
,
00000020
00000000
00000000
00000000
00000130
00000000
00000001
00002000
00000000
00000000
00000100
00000000
00003010
00000000
00000000
00000000
,
00000002
00000000
00000000
00000000
00000013
00000000
00000100
00020000
00000000
00000000
00001000
00000000
00130000
00000000
10010000
00000000
,
00200000
00000000
00000000
00000000
00310000
00000000
10000000
00020000
00000000
00000000
01000000
00000000
00031000
00000000
00100000
00000000
,
00001000
00001000
00000000
00010000
00010000
00000000
00001000
00001000
00000000
01000000
01000000
00000000
00011000
00000000
00000000
00000000
,
00000010
00000000
00000110
00000000
00000001
00000010
00000001
00000200
,
00000010
00000010
00001000
00001300
,
00000001
00000000
00000010
00000000
00000100
00010000
00001000
00200000
,
00001000
00001000
01000000
01300000
,
00010000
00000000
01000000
00000000
00100000
10000000
01000000
20000000
,
00010000
00010000
01000000
31000000
,
00100000
01000000
01100000
01001000
,
00101000
00011000
00020020
00030030
,
00000020
00000000
00000000
00000030
00000100
00000000
00000100
00000000
,
00000002
00000000
00001003
00000001
00000200
00000000
00000300
00000000
,
00000001
00000000
00000001
00000010
00000100
00000000
00000100
00010000
,
00001000
00000000
00100000
00010000
02000000
00000000
03100000
00000000
,
10000000
00000000
10000000
00100000
10000000
00000000
10000000
00000000
,
00010000
00000000
00010000
01000000
00010000
00000000
00010000
00000000
,
00100000
00000000
00100000
00001000
00010000
00000000
00010000
00000000
,
00001000
00010000
00000100
00000020
00000000
00000000
00000030
00000000
,
00002002
00000000
00000000
00000003
,
00000020
00000000
00003030
00010010
,
00011000
00000000
00001000
00010000
00001000
00000000
00000000
00100000
,
00010000
00010000
00010000
00010000
01000000
00001000
00001000
00001000
,
00010000
00011000
00000100
00010100
,
00000010
00000110
00000001
00001001
,
00000110
00000000
00000010
00001000
00000100
00000000
00010000
00001000
,
01000000
00000000
00000000
01000000
00000000
00000000
01000000
00000000
00100000
00000000
00000000
00000000
01000000
00000000
00010000
00000000
,
10000000
10010000
00100000
01100000
,
01010000
00101000
00011000
00010100
,
00000120
00000000
00000000
00000000
00000031
00000000
00001000
00000000
00000100
00000000
00000000
00002000
00000000
00000000
00000000
00000000
,
00003010
00000000
00000100
00000000
00000002
00000000
00001003
00000100
,
00020000
00000000
00000000
00000000
00000000
00000000
00031000
00000000
00100000
00000000
00000000
00002000
00000000
00000000
00000000
00000000
,
02003000
00000000
03100000
10000000
00100000
10000000
00100000
00000000
,
01000000
00000000
00000000
00000000
01100000
00000000
00000000
00000000
00010000
00000000
00000000
00201000
00000000
00000000
00000000
00000000
,
00301000
00011000
00010020
00000130
,
00000110
00001001
00000011
00000110
,
00010100
00011000
00101000
10010000
,
02100000
03100000
02000000
00000000
03001000
00010000
00002000
00000000
,
00103000
00001000
00020000
00000000
00000020
00000000
00000000
00000000
,
00030030
00000000
00000000
00000000
;

//--------------- dance-double - t7r ----------------
#NOTES:
     dance-double:
     t7r:
     Medium:
     13:
     0.681,0.82,0.472,0.428,0.227:
00000000
00000000
00000000
00000000
,
00000000
00000000
00000000
00000000
,
00000000
00000000
00000000
00000000
,
00000000
00000000
00000000
00000000
,
00000000
00000000
00000000
00000000
,
00000000
00000000
00000000
00000000
,
00000000
00000000
00000000
00000000
,
00000000
00000000
00000000
00000000
,
00000000
00000000
00000000
00000000
,
01100000
00000000
01000000
00001000
00010000
00000000
00001000
00010000
,
00000100
00000000
00001000
00000001
00000010
00000000
00000001
00000010
,
00000100
00000000
00010000
00000100
00001000
00000000
01000000
00100000
,
00010000
00000000
01000000
00100000
10000000
00000000
01100000
00000000
,
00010000
01000000
00010000
01000000
00001000
00010000
00001000
00010000
,
00000100
00010000
00000100
00010000
00000010
00000100
00000001
00000000
,
00000010
00000100
00000010
00000100
00010000
00000100
00010000
00000100
,
00010000
00000000
00000000
00000000
00011000
00000000
00000000
00000000
00100000
00001000
00000000
00001000
01000000
00000000
00000000
00000000
,
02100000
00000000
00100000
00100000
00100000
00000000
00100000
00000000
,
03020000
00000000
10000000
10000000
10030000
01000000
00100000
00000000
,
01100000
00000000
00000000
01000000
00010000
00000000
01000000
00000000
10000000
00000000
00000000
00000000
00100000
00000000
01000000
00000000
,
00001000
00000000
00000000
00001000
00100000
00000000
00001000
00000000
00010000
00000000
00000000
00010000
00000100
00000000
00001000
00000000
,
00000010
00000000
00000000
00000010
00000100
00000000
00000001
00000000
00001000
00000000
00000000
00000000
00000001
00000000
00000010
00000000
,
00000200
00010300
00002000
00103000
00020000
01030000
00200000
10300000
,
01000000
00000000
00000000
01000000
00100000
00000000
01000000
00000000
10000000
00000000
00000000
10000000
00100000
00000000
01000000
00000000
,
00010000
00000000
00000000
00010000
00100000
00000000
00001000
00000000
00010000
00000000
00000000
00010000
00000010
00000000
00000100
00000000
,
00000001
00001001
00000110
00010010
,
00001100
00000000
00000000
00000000
00011000
00000000
00000000
00000000
00100000
00001000
00000000
00001000
01000000
00000000
00000000
00000000
,
00100000
00000000
01000000
00000000
00010000
00000000
01000000
00010000
01000000
00000000
00010000
00000000
00000000
00000000
10000000
00000000
,
00000000
01000000
00000000
00100000
00000000
00001000
00000000
00010000
,
00000010
00000000
00000100
00000001
00000100
00000000
00000001
00000000
00001000
00000000
00000000
00000000
00000100
00000000
00010000
00000000
,
00002000
00103000
02000000
03100000
00020000
01030000
00002000
00003010
,
00000001
00000000
00000000
00000001
00000100
00000000
00000010
00000000
00001000
00000000
00000000
00001000
00000100
00000000
00010000
00000000
,
00001000
00000000
00000000
00001000
00100000
00000000
00010000
00000000
01000000
00000000
00000000
01000000
00100000
00000000
01000000
00000000
,
00010000
10010000
01100000
01010000
,
00101000
00000000
00000000
00000000
00011000
00000000
00000000
00000000
00000100
00010000
00000000
00010000
00000010
00000000
00000000
00000000
,
00000210
00000000
00000301
00000000
00000100
00000010
00001000
00000020
00000000
00000000
00001000
00000000
00000100
00000000
00001030
00000000
,
00000100
00000000
00010100
00000000
00001000
00100000
00010000
02000000
00000000
00000000
00100000
00000000
10000000
00000000
03010000
00000000
,
10000000
00000000
10010000
00000000
01000000
00100000
01000000
00002000
00000000
00000000
00010000
00000000
00100000
00000000
00013000
00000000
,
00001000
00001000
00000000
00010000
00010000
00000000
00000100
00000100
00000000
00010000
00010000
00000000
00011000
00000000
00101000
00000000
,
00010100
00000000
00010020
00000000
00001030
00000100
00000010
00000200
,
00001000
00000000
00000001
00000001
00000000
00001000
00001300
00000001
,
00000100
00000000
00000101
00000000
00000010
00010000
00000100
00020000
,
00001000
00000000
00100000
00100000
00000000
01000000
01030000
00100000
,
01000000
00000000
01100000
00000000
10000000
00100000
01000000
00002000
,
00010000
00000000
00000100
00000100
00000000
00010000
00013000
00000010
,
00000100
00000110
00001001
00010010
,
00010100
00000000
00010000
00000100
00000000
00000100
00010000
00000000
00022000
00000000
00000000
00000000
00033000
00000000
00000000
00000000
,
00200000
00000000
00000000
00300000
00100000
00000000
00100000
00000000
,
02000000
00000000
00000000
03100000
01000000
00000000
00000000
00000000
20010000
00000000
00000000
00000000
30010000
00000000
10000000
00000000
,
01000000
00100000
00001000
00010000
00000100
00000010
00000001
00001000
,
00000001
00000010
00000100
00020000
00001000
00000000
01030000
00000000
,
00100000
00010000
00100000
00010000
01000000
00001000
01000000
00001000
,
00010000
00001000
00010000
00001000
00010000
00000100
00001000
00000000
,
00000010
00000100
00000010
00000100
00000001
00000010
00000100
00010000
,
00001000
00100000
00010000
10000000
00010000
00000000
10010000
00000000
,
02200000
00000000
00000000
00300000
,
00002000
00000000
03003000
00011000
,
00000100
00010000
00010000
00010000
00001000
00010000
00010000
00000010
,
00000100
00000000
00000001
00000100
00000001
00000000
00001000
00000000
00000001
00000000
00001000
00000100
00001000
00000000
00000100
00000000
,
00010000
00000000
00000000
00011000
00000000
00001000
00100000
00000000
00000000
00110000
00000000
00010000
,
01000000
00000000
00000000
01100000
00000000
01000000
00001000
00000000
00000000
00011000
00000000
00010000
,
00000100
00000000
00000010
00000100
00001000
00000000
00000010
00000100
,
00000001
00000000
00000000
00000001
00001000
00000000
00000100
00000000
00010000
00000000
00000000
00010000
00001000
00000000
00100000
00000000
,
00010000
00110000
01010000
01001000
,
00101000
00000000
00000000
00000000
00011000
00000000
00000000
00000000
00000100
00010000
00000000
00010000
00001000
00000000
00000000
00000000
,
00000120
00000000
00000031
00001000
00000100
00020000
00001000
00000000
,
00230000
00000000
01300000
00010000
20000000
00000000
31000000
00100000
,
01200000
00000000
00301000
01000000
00001000
00200000
00001000
00300000
,
00021000
00000000
00030100
00010000
00001000
01000000
00100000
01000000
,
00010000
00000000
10000000
00000000
21000000
00000000
00000000
00000000
30100000
00000000
00000000
02100000
00000000
00000000
00000000
00000000
,
03001000
00011000
00020010
00030100
,
00000110
00001001
00010010
00011000
,
00001000
00000000
00010000
00001000
00010000
00000000
00001000
00000000
00100000
00000000
00001000
00010000
00001000
00000000
01000000
00000000
,
00001000
00010000
00000100
00000010
00000200
00000000
00010300
00000000
00001000
00100000
00010000
01000000
00200000
00000000
01300000
00000000
,
00001000
00010000
00000100
00000010
00000200
00000000
00001300
00000000
00022000
00000000
00000000
00000000
00000000
00000000
00000000
00000000
,
00033000
00000000
00000000
00000000
;

//--------------- dance-double - t7r ----------------
#NOTES:
     dance-double:
     t7r:
     Hard:
     17:
     0,0,0,0,0:
00000000
00000000
00000000
00000000
,
00000000
00000000
00000000
00000000
,
00000000
00000000
00000000
00000000
,
00000000
00000000
00000000
00000000
,
00000000
00000000
00000000
00000000
,
00000000
00000000
00000000
00000000
,
00000000
00000000
00000000
00000000
,
00000000
00000000
00000000
00000000
,
00000000
00000000
00000000
00000000
,
10000000
00000000
00100000
00000000
01000000
00010000
10000000
00010000
01000000
00000000
00010000
00100000
00001000
00000000
00001000
00000000
,
00010000
00000000
00000010
00000000
00000100
00000010
00001000
00000010
00000100
00000000
00000010
00001000
00000001
00000000
00000001
00000000
,
00000010
00000000
00000001
00000000
00000100
00000010
00010000
00000010
00000100
00000000
00000010
00001000
00000001
00000000
00000001
00000000
,
00000100
00000000
00000010
00000000
00010000
00000100
00010000
00001000
00010000
00000000
00001000
00000000
00011000
00000000
00000000
00000000
,
00001000
01000000
00001000
01000000
00001000
01000000
00100000
00000000
10000000
01000000
10000000
01000000
10000000
01000000
00100000
00000000
,
00001000
00010000
00001000
00010000
00001000
00010000
00000010
00000000
00000100
00000001
00001000
00000001
00000010
00000000
00000000
00000000
,
00000001
00000100
00000001
00000100
00000001
00000100
00000001
00000100
00000010
00001000
00000010
00001000
00000010
00001000
00000010
00001000
,
00010000
01000000
00100000
00000000
10000000
01000000
00100000
00000000
00010000
01000000
00100000
10000000
00010000
00000000
00000000
00000000
,
02100000
00000000
00000000
00000000
,
00020000
00000000
00000000
00000000
00000000
00000000
00000000
00000000
03030000
00000000
01000000
00100000
10000000
00000000
00000000
00000000
,
00010000
00000000
00100000
00000000
00010000
01000000
10000000
00000000
01000000
00000000
00100000
00000000
00100000
00000000
10000000
00000000
,
01000000
00000000
00010000
00001000
00000000
00000100
00000010
00000000
00001000
00000000
00000001
00000100
00000000
00001000
00000100
00000000
,
00000001
00000000
00000010
00000000
00000001
00000100
00001000
00000000
00000100
00000000
00001000
00010000
00000000
01000000
00100000
00000000
,
00020000
00130000
20000000
30100000
00020000
01030000
00002000
00013000
,
00001000
00000000
00000100
00000000
00000001
00000010
00000100
00000000
00000010
00000000
00000001
00000100
00000000
00000001
00000010
00000000
,
00000100
00000000
00001000
00010000
00000000
01000000
00100000
00000000
10000000
00000000
01000000
00010000
00000000
00000100
00000010
00000001
,
00001000
00001010
00000010
00011000
,
00001000
01000000
00100000
00000000
01000000
00001000
00010000
00000000
00001000
00010000
00000010
00000100
00000010
00000000
00000000
00000000
,
00001000
00000000
00000010
00000000
00000100
00000010
00001000
00000010
00000100
00000000
00000001
00000010
00000001
00000000
00001000
00000000
,
00000001
00000000
00000100
00001000
00010000
00000000
00001000
00000000
01000000
00000000
10000000
00000000
01000000
00000000
00100000
00000000
,
10000000
00000000
01000000
00000000
00020000
00000000
00032000
00000000
00003010
00000000
00000001
00000100
00000001
00000000
00001000
00000000
,
00000002
00000013
00002000
00003010
00000200
00010300
00002000
00013000
,
00001000
00000000
01000000
00000000
00100000
10000000
00010000
10000000
00100000
00000000
01000000
00100000
01000000
00000000
00100000
00000000
,
10000000
00000000
01000000
00010000
00001000
00000000
00000100
00000000
00000010
00000000
00001000
00000100
00010000
00000000
00001000
00000000
,
00010000
01100000
00001000
00011000
,
00001000
01000000
00100000
00000000
01000000
00001000
00010000
00000000
00000010
00000100
00000001
00001000
00000001
00000000
00000000
00000000
,
00000010
00000001
00000200
00000000
00001300
00010000
00100000
02000000
00000000
00000000
03100000
00000000
10000000
01000000
00100000
00010000
,
20000000
00000000
00000000
00000000
31000000
00000000
00000000
00000000
00100000
00000000
00010000
00000000
00001000
00000000
00000020
00000000
00000000
00000000
00000130
00000000
00000001
00000000
00001000
00000000
00000001
00000010
00000001
00000000
00001000
00000000
00000000
00000000
,
00000001
00000100
00000020
00000000
00001030
00010000
01000000
00200000
00000000
10300000
01000000
00010000
00001000
00000100
00000001
00000100
,
00000010
00000001
00000100
00001000
00100000
00010000
01000000
10000000
01000000
10000000
00100000
00010000
00000100
00000010
00001001
00000000
,
00000101
00000000
00001002
00000000
00000013
00001000
00010000
00200000
,
10000000
00000000
01000000
01000000
00000000
00010000
00310000
01000000
,
10000000
00000000
01200000
00000000
10300000
00100000
00010000
00002000
,
00000100
00000000
00000010
00000010
00000000
00003100
00000010
00000100
,
00001001
00000000
00000012
00000000
00000103
00001000
00010000
02000000
,
00100000
00000000
00010000
00010000
00000000
00100000
03100000
01000000
,
10000000
00000000
00000000
00000000
00010000
01000000
00100000
00000000
01000000
00001000
00010000
00000000
00001000
00010000
00000100
00000000
,
00000010
00000000
00000001
00000100
00000000
00001000
00010000
00000000
00200000
00000000
00000000
00000000
01300000
00000000
00000000
00000000
,
20100000
00000000
00010000
00010000
,
30010000
00000000
10000000
01000000
10000000
00000000
00010000
00000000
00200000
00000000
00000000
00000000
00301000
00000000
00010000
00000010
,
00010000
00000000
00000010
00000100
00000010
00000000
00000001
00000000
00000100
00000000
00001000
00000000
00010000
00000000
01000000
00000000
,
00100000
10000000
01000000
00010000
00000100
00000010
00000110
00000000
,
00000001
00000100
00000001
00000100
00000001
00000100
00000010
00000000
00001000
00000100
00001000
00000100
00001000
00000100
00010000
00000000
,
00001000
01000000
00001000
01000000
00001000
01000000
00100000
00000000
10000000
01000000
00100000
00010000
10000000
00000000
00000000
00000000
,
00010000
00100000
00010000
00100000
00001000
00010000
00001000
00010000
00000010
00001000
00000010
00001000
00000010
00000100
00000010
00000100
,
00000001
00000010
00000100
00000000
00001000
00000100
00010000
00000000
00001000
01000000
00100000
10000000
00010000
00100000
01000000
10000000
,
00200000
00000000
00000000
00000000
,
02000000
00000000
00000000
00000000
00000000
00000000
00000000
00000000
03300000
00000000
01000000
00010000
10000000
00000000
00000000
00000000
,
01100000
00000000
01000000
00010000
01000000
00010000
01000000
00100000
01000000
00000000
00010000
00000000
00010000
00000000
10000000
01000000
,
00100000
00001000
00100000
00001000
00100000
00001000
00100000
00001000
00010000
00001000
00010000
00001000
00010000
00001000
00010000
00001000
,
00020000
00000000
00000000
00030010
00001000
00000100
00000001
00000100
00001000
00000100
00000010
00000001
,
00001000
00000000
00000000
00000000
00000100
00000000
00000000
00000000
00010000
00000000
00000000
00000000
00001000
00000000
00000000
00000000
01000000
00000000
00000000
00000000
00100000
00000000
00000000
00000000
10000000
00000000
00000000
00000000
01000000
00000000
00000000
00000000
00010000
00000000
00000000
00000000
00001000
00000000
00000000
00000010
00000000
00000000
00001000
00000000
00000000
00000010
00000000
00000000
,
00000100
00000000
00000110
00000000
00000001
00000100
00000001
00000100
00000010
00000000
00010000
00000000
00010000
00000000
00000100
00010000
,
00001000
00000000
01000000
00010000
00000000
01000000
10000000
00000000
01000000
00000000
00100000
10000000
00000000
00100000
00010000
00000000
,
00100000
10100000
01000000
01001000
,
00001000
00010000
00000010
00000000
00010000
00001000
00100000
00000000
00001000
01000000
00100000
10000000
00010000
00000000
00000000
00000000
,
20000000
00000000
00000000
00000000
31000000
00000000
00100000
00001000
00010000
00000000
00000020
00001000
00000000
00000000
00000030
00000000
,
00000120
00000000
00000130
00000001
00000020
00000000
00000130
00001000
,
00001200
00000000
00000000
00000000
00001300
00000000
00000100
00010000
00001000
00000000
02000000
00010000
00000000
00000000
03000000
00000000
,
02100000
00000000
00000000
00000000
03100000
10000000
00100000
10000000
00010000
01000000
00010000
01000000
00001000
00100000
00001000
00100000
,
00001000
00000000
00000000
00000000
00011000
00000000
00000000
00000000
00010010
00000000
00000000
00000120
00000000
00000000
00000000
00000000
,
00001030
00001001
00000201
00000310
,
00010010
00000000
00011000
00001000
00001000
00010000
00010000
00010000
,
00001000
01000000
10000000
00000000
01000000
00010000
00001000
00000000
00000100
00000001
00000100
00000010
00000001
00000000
00000000
00000000
,
00002000
00000000
00003100
00000010
00000001
00000000
00000100
00000100
00000020
00000000
00010030
00001000
01000000
00000000
00100000
00100000
,
20000000
00000000
31000000
00100000
00001000
00000000
00010000
00010000
00002000
00000000
00000000
00000000
00000000
00000000
00000000
00000000
,
00003000
00000000
00000000
00000000
;

//--------------- dance-double - t7r ----------------
#NOTES:
     dance-double:
     t7r:
     Challenge:
     18:
     0,0,0,0,0:
00000000
00000000
00000000
00000000
,
00000000
00000000
00000000
00000000
,
00000000
00000000
00000000
00000000
,
00000000
00000000
00000000
00000000
,
00000000
00000000
00000000
00000000
,
00000000
00000000
00000000
00000000
,
00000000
00000000
00000000
00000000
,
00000000
00000000
00000000
00000000
,
00000000
00000000
00000000
00000000
,
10000000
00000000
01000000
00000000
00010000
01000000
00100000
00001000
00010000
00000000
00000010
00000100
00000001
00000000
00000101
00000000
,
00000001
00000000
00000100
00000000
00001000
00000100
00000010
00010000
00001000
00000000
01000000
00100000
10000000
00000000
10100000
00000000
,
10000000
00000000
00100000
00000000
00010000
00100000
01000000
00001000
00010000
00000000
00000100
00000010
00000001
00000000
00000011
00000000
,
00000001
00000000
00000010
00000000
00001000
00000010
00000100
00010000
00001000
00000000
00100000
01000000
10010000
00000000
00000000
00000000
,
10000000
01000000
10000000
01000000
00010000
01000000
00010000
01000000
00010000
00001000
00010000
00001000
00000100
00000001
00000100
00000001
,
00000100
00000010
00000100
00000010
00010000
00001000
00010000
00001000
01000000
00100000
10000000
00010000
10010000
00000000
00000000
00000000
,
10000000
00100000
10000000
00100000
00010000
00100000
00010000
00100000
00001000
00000010
00001000
00000010
00000100
00000001
00000100
00000001
,
00001000
00000100
00000100
00000001
00001000
00000000
00000000
00000000
MMMMMMMM
00000000
00000000
00000000
10010000
00000000
00000000
00000000
,
02100000
00100000
00100000
00100000
03010000
00000000
10010000
00000000
,
10000000
00000000
01000000
00000000
00100000
00000000
00010000
00000000
00001000
00000000
00000010
00000100
00001001
00000000
00000000
00000000
,
00000101
00000000
00001100
00000000
00000001
00000100
00000010
00000100
00001000
00000000
00010000
01000000
00100000
00000000
00010000
10000000
,
00100000
00000000
01000000
00001000
00000000
00010000
00001000
00000010
00000100
00000000
00001000
00000100
00000000
00000001
00000100
00000010
,
00000011
00000000
00001010
00000000
00000010
00001000
00010000
01000000
00100000
00000000
01000000
00010000
10000000
00000000
01000000
00000000
,
20000000
30000000
MMMMMMMM
00000000
00002000
00003000
MMMMMMMM
00000000
00000002
00000003
MMMMMMMM
00000000
00020000
00030000
MMMMMMMM
00000000
,
11000000
00000000
01010000
00000000
10000000
01000000
00100000
01000000
00010000
00000000
00001000
00000100
00000010
00000000
00001000
00000001
,
00000010
00000000
00000100
00010000
00000000
00001000
00010000
00100000
01000000
00000000
00010000
01000000
00000000
10000000
01000000
00100000
,
02000000
00000000
00000000
03000000
01100000
00000000
00100000
00000000
00101000
00000000
00001000
00000000
00011000
00000000
00010000
00000000
,
00001000
00000100
00000100
00000001
00001000
00000000
00000000
00000000
MMMMMMMM
00000000
00000000
00000000
10010000
00000000
00000000
00000000
,
01100000
00000000
10010000
00000000
10000000
01000000
00100000
10000000
00100000
00000000
00010000
00001000
00000010
00000000
00000100
00000001
,
00001000
00000000
00000010
00000001
00000000
00000010
00001000
00000000
00000100
00000000
00010000
00001000
00000000
01000000
00010000
10000000
,
01000000
00000000
10000000
00100000
00020000
00000000
00032000
00000000
00003010
00000000
00000100
00001000
00000001
00000000
00001000
00000000
,
00000002
00000003
MMMMMMMM
00000000
00020000
00030000
MMMMMMMM
00000000
20000000
30000000
MMMMMMMM
00000000
00002000
00003000
MMMMMMMM
00000000
,
00001001
00000000
00000110
00000000
00000001
00000010
00000100
00000001
00000100
00000000
00001000
00010000
01000000
00000000
00100000
01000000
,
00010000
00000000
10000000
00100000
00000000
00010000
00100000
01000000
00001000
00000000
00010000
00000100
00000000
00001000
00000010
00000100
,
00000002
00000000
00000000
00000003
00001001
00000000
00000001
00000000
00000101
00000000
00000110
00000000
00010010
00000000
00011000
00000000
,
00010000
01000000
10000000
01000000
00010000
01000000
01000000
10000000
00010000
00000000
00000000
00000000
MMMMMMMM
00000000
00000000
00000000
,
00001001
00000010
00002010
00000000
00003100
00010000
00010100
00012000
00000000
01003000
00010000
10000000
01000000
00010000
00001000
00000010
,
00000110
00000000
00000001
00000000
00000102
00000000
00000000
00000000
00000013
00000000
00000001
00000000
00000101
00000000
00001002
00000000
00000000
00000000
00000103
00000000
00001000
00000000
00010000
00000000
00100000
10000000
00010000
00000000
10000000
00000000
01000000
00000000
,
11000000
00100000
10020000
00000000
01030000
00001000
00101000
00021000
00000000
00030010
00000001
00000010
00000100
00000001
00001000
00000001
,
00000101
00000000
00000101
00000000
00001000
00000000
00001100
00000000
00001100
00000000
00000000
00000000
00011000
00000000
00011000
00000000
00100000
00000000
10100000
00000000
10100000
00000000
00000000
00000000
10000000
01000000
00100000
00010000
10000000
00000000
00000000
00000000
,
11000000
01000000
01200000
00000000
00301000
00010000
00010010
00000120
,
00001000
00000000
00000100
00000100
00000000
00000001
00000031
00000010
,
00000011
00000011
00000000
00000110
00000110
00000000
00010010
00010010
,
00011000
00000000
00101000
00101000
00000000
01100000
10010000
00010000
,
01010000
00010000
00210000
00000000
00301000
00010000
00010010
00000210
,
00000001
00000000
00001000
00001000
00000000
00000010
00000310
00000100
,
00000210
00000000
00000000
00000000
00000310
00001000
00010000
00100000
00010000
00000100
00000010
00001000
00000001
00000000
00001000
00000000
,
00000001
00000100
00000100
00001000
00000001
00000100
00000100
00001000
00000001
00000000
00000000
00000000
MMMMMMMM
00000000
00000000
00000000
,
01200000
00000000
00000000
00300000
00100000
00000000
00100000
00000000
,
20000000
00000000
31000000
00010000
00001000
00000000
00000100
00000000
00000020
00000000
00000000
00000000
00001030
00000000
00000001
00000010
,
00001000
00000000
00000001
00000100
00001000
00000000
00000100
00010000
00001000
00000000
01000000
10000000
01000000
00000000
00100000
01000000
,
00001000
00000000
00100000
00001000
00010000
00000000
00000010
00000000
00000100
00000010
00001000
00000001
00001001
00000000
00000000
00000000
,
00000001
00000010
00000001
00000010
00001000
00000010
00001000
00000010
00001000
00010000
00001000
00010000
00100000
10000000
00100000
10000000
,
00100000
01000000
00100000
01000000
00001000
00010000
00001000
00010000
00000010
00000100
00000001
00001000
00001001
00000000
00000000
00000000
,
00000001
00000100
00000001
00000100
00001000
00000100
00001000
00000100
00010000
01000000
00010000
01000000
00100000
10000000
00100000
10000000
,
00010000
01000000
01000000
10000000
00010000
00000000
00000000
00000000
MMMMMMMM
00000000
00000000
00000000
00001001
00000000
00000000
00000000
,
00000210
00000000
00000000
00000001
00000000
00000000
00000010
00000000
00000000
00001000
00000000
00000000
00000010
00000000
00000000
00000001
,
00000000
00000000
00000010
00000000
00000000
00000010
00000000
00000000
00000310
00000000
00000100
00000010
00001001
00000000
00000000
00000000
,
00000101
00000000
00001100
00000000
00000001
00000100
00000100
00001000
00000001
00000000
00000110
00000000
00001001
00000000
00000001
00000010
,
00001000
00000010
00001000
00000010
00001000
00000010
00000001
00001000
00000001
00000100
00000010
00001000
00010000
01000000
00100000
10000000
,
10020000
00000000
01030000
00110000
01000000
01000000
10100000
01000000
01000000
00011000
00100000
00100000
,
00011000
00000000
00000000
00000000
00000100
00000000
00000000
00000000
00000100
00000000
00000000
00000000
00000011
00000000
00000000
00000000
00000100
00000000
00000000
00000000
00000100
00000000
00000000
00000000
00011000
00000000
00000000
00000000
01000000
00000000
00000000
00000000
01000000
00000000
00000000
00000000
00100000
00000000
00000000
10000000
00000000
00000000
00010000
00000000
00000000
10000000
00000000
00000000
,
10100000
00000000
00110000
00000000
10000000
01000000
01000000
00010000
10000000
00000000
01100000
00000000
10010000
00000000
10000000
01000000
,
00100000
00000000
01000000
00010000
00001000
00000000
00000100
00000000
00000010
00000000
00000100
00000001
00001000
00000000
00000001
00000000
,
00001002
00000000
00000000
00000003
00000101
00000000
00000110
00000000
00010010
00000000
00010010
00000000
00011000
00000000
00011000
00000000
,
00001000
01000000
01000000
10000000
00010000
01000000
01000000
00100000
00010000
01000000
10000000
01000000
00010000
00000000
00000000
00000000
,
12000000
00000000
00000000
00000000
03100000
00000000
00010000
00100000
00001000
00000000
00000100
00000001
00000000
00000100
00001000
00000000
,
00000210
00000000
00000301
00000100
00002010
00000000
00003100
00001100
,
00012000
00000000
00000000
00000000
01003000
00000000
00100000
10000000
00010000
00000000
01000000
00010000
00000000
01000000
10000000
00000000
,
02000000
00000000
00000000
00000000
03100000
00000000
10000000
01000000
00010000
01000000
00010000
00001000
00000100
00000001
00000100
00000010
,
00001000
00000000
00000010
00001000
00000100
00000000
00000010
00000001
00001000
00000000
00000100
00001200
00000000
00000000
00010300
00000000
,
00012000
00000000
01003000
00100000
20100000
00000000
31000000
00100000
00102000
00000000
00013000
00000000
00000010
00000100
00000001
00001000
,
00000002
00000000
00000000
00000003
00001001
00000000
00000101
00000000
00000110
00000000
00010010
00000000
00011000
00000000
01001000
00000000
,
00100000
10000000
01000000
00010000
00001000
00000100
00000100
00000001
00001000
00000000
00000000
00000000
MMMMMMMM
00000000
00000000
00000000
,
00100000
10000000
00100000
00010000
00001000
00000100
00000110
00001010
00000001
00000010
00001000
00000010
00000100
00010000
00011000
01001000
,
01200000
10000000
00010000
01000000
00010000
00001000
01000000
01000000
20000000
00000000
00000000
00000000
00000000
00000000
00000000
00000000
,
30300000
00000000
00000000
00000000
;
