#TITLE:Dualive;
#SUBTITLE:;
#ARTIST:Quarks(kradness×Camellia);
#TITLETRANSLIT:;
#SUBTITLETRANSLIT:;
#ARTISTTRANSLIT:;
#GENRE:;
#CREDIT:;
#MENUCOLOR:;
#METERTYPE:DDR;
#BANNER:Dualive.png;
#BACKGROUND:Dualive-bg.png;
#LYRICSPATH:;
#CDTITLE:./CDTITLES/REFLEC BEAT.PNG;
#MUSIC:Dualive.ogg;
#OFFSET:0.000;
#SAMPLESTART:103.579;
#SAMPLELENGTH:15.000;
#SELECTABLE:YES;
#LISTSORT:;
#BPMS:0.000=190.000;
#STOPS:;
#BGCHANGES:0.000=Dualive.avi=1.000=0=0=0,
99999=-nosongbg-=1.000=0=0=0 // don't automatically add -songbackground-
;
#ATTACKS:;

//---------------dance-single - ----------------
#NOTES:
     dance-single:
     :
     Beginner:
     3:
     0.110,0.192,0.054,0.000,0.000:
0000
0000
0000
0000
,
0000
0000
0000
0000
,
0000
0000
0000
0000
,
0000
0000
0000
0000
,
0000
0000
0000
0000
,
0000
0000
0000
0000
,
0000
0000
0000
0000
,
0000
0000
0000
0000
,
0000
0000
0000
0000
,
0000
0000
0000
0000
,
0000
0000
0000
0000
,
0100
0000
0000
0000
,
0100
0000
0000
0000
,
0010
0000
0000
0000
,
0010
0000
0000
0000
,
1000
0000
0000
0000
,
0001
0000
0000
0000
,
1000
0000
0000
0000
,
0000
0000
0000
0000
,
0010
0000
0000
0000
,
0010
0000
0000
0000
,
0100
0000
0000
0000
,
0100
0000
0000
0000
,
0001
0000
0000
0000
,
0001
0000
0000
0000
,
1000
0000
0000
0000
,
1000
0000
0000
0000
,
0001
0000
0000
0000
,
1000
0000
0000
0000
,
0010
0000
0000
0000
,
0100
0000
0000
0000
,
0001
0000
0000
0000
,
0010
0000
0000
0000
,
0100
0000
0000
0000
,
1000
0000
0000
0000
,
0000
0001
0000
0001
,
0000
0001
0000
0000
,
0000
1000
0000
1000
,
0000
1000
0000
0000
,
0000
0010
0000
0010
,
0000
0010
0000
0000
,
0000
0100
0000
0100
,
0000
0100
0100
0000
,
0010
0000
0000
0000
,
1000
0000
0000
0000
,
0001
0000
0000
0000
,
0010
0000
0000
0000
,
0100
0000
0000
0000
,
1001
0000
0000
0000
,
0010
0000
0000
0000
,
0110
0000
0000
0000
,
0100
0000
0000
0000
,
0000
0000
0000
0000
,
0010
0000
0000
0000
,
0000
0000
0000
0000
,
1000
0000
0000
0000
,
0000
0000
0000
0000
,
0001
0000
0000
0000
,
0000
0000
0000
0000
,
1000
0000
0000
0000
,
0001
0000
0000
0000
,
1000
0000
0000
0000
,
0010
0000
0000
0000
,
0100
0000
0000
0000
,
0100
0000
0000
0000
,
0100
0000
0000
0000
,
0000
0000
0000
0000
,
0001
0000
0001
0000
,
0001
0000
0000
0000
,
1000
0000
1000
0000
,
1000
0000
0000
0000
,
0010
0000
0010
0000
,
0010
0000
0000
0000
,
0100
0000
0100
0000
,
0100
0000
0000
0000
,
0001
0000
0000
0000
,
1000
0000
0000
0000
,
0100
0000
0000
0000
,
0010
0000
0000
0000
,
0001
0000
0000
0000
,
1000
0000
0000
0000
,
0010
0000
0000
0000
,
0100
0000
0000
0000
,
0001
0000
0000
0000
,
1000
0000
0000
0000
,
0001
0000
0000
0000
,
1000
0000
0000
0000
,
0100
0000
0000
0000
,
0010
0000
0000
0000
,
0100
0000
0000
0000
,
0010
0000
0000
0000
,
0100
0000
0000
0000
,
1001
0000
0000
0000
,
0010
0000
0000
0000
,
1001
0000
0000
0000
,
1000
0000
0000
0000
,
0110
0000
0000
0000
,
0001
0000
0000
0000
,
0110
0000
0000
0000
,
1001
0000
0000
0000
;

//---------------dance-single - ----------------
#NOTES:
     dance-single:
     :
     Easy:
     6:
     0.322,0.431,0.101,0.210,0.000:
0000
0000
0000
0000
,
0000
0000
0000
0000
,
0000
0000
0000
0000
,
0000
0000
0000
0000
,
0000
0000
0000
0000
,
0000
0000
0000
0000
,
0000
0000
0000
0000
,
0000
0000
0000
0000
,
0000
0000
0000
0000
,
0000
0000
0000
0000
,
0000
0000
0000
0000
,
0010
0000
0010
0000
,
0010
0000
0010
0010
,
0100
0000
0100
0000
,
0100
0000
0100
0100
,
0001
1000
0001
1000
,
0010
0100
0010
0100
,
0002
0000
0000
0000
,
1003
0000
0000
0000
,
1100
0000
1000
0100
,
0010
0000
0010
0001
,
1000
0000
0001
0100
,
0020
0000
0200
0330
,
0001
0000
0010
0100
,
1000
0000
0010
0100
,
0001
0000
1000
0000
,
0001
0010
0100
1000
,
0001
0000
0011
0000
,
1000
0000
1100
0000
,
0010
0000
0110
0000
,
0200
0000
0002
0303
,
1000
0000
1001
0000
,
0001
0000
1001
0000
,
0010
0100
0010
0100
,
0020
0000
0000
0030
,
1000
0100
1000
0000
,
0001
0100
0001
0000
,
1000
0010
1000
0000
,
0001
0010
0001
0000
,
1000
0001
0100
0000
,
0001
1000
0010
0000
,
1000
0001
0010
0000
,
0100
0000
0010
0000
,
0001
0100
0001
0100
,
0001
0010
0001
0010
,
0100
1000
0001
1000
,
0010
0100
0020
0030
,
1000
0000
2200
3300
,
0001
0000
0202
0303
,
0010
0100
0010
0100
,
0002
0000
2000
3003
,
0001
0000
0001
0000
,
0001
0000
0001
0000
,
1000
0000
1000
0000
,
1000
0000
1000
0000
,
0010
0000
0010
0000
,
0010
0000
0010
0000
,
0100
0000
0100
0000
,
0100
0000
0100
0000
,
0001
0001
0001
0000
,
1000
1000
1000
0000
,
0010
0010
0010
0000
,
0100
0100
0100
0000
,
0001
0001
1000
1000
,
0010
0010
0100
0100
,
0001
1000
0010
0100
,
0002
0000
0000
1003
,
0001
0000
1000
1000
,
0001
0000
0100
0100
,
0010
0000
1000
1000
,
0100
0000
0010
0010
,
0001
0000
1000
1000
,
0010
0000
0100
0100
,
0001
0000
0010
0100
,
1000
0000
0010
0100
,
0002
0000
1000
1003
,
0020
0000
0100
0130
,
0002
0000
0010
0013
,
0200
0000
1000
1300
,
0010
0000
0220
0330
,
0100
0000
0220
0330
,
0001
0000
2002
3003
,
1000
0000
0100
0010
,
0001
1000
0001
0001
,
0010
0100
0010
0010
,
0001
1000
0100
0100
,
1000
0001
0010
0010
,
0001
0100
0001
0001
,
1000
0100
1000
1000
,
0010
0100
0010
0010
,
1000
0000
0001
0000
,
1000
0100
0010
0010
,
0001
0100
0010
0010
,
0100
0001
1000
1000
,
0001
0010
0200
0300
,
1000
0000
1100
0000
,
0001
0000
0101
0000
,
0001
0010
0100
1000
,
0020
0000
0000
0000
,
0200
0000
0000
0000
,
0000
0000
0000
0330
;

//---------------dance-single - ----------------
#NOTES:
     dance-single:
     :
     Medium:
     8:
     0.420,0.587,0.163,0.218,0.070:
0000
0000
0000
0000
,
0000
0000
0000
0000
,
0000
0000
0000
0000
,
0000
0000
0000
0000
,
0000
0000
0000
0000
,
0000
0000
0000
0000
,
0000
0000
0000
0000
,
0000
0000
0000
0000
,
0000
0000
0000
0000
,
0000
0000
0000
0000
,
0000
0000
0000
0000
,
0010
0010
0010
0010
,
0100
0100
0100
0100
,
0001
0001
0001
0001
,
1000
1000
1000
1000
,
0001
0000
0000
0010
0000
0000
0000
0000
0001
0000
0000
1000
0000
0000
0000
0000
,
1000
0000
0000
0010
0000
0000
0000
0000
1000
0000
0000
0001
0000
0000
0000
0000
,
0100
0100
0100
0100
,
0020
0000
0000
0130
,
0001
0000
0010
0000
0000
0001
0100
0000
,
0010
0000
1000
0000
0000
0001
1000
0000
,
0100
0000
0010
0000
0000
0100
1000
0000
,
0020
0000
0000
0230
0000
0000
0301
0000
,
0010
0000
0100
0000
0000
0010
0001
0000
,
1000
0000
0010
0000
0000
0100
0010
0000
,
1000
0000
1100
0000
,
0001
0000
0011
0000
,
0001
0000
0000
0000
1000
0100
1000
0000
,
0010
0000
0000
0000
0100
0001
0100
0000
,
0001
0000
0000
0000
0010
0100
1000
0000
,
0020
0000
0000
2030
0000
0000
3001
0000
,
1000
0000
0000
0000
0100
0010
0001
0000
,
0010
0000
0000
0000
0001
0010
0100
0000
,
2000
0000
0000
0000
,
0020
0000
0000
3030
,
0100
0000
0001
0000
0100
0000
0001
0010
,
0000
0100
0000
1000
0000
0001
1000
0000
,
0010
0000
1000
0000
0100
0000
0010
0100
,
0000
1000
0000
0010
0000
0100
0000
0001
,
1000
0000
0001
0000
0010
0000
0001
0100
,
0000
0001
0000
1000
0000
0010
1000
0000
,
0100
0000
0010
0000
0100
0000
1000
0001
,
0100
0000
0010
0000
0100
0100
0010
0000
,
1000
0000
0000
0100
0000
0000
1000
0000
0000
0001
0000
0000
0100
0000
0000
0000
,
0001
0000
0000
0010
0000
0000
0100
0000
0000
0010
0000
0000
0001
0000
0000
0000
,
0100
0000
0010
0100
0000
0100
0001
0000
,
0010
0200
0000
0000
1300
0000
0001
0000
,
1000
0000
0000
1010
0000
0000
0200
0000
,
0301
0000
0000
0011
0000
0000
0200
0000
,
1300
0000
0000
0000
,
0001
0000
0100
0100
,
0020
0000
0000
0000
,
0100
0000
1030
0000
,
0200
0000
0000
0000
,
0010
0000
0301
0000
,
2000
0000
0000
0000
,
0001
0000
3010
0000
,
0002
0000
0000
0000
,
1000
0000
0103
0000
,
0010
0100
0010
0000
,
0100
0010
0100
0000
,
0001
1000
0001
0000
,
1000
0001
1000
0000
,
0011
0000
0000
0001
0000
0000
0000
0000
1100
0000
0000
0100
0000
0000
0000
0000
,
1010
0000
0000
1000
0000
0000
0000
0000
1001
0000
0000
0001
0000
0000
0000
0000
,
0100
0000
0100
0000
0010
0100
0010
0000
,
2001
0000
0000
3001
,
0010
0000
0100
1000
0000
0100
0010
0000
,
0001
0000
0100
0001
0000
0100
0010
0000
,
1000
0000
0001
0010
0000
0001
1000
0000
,
0001
0000
1000
0010
0000
1000
0001
0000
,
1000
0000
0100
1000
0000
0100
0010
0000
,
0001
0000
0100
0001
0000
0100
0010
0000
,
0100
0000
0010
1000
0000
0001
0010
0000
,
0100
0000
0100
0000
0010
0010
0001
0000
,
2000
0000
3010
1000
0000
1000
0001
0000
,
0020
0000
0031
0010
0000
0010
0001
0000
,
0200
0000
0310
1000
0000
0001
1000
0000
,
0200
0000
0310
0001
0000
1000
0100
0000
,
2200
0300
3010
0000
,
0202
0300
0013
0000
,
0210
0010
0001
1300
,
0001
0000
0000
0100
0000
0000
0010
0000
0000
1000
0000
0000
1001
0000
0000
0000
,
1000
0000
0100
0000
1000
0000
0001
0100
,
0000
0001
0010
0000
0001
0000
1000
0000
,
0001
0000
0100
0000
0001
0000
0010
0001
,
0000
1000
0010
0000
1000
0000
0100
0000
,
1000
0000
0010
0000
0100
0000
0010
1000
,
0000
0001
0010
0000
0001
0000
1000
0000
,
0100
0000
1000
0000
0010
0000
0100
0010
,
0000
0100
0001
0000
0010
0000
0110
0000
,
1001
0000
0001
0000
0100
0000
0001
1000
,
0000
1000
0010
0000
1000
0000
0001
0000
,
1000
0000
0100
0000
0010
0000
0100
1000
,
0001
1001
0220
0330
,
1010
0000
0000
1000
0000
0000
0000
0000
0011
0000
0000
0001
0000
0000
0000
0000
,
1100
0000
0000
0100
0000
0000
0000
0000
1001
0000
0000
1000
0000
0000
0000
0000
,
0010
0100
0010
0000
0100
0010
0100
0000
,
0002
0000
0000
0000
,
2000
0000
0000
0000
,
0000
0000
0000
3003
;

//---------------dance-single - ----------------
#NOTES:
     dance-single:
     :
     Hard:
     12:
     0.633,0.666,0.459,0.140,0.245: // measure 1
0000
0000
0000
0000
,  // measure 2
0000
0000
0000
0000
,  // measure 3
0000
0000
0000
0000
,  // measure 4
0000
0000
0000
0000
,  // measure 5
0000
0000
0000
0000
,  // measure 6
0000
0000
0000
0000
,  // measure 7
0000
0000
0000
0000
,  // measure 8
0000
0000
0000
0000
,  // measure 9
0000
0000
0000
0000
,  // measure 10
0000
0000
0000
0000
,  // measure 11
0000
0000
0000
0000
,  // measure 12
0010
1000
0001
0100
,  // measure 13
0010
0000
1000
0000
0001
0000
0100
0010
,  // measure 14
1000
0100
0010
0001
,  // measure 15
1000
0000
0000
0000
0100
0000
0000
0000
0010
0000
0000
0010
0001
0000
1000
0000
,  // measure 16
0001
0000
0000
0101
0000
0000
1000
0000
0100
0000
0000
1100
0000
0000
1000
0000
,  // measure 17
0010
0000
0000
1010
0000
0000
0001
0000
0100
0000
0000
0101
0000
0000
0001
0000
,  // measure 18
0010
0100
0010
0100
1000
0001
1000
0001
,  // measure 19
0200
0000
0000
0310
,  // measure 20
1010
0000
0010
1000
0100
1000
0010
0000
,  // measure 21
0101
0000
0000
0000
0001
0000
0100
0000
0010
0000
0100
0000
0000
0101
0000
0000
,  // measure 22
0001
0010
0001
0010
0100
1000
0100
1000
,  // measure 23
0002
0000
1003
0020
0000
0000
0130
0000
,  // measure 24
0101
0000
0001
0010
0100
0010
0001
0000
,  // measure 25
1100
0000
0000
0000
1000
0000
0100
0000
0010
0000
0100
0000
0000
1100
0000
0000
,  // measure 26
1001
0000
0010
1000
0001
1000
0010
0000
,  // measure 27
0100
0000
0000
0000
0010
0000
0100
0000
0010
0000
0000
0110
0000
0000
0001
0000
,  // measure 28
2000
0000
3010
1000
0100
1000
0010
0000
,  // measure 29
0200
0000
0000
0000
0301
0000
0100
0000
0010
0000
0100
0000
0000
0101
0000
0000
,  // measure 30
0002
0000
0013
0100
1000
0100
0010
0001
,  // measure 31
1000
0000
0000
1000
0000
0000
0001
0000
0000
0010
0000
0000
0110
0000
0000
0000
,  // measure 32
0012
0000
1003
0000
0100
1000
0100
1000
,  // measure 33
0020
0000
0130
0010
0100
0010
1000
0000
,  // measure 34
0001
0000
0000
0010
0000
0000
0001
0000
0100
0000
0000
0010
0000
0000
1000
0000
,  // measure 35
0100
0010
0100
0020
0000
0031
1000
0000
,  // measure 36
0001
0000
0101
0000
0001
0100
0010
0100
,  // measure 37
0000
0001
0010
0100
0000
1000
0100
0010
,  // measure 38
0100
0000
1100
0000
1000
0010
0100
0010
,  // measure 39
0000
1000
0001
0100
0000
0001
1000
0010
,  // measure 40
0100
0000
1010
0000
0001
0100
0010
0100
,  // measure 41
0000
0001
0010
0100
0000
0010
0001
1000
,  // measure 42
0001
0000
1001
0000
1000
0001
0100
0010
,  // measure 43
0000
0100
0001
0010
0100
0100
0010
0000
,  // measure 44
0001
0000
0000
0001
0100
0000
0001
0000
1000
0001
0000
0000
1001
0000
0000
0000
,  // measure 45
1000
0000
0000
1000
0100
0000
1000
0000
0001
1000
0000
0000
1001
0000
0000
0000
,  // measure 46
0011
0000
0001
0010
0000
0010
0100
1000
,  // measure 47
0010
0100
0001
1000
0100
0100
1000
0000
,  // measure 48
0001
0000
0000
0011
0000
0000
0110
0000
0000
1100
0000
0000
1000
0000
0000
0000
,  // measure 49
1000
0000
0000
1010
0000
0000
0110
0000
0000
0101
0000
0000
0001
0000
0000
0000
,  // measure 50
0200
0000
0000
0000
,  // measure 51
0310
0000
0100
0100
,  // measure 52
1001
0100
1000
0100
,  // measure 53
1000
0001
1000
0001
,  // measure 54
0100
0010
0100
0010
,  // measure 55
0100
0001
0100
0001
,  // measure 56
0010
0001
0010
0001
,  // measure 57
1000
0100
0010
0001
,  // measure 58
1000
0100
0001
0100
,  // measure 59
1000
0010
0001
0010
,  // measure 60
1000
0000
0100
0000
0000
1000
0000
0000
0001
0000
0000
0001
0000
0000
1000
0000
,  // measure 61
0001
0000
0100
0000
0000
0001
0000
0000
1000
0000
0000
0010
0000
0000
0100
0000
,  // measure 62
0001
0000
0010
0000
0000
0001
0000
0000
1000
0000
0000
1000
0000
0000
0100
0000
,  // measure 63
1000
0000
0010
0000
0000
1000
0000
0000
0001
0000
0000
0100
0000
0000
0001
0000
,  // measure 64
0010
0000
0000
0011
0000
0000
0001
0000
0100
0000
0000
0101
0000
0000
0010
0000
,  // measure 65
1000
0000
0000
1100
0000
0000
1000
0000
0001
0000
0000
1001
0000
0000
0001
0000
,  // measure 66
0100
0010
0100
0010
1000
0001
1000
0001
,  // measure 67
2000
0000
0000
3001
,  // measure 68
1000
0000
0000
0100
0000
0000
1000
0000
0000
1100
0000
0000
1000
0000
0001
0000
,  // measure 69
0100
0000
0000
0001
0000
0000
0010
0000
0000
0011
0000
0000
0001
0000
0010
0000
,  // measure 70
0100
0000
0000
1000
0000
0000
0001
0000
0000
0101
0000
0000
0001
0000
0100
0000
,  // measure 71
0010
0000
0000
1000
0000
0000
0001
0000
0000
1001
0000
0000
0001
0000
0010
0000
,  // measure 72
0100
0000
0000
1000
0000
0000
0010
0000
0000
1010
0000
0000
0100
0000
0001
0000
,  // measure 73
0010
0000
0000
0001
0000
0000
1000
0000
0000
1001
0000
0000
0001
0000
0010
0000
,  // measure 74
0100
0000
0000
0010
0000
0000
0001
0000
0000
0101
0000
0000
0001
0000
0100
0000
,  // measure 75
0010
0000
1001
0000
0100
0100
1000
0000
,  // measure 76
0001
0000
0010
0001
0100
0001
0010
0000
,  // measure 77
0100
0000
1000
0010
0100
0010
1000
0000
,  // measure 78
0001
0000
1000
0100
0001
0100
1000
0000
,  // measure 79
0001
0000
1000
0010
0001
0010
1000
0000
,  // measure 80
0120
0000
0000
0000
1030
0000
0010
0000
0100
0000
0000
0010
0000
0000
1000
0000
,  // measure 81
1200
0000
0000
0000
1300
0000
0100
0000
0010
0000
0000
0001
0000
0000
1000
0000
,  // measure 82
1002
0100
0100
0103
,  // measure 83
0010
0000
0000
1001
0000
0000
0100
0000
0000
1001
0000
0000
0001
0000
0010
0000
,  // measure 84
0100
0000
0011
0000
1000
0100
0010
0100
,  // measure 85
0000
0100
1000
0001
0100
0010
0100
0000
,  // measure 86
0001
0000
0101
0000
0001
0010
0100
0010
,  // measure 87
0000
0010
0001
1000
0010
0100
0010
0000
,  // measure 88
1000
0000
1010
0000
0001
0010
0100
1000
,  // measure 89
0000
0001
0010
1000
0010
0001
1000
0000
,  // measure 90
0001
0000
0101
0000
1000
0100
0010
0001
,  // measure 91
1000
0000
0000
1010
0000
0000
0001
0000
0000
0101
0000
0000
1001
0000
0000
0000
,  // measure 92
0010
0000
0000
0010
1000
0000
0001
0000
0000
0100
0001
0000
0010
0000
0100
0000
,  // measure 93
1000
0000
0000
1000
0010
0000
0100
0000
0000
0010
1000
0000
0001
0000
0100
0000
,  // measure 94
0010
0000
0000
0100
0001
0000
1000
0000
0000
0100
0010
0000
0100
0000
1000
0000
,  // measure 95
0001
0110
2002
3003
,  // measure 96
1000
0000
0000
1100
0000
0000
0001
0000
0100
0000
0000
0101
0000
0000
0001
0000
,  // measure 97
0010
0000
0000
0011
0000
0000
1000
0000
0100
0000
0000
1100
0000
0000
1000
0000
,  // measure 98
0001
0100
0001
0100
1000
0100
1000
0100
,  // measure 99
0002
0000
0000
0000
,  // measure 100
2000
0000
0000
0000
,  // measure 101
0000
0000
0000
3003
;
